#TITLE:Dream Thieves;
#SUBTITLE:;
#ARTIST:Sonata Arctica;
#TITLETRANSLIT:;
#SUBTITLETRANSLIT:;
#ARTISTTRANSLIT:;
#CREDIT:Sanjuro;
#BANNER:banner.jpg;
#BACKGROUND:wp.jpg;
#LYRICSPATH:;
#CDTITLE:Sanjuro.png;
#MUSIC:05 - Dream Thieves.mp3;
#OFFSET:1.280;
#SAMPLESTART:193.220;
#SAMPLELENGTH:18.580;
#SELECTABLE:YES;
#BPMS:0.000=140.040;
#STOPS:42.000=0.640
,258.500=0.020
,444.000=0.020
;
#BGCHANGES:;
// cache tags:
#FIRSTBEAT:4.000;
#LASTBEAT:603.500;
#SONGFILENAME:Songs/new cedric/[Sanjuro] Dream Thieves - Sonata Arctica/05 - Dream Thieves.sm;
#HASMUSIC:1;
#HASBANNER:1;
#MUSICLENGTH:266.245;
// end cache tags

//---------------dance-single - ----------------
#NOTES:
     dance-single:
     :
     Challenge:
     11:
     0.897,0.992,0.154,0.274,1.000,1557.000,41.000,73.000,0.000,0.000:
0000
0000
0000
0000
,
2000
3000
0200
0300
,
2000
3000
0020
0030
,
2000
3000
0002
0003
,
0200
0300
0002
0003
,
0020
0030
0001
0100
,
2000
3000
0001
0100
,
2000
3000
0001
0100
,
2000
3000
0001
0100
,
1000
1000
1000
0100
0100
0100
0010
0010
0010
0001
0001
0001
,
1000
0000
0000
0000
1000
0000
0000
0000
1000
0000
0000
0000
0001
0000
0000
0000
0001
0000
0000
0000
0001
0000
0000
0000
0110
0000
0000
0000
0000
0000
1000
0000
0000
0001
0000
0000
1000
0000
0000
0001
0000
0000
1000
0000
0000
0100
0000
0000
,
0010
0001
1000
0001
1000
0001
1000
0100
0010
0001
1000
0100
0010
0001
1000
0100
,
0010
0001
0100
0001
0100
0010
0100
1000
0100
0010
0001
0010
0100
1000
0100
0010
,
0001
0100
0010
0100
0001
1000
0001
1000
0010
1000
0010
0100
0010
0001
1000
0100
,
0010
0100
1000
0001
0010
0100
1000
0010
0100
1000
0001
0100
0010
0001
1000
0100
,
1000
0010
0100
1000
0001
0010
0001
0100
0001
1000
0100
1000
0010
0100
1000
0100
,
0010
0001
0100
0001
0100
0010
0001
0010
0100
0010
0100
1000
0100
0010
0001
1000
,
0001
1000
0001
0010
0100
1000
0100
0010
2000
3000
0002
0003
2000
3000
0002
2003
,
3002
2000
0000
0000
0000
0000
3003
0000
0000
0000
1000
0100
1000
0010
0100
0001
,
0010
0100
1000
0001
0010
0001
0100
0010
0100
1000
0100
0010
0001
0010
0001
0010
,
0100
1000
0001
0100
0001
0100
0010
0001
1000
0100
1000
0001
0100
0001
0100
0010
,
0100
1000
0010
0100
1000
0001
0100
0001
0100
0010
0001
1000
0010
0100
1000
0010
,
0100
1000
0002
0000
1000
0000
1000
0000
1003
0000
1000
0010
1000
0010
0100
1000
,
0001
0100
0001
0100
0010
0001
0010
0100
1000
0001
1000
0010
0100
0010
0001
1000
,
0010
0100
0010
1000
0010
1000
0010
0100
1000
0001
1000
0100
0010
0001
1000
0001
,
1000
0100
0010
0001
0100
0010
1000
0100
0010
0001
2000
0000
3000
0000
0002
0000
,
0003
0000
0200
0000
0300
0000
0020
0000
0030
0000
1000
0000
0000
0100
0000
1000
,
0100
0000
0001
0100
0001
0100
0001
0100
0001
0100
0001
0000
0000
0000
1001
0000
,
0000
0000
0010
1000
0010
1000
0010
1000
0010
1000
0010
0000
0000
0000
0110
0000
,
0000
0000
1000
0001
1000
0001
1000
0001
1000
0001
1000
0000
0000
0000
0101
0000
,
0000
0000
0010
0100
0010
0100
0110
0000
0000
0000
0010
0100
0010
0000
1000
0001
,
0000
0000
1000
0100
0010
0001
1000
0100
0010
0001
1000
0000
0000
0000
0011
0000
,
0000
0000
0001
0010
0100
1000
0001
0010
0100
1000
0001
0000
0000
0000
0110
0000
,
0001
1000
0001
0000
0000
0000
0000
0000
0000
0000
0000
0000
0000
0000
0000
0000
,
0000
0000
1000
0100
0010
0001
0100
0010
0100
1000
0001
0100
0001
0100
0010
0001
,
1000
0100
1000
0010
0100
0001
0010
0001
0010
0001
1000
0010
1000
0010
0100
0010
,
0001
1000
0100
0010
0001
0010
0001
0010
0100
1000
0001
0010
0001
1000
0100
1000
,
0010
1000
0010
0100
0010
0001
1000
0010
0100
1000
0100
0010
0001
0010
0100
1000
,
0100
0010
0001
0100
0010
0100
1000
0001
0010
0001
0100
0010
0001
1000
0010
0100
,
0001
1000
0010
1000
0010
0100
0010
0001
1000
0010
1000
0100
0001
0100
0010
0001
,
0010
1000
0001
1000
0001
0100
0010
1000
0001
0010
0100
0001
0010
0001
1000
0001
,
0010
0100
1000
0100
0010
0001
1000
0010
1000
0010
0100
1000
0001
0010
1000
0001
,
0010
0001
0100
0001
1000
0001
0100
0001
0010
0100
1000
0010
0100
0010
0001
1000
,
0010
0100
1000
0100
1000
0100
0010
0001
1000
0001
1000
0100
0010
0001
0100
0010
,
0001
0100
0010
0100
1000
0001
0100
0010
0001
0100
0010
0100
1000
0010
0100
0010
,
0001
0100
0010
0100
0010
1000
0001
1000
0010
0100
1000
0001
0100
0010
0001
0100
,
0010
0100
2002
0000
3003
0000
2002
0000
3003
0000
2002
0000
3003
0000
2002
0000
,
3003
0000
2002
0000
3003
0000
2002
0000
3003
0000
1000
0001
0000
1000
0001
0000
,
1000
0001
0000
1000
0001
0010
0100
0000
0001
0000
0001
0010
0000
0001
0010
0000
,
0001
0010
0000
0001
0010
1000
0100
0000
0001
0000
0010
1000
0000
0010
1000
0000
,
0010
1000
0000
0010
0100
0010
0001
0000
0010
0000
2000
0000
3000
0000
0020
0000
,
0030
0000
0200
0300
0002
0003
0200
0300
0002
0003
0001
0010
0000
0001
0010
0000
,
0001
0010
0000
0001
0010
0100
1000
0000
0010
0000
0010
0100
0000
0010
0100
0000
,
0010
0100
0000
0010
0100
0001
1000
0000
0010
0000
0010
0001
0000
0010
0001
0000
,
0010
0001
0000
0010
1000
0100
0010
0001
0100
0000
0022
0033
0000
0000
2200
3300
,
0000
0000
2002
3003
0000
0000
0220
0330
0000
0000
0001
0100
0001
0010
0100
1000
,
0001
1000
0001
0010
0100
1000
0001
1000
0001
0010
0100
1000
0010
0100
0001
0010
,
0100
1000
0010
0100
0001
0010
0100
1000
0010
0001
0010
0100
1000
0100
0010
0001
,
1000
0010
0100
0001
1000
0010
0001
0010
0100
1000
0010
0100
0010
0001
1000
0001
,
1000
0100
0010
0001
1000
0001
1000
0100
0010
0001
1000
0100
0010
0001
0010
0100
,
0010
0001
1000
0010
0100
1000
0010
0100
1000
0100
0010
0001
0100
0010
0100
1000
,
0001
0010
0001
0100
0001
1000
0100
0010
0001
0010
0001
0100
0001
1000
0100
0010
,
0001
0100
0010
0100
1000
0001
1000
0001
0010
0100
1000
0010
0100
0010
0001
1000
,
0100
0010
0001
0010
0100
1000
0010
0001
0100
0010
1000
0100
0010
0001
0100
0010
,
0100
0010
1000
0001
1000
0001
1000
0001
1000
0001
1000
0000
0000
0000
1001
0000
,
0000
0000
0010
1000
0010
1000
0010
1000
0010
1000
0010
0000
0000
0000
1010
0000
,
0000
0000
0010
0001
0010
0001
0010
0001
0010
0001
0010
0000
0000
0000
0011
0000
,
0000
0000
1000
0100
0010
0001
0010
0000
0000
0000
0001
0010
0001
0000
0010
0100
,
0000
0000
0010
1000
0010
0100
0010
0001
0010
0100
1000
0000
0000
0000
1001
0000
,
0000
0000
0100
0010
0100
0010
0100
0010
0100
0010
0100
0000
0000
0000
0110
0000
,
1000
0001
1001
0000
0000
0000
0000
0000
0000
0000
0000
0000
0000
0000
0000
0000
,
0000
0000
0010
0001
0100
1000
0001
0100
0001
0010
1000
0001
1000
0001
0100
1000
,
0010
0001
0010
0100
0001
1000
0100
1000
0100
1000
0010
0100
0010
0100
0001
0100
,
1000
0010
0001
0100
1000
0100
1000
0100
0001
0010
1000
0100
1000
0010
0001
0010
,
0100
0010
0100
0001
0100
1000
0010
0100
0001
0010
0001
0100
1000
0100
0001
0010
,
0001
0100
1000
0001
0100
0001
0010
1000
0100
1000
0001
0100
1000
0010
0100
0001
,
1000
0010
0100
0010
0100
0001
0100
1000
0010
0100
0010
0001
1000
0001
0100
1000
,
0100
0010
1000
0010
1000
0001
0100
0010
1000
0100
0001
1000
0100
1000
0010
1000
,
0100
0001
0010
0001
0100
1000
0010
0100
0010
0100
0001
0010
1000
0100
0010
1000
,
0100
1000
0001
1000
0010
1000
0001
1000
0100
0001
0010
0100
0001
0100
1000
0010
,
0100
0001
0010
0001
0010
0001
0100
1000
0010
1000
0010
0001
0100
1000
0001
0100
,
1000
0001
0100
0001
0010
1000
0001
0100
1000
0001
0100
0001
0010
0100
0001
0100
,
1000
0001
0100
0001
0100
0010
1000
0010
0100
0001
0010
1000
0001
0100
2000
0000
,
0000
3000
0000
0020
0000
0000
0000
0000
,
0000
0000
0000
0000
,
0000
1000
0000
0000
0000
0000
0000
0000
,
0000
0030
0000
0000
0000
0000
1000
0100
,
0010
0001
0010
0100
1000
0100
0010
0001
,
0010
0100
1000
0100
0010
0001
1000
0100
,
0010
0001
1000
0100
0010
0001
0010
0100
,
1000
0001
0010
0100
1000
0001
1000
0001
,
1000
0000
0001
1000
0001
1000
0001
0000
0000
0000
1000
0100
1000
0100
1000
0000
,
0000
0000
0010
0100
0010
0100
0010
0000
0000
0000
0001
0100
0001
0100
0001
0100
,
0010
0100
1000
0001
1000
0001
1000
0000
0000
0000
0010
1000
0010
1000
0010
0000
,
0000
0000
0100
0001
0100
0001
0100
0000
0000
0000
0100
1000
0100
1000
0100
0010
,
0001
0010
0001
0100
0001
0100
0001
0000
0000
0000
1000
0100
0010
0001
0010
0000
,
0000
0000
0001
0010
0100
1000
0100
0000
0000
0000
0100
0001
0100
0001
1000
0010
,
1000
0100
0010
0001
0010
0100
1000
0000
0000
0000
0001
0100
0010
0100
1000
0000
,
0000
0000
0001
0010
1000
0100
1000
0000
0000
0000
0001
0010
0100
1000
0100
0010
,
0100
0010
1001
0000
0000
0000
0001
0000
0000
0000
0100
0000
0000
0000
0010
0000
,
0000
1000
0000
0000
0000
0000
0000
1000
,
0000
0010
0000
0000
1000
0000
0000
0001
,
0000
0100
0000
0000
0000
0000
0000
0000
,
0000
0100
0000
0000
0001
0000
0000
1000
,
0000
0100
0000
0000
0000
0000
0000
0000
,
0000
0100
0000
0000
0001
0000
0000
1000
,
0000
0100
0000
0000
0000
0000
0000
0010
,
0000
1000
0000
0000
0100
0000
0000
0001
,
0000
0100
0000
0000
0000
0000
0000
0000
,
0000
0000
1000
0000
0000
0000
0000
0000
0000
0000
0000
0000
0000
0000
0000
0001
,
0000
1000
0000
0001
0000
0000
0000
0000
0000
0000
0000
0000
0000
0000
0000
0000
,
0000
2001
0000
0000
0000
0000
0000
0000
,
0000
0000
0000
0000
,
0000
0000
3001
1000
0001
0010
0100
1000
0010
0100
0010
0001
0100
0010
1000
0100
,
1000
0001
0100
0001
0100
0010
0001
0010
0100
1000
0010
0100
1000
0100
0010
0001
,
1000
0010
1000
0100
0010
0100
1000
0001
0100
0001
0100
0010
0100
1000
0010
0100
,
0010
0001
1000
0100
0010
0001
0010
0100
2000
0000
0000
0000
0000
0000
0020
3000
,
0030
0000
0100
0010
0100
0010
0001
1000
0010
0100
0001
0010
0001
0100
0010
0001
,
1000
0100
1000
0100
1000
0001
0010
0001
0010
0001
0100
0001
0100
0001
0010
0100
,
1000
0010
0001
0100
0010
0001
0010
0100
1000
0001
1000
0100
0010
0001
1000
0100
,
1000
0010
1000
0001
0100
0010
0001
0010
0100
1000
0100
1000
0100
0010
1000
0010
,
1000
0100
0010
1000
0010
0100
0010
0001
0010
1000
0010
0100
1000
0001
1000
0010
,
0100
0010
0001
0100
0001
0010
0100
1000
0010
1000
0010
0001
0010
0100
1000
0010
,
1000
0100
0011
0000
0000
0000
1100
0000
0000
0000
1001
0000
0000
0000
0110
0000
,
0000
0011
0000
1010
0000
0110
0000
1001
,
0000
0000
0011
0000
0000
0000
1100
0000
0001
1000
0001
1000
0100
0010
0001
1000
,
0001
1000
0100
0010
0001
0100
0010
0100
1000
0001
0100
0001
0100
0010
0001
1000
,
0100
1000
0010
0100
0001
1000
0001
0100
0010
0001
1000
0100
1000
0010
1000
0010
,
0100
0001
0100
0001
1000
0010
0100
0001
1000
0100
0010
0001
1000
0010
0100
1000
,
0001
0100
0001
0010
1000
0010
0100
1000
0010
1000
0010
0100
0010
0001
1000
0001
,
1000
0100
0010
0001
0100
0010
0100
1000
0010
0100
0010
1000
0001
0100
0010
0001
,
0010
0100
1000
0010
1000
0010
0100
1000
0100
0010
0001
0100
0010
1000
0100
0010
,
0001
1000
0100
0010
0001
0100
1000
0001
0010
0100
1000
0010
0001
0010
0100
0001
,
1000
0100
0010
1000
0100
1000
0001
0100
0001
0010
0100
1000
0010
0100
0010
1000
,
0100
1000
0001
0100
0001
0100
0010
0100
1000
0001
0100
0010
0100
1000
0010
0100
,
0010
0001
1000
0010
0100
1000
0001
1000
0001
0100
0010
0001
1000
0010
0100
0001
,
1000
0010
0100
1000
0001
0100
0010
1000
0001
0100
0010
0001
0100
0010
0001
0100
,
0010
0001
2000
0000
0000
0000
0001
0000
0000
0000
0001
0000
0000
0000
0001
0000
,
0000
0001
0000
0001
0000
0001
0000
0001
,
0000
0001
0000
0001
0000
0001
0000
0001
,
0000
3001
0000
1100
0000
1001
0000
0101
,
0000
0010
0000
2000
3000
0020
0030
0002
,
0003
2000
0000
0100
0000
3001
0000
0100
,
0000
0010
0000
2000
3000
0020
0030
0200
,
0300
0002
0003
0000
0200
0300
0000
0020
,
0030
2002
0000
0000
3003
2002
0000
0000
,
3003
2002
0000
0000
0000
0000
0000
0000
,
3003
0000
0000
0010
0000
1000
0000
0100
,
0000
0000
0001
0010
0100
1000
0001
0010
0100
1000
0001
0010
0100
1000
0001
0010
,
0100
1000
0000
0000
0000
0000
0000
0000
0000
0000
0000
0000
0000
0000
0000
0000
,
0000
0000
0000
0000
0000
0000
0002
0003
;
