#TITLE:Final Destination;
#SUBTITLE:Super Smash Bros. Brawl;
#ARTIST:Nintendo & HAL Laboratory Inc.;
#TITLETRANSLIT:;
#SUBTITLETRANSLIT:;
#ARTISTTRANSLIT:;
#CREDIT:owenviau1;
#BANNER:../Banner.png;
#BACKGROUND:../BG.PNG;
#LYRICSPATH:;
#CDTITLE:../CDTitleOV1.png;
#MUSIC:Final Destination - Super Smash Bros. Brawl.ogg;
#OFFSET:-0.133;
#SAMPLESTART:7.319;
#SAMPLELENGTH:29.999;
#SELECTABLE:YES;
#BPMS:0.000=167.002;
#STOPS:;
#BGCHANGES:;
// cache tags:
#FIRSTBEAT:20.000;
#LASTBEAT:570.000;
#SONGFILENAME:Songs/Index Fusion/Final Destination - [owenviau1]/Final Destination.sm;
#HASMUSIC:1;
#HASBANNER:1;
#MUSICLENGTH:204.946;
// end cache tags

//---------------dance-single - 16 (owenviau1)----------------
#NOTES:
     dance-single:
     16 (owenviau1):
     Challenge:
     16:
     1.000,1.000,0.181,0.629,1.000,1709.000,37.000,129.000,2.000,33.000:
0000
0000
0000
0000
,
0000
0000
0000
0000
,
0000
0000
0000
0000
,
0000
0000
0000
0000
,
0000
0000
0000
0000
,
1000
0000
0100
0000
1000
0000
0100
0000
0000
0010
0000
0000
0001
0000
0000
0100
0000
0000
0010
0000
1000
0000
0010
0000
1000
0000
0000
0001
0000
0000
0010
0000
0000
0100
0000
0000
1000
0000
0001
0000
1000
0000
0001
0000
0000
0100
0000
0000
,
0010
0000
0000
1000
0000
0000
0001
0000
0010
0000
0001
0000
0010
0000
0000
0100
0000
0000
1000
0000
0000
0001
0000
0000
1000
0000
0010
0000
0100
0000
0010
0000
0000
1000
0000
0000
0001
0000
0100
0000
0001
0000
0010
0000
0000
0100
0000
0000
,
1000
0000
0001
0000
1000
0000
0100
0000
0000
0010
0000
0000
0001
0000
0000
1000
0000
0000
0010
0000
0100
0000
0010
0000
1000
0000
0000
0001
0000
0000
0010
0000
0000
0001
0000
0000
0100
0000
0010
0000
1000
0000
0010
0000
0000
0100
0000
0000
,
0001
0000
0000
1000
0000
0000
0001
0000
0100
0000
0010
0000
0100
0000
0000
0001
0000
0000
1000
0000
0000
0010
0000
0000
1000
0000
0001
0000
0100
0000
0001
0000
0000
1000
0000
0000
0010
0000
0100
0000
0010
0000
1000
0000
0000
0001
0000
0000
,
0100
0000
0010
0000
0100
0000
0001
0000
0000
1000
0000
0000
0010
0000
0000
0100
0000
0000
0010
0000
1000
0000
0001
0000
1000
0000
0000
0100
0000
0000
0010
0000
0000
0001
0000
0000
0100
0000
0010
0000
1000
0000
0010
0000
0000
0100
0000
0000
,
0001
0000
0000
1000
0000
0000
0001
0000
0100
0000
0010
0000
0100
0000
0000
0001
0000
0000
1000
0000
0000
0100
0000
0000
0010
0000
0001
0000
0010
0000
0001
0000
0000
1000
0000
0000
0010
0000
0100
0000
0010
0000
0100
0000
0000
0001
0000
0000
,
1000
0000
0100
0000
1000
0000
0010
0000
0000
0100
0000
0000
0001
0000
0000
1000
0000
0000
0001
0000
0100
0000
0010
0000
0100
0000
0000
0001
0000
0000
1000
0000
0000
0100
0000
0000
1000
0000
0001
0000
0100
0000
0001
0000
0000
0010
0000
0000
,
0100
0000
0000
1000
0000
0000
0001
0000
1000
0000
0010
0000
0100
0000
0000
0001
0000
0000
1000
0000
0000
0001
0000
0000
0010
0000
0000
0100
0000
0000
1000
0000
0000
0001
0000
0000
0100
0000
0000
0010
0000
0000
0100
0000
0000
0001
0000
0000
,
1000
0000
0010
0000
1000
0000
0100
0000
0000
0010
0000
0000
0001
0000
0000
0100
0000
0000
0010
0000
1000
0000
0010
0000
0100
0000
0000
0001
0000
0000
0100
0000
0000
0010
0000
0000
1000
0000
0001
0000
1000
0000
0001
0000
0000
0100
0000
0000
,
0010
0000
0000
1000
0000
0000
0001
0000
0010
0000
0001
0000
0010
0000
0000
0100
0000
0000
1000
0000
0000
0001
0000
0000
1000
0000
0010
0000
0100
0000
0010
0000
0000
1000
0000
0000
0001
0000
0100
0000
0001
0000
0010
0000
0000
0100
0000
0000
,
1000
0000
0001
0000
1000
0000
0100
0000
0000
0010
0000
0000
0001
0000
0000
1000
0000
0000
0010
0000
0100
0000
0010
0000
1000
0000
0000
0001
0000
0000
0010
0000
0000
0001
0000
0000
0100
0000
0010
0000
1000
0000
0010
0000
0000
0100
0000
0000
,
0001
0000
0000
1000
0000
0000
0001
0000
0100
0000
0010
0000
0100
0000
0000
0001
0000
0000
1000
0000
0000
0010
0000
0000
1000
0000
0001
0000
0100
0000
0001
0000
0000
1000
0000
0000
0010
0000
0100
0000
0010
0000
1000
0000
0000
0001
0000
0000
,
0100
0000
0010
0000
0100
0000
0001
0000
0000
1000
0000
0000
0010
0000
0000
0100
0000
0000
0010
0000
1000
0000
0001
0000
1000
0000
0000
0100
0000
0000
0010
0000
0000
0001
0000
0000
0100
0000
0010
0000
1000
0000
0010
0000
0000
0100
0000
0000
,
0001
0000
1000
0000
0001
0000
1000
0000
0000
0100
0000
0000
0010
0000
0000
0001
0000
0000
1000
0000
0000
0010
0000
0000
1000
0000
0000
0001
0000
0000
0100
0000
0000
0010
0000
0000
0100
0000
0000
0001
0000
0000
1000
0000
0000
0001
0000
0000
,
0010
0000
0100
0000
0010
0000
0100
0000
0000
1000
0000
0000
0001
0000
0000
1000
0000
0000
0010
0000
0100
0000
0001
0000
0100
0000
0000
0010
0000
0000
1000
0000
0000
0100
0000
0000
1000
0000
0001
0000
0100
0000
0001
0000
0000
0010
0000
0000
,
0100
0000
1000
0000
0001
0100
0001
0000
1000
0000
0010
0000
0100
0001
0100
0010
,
1000
0001
0100
0001
0010
0100
1000
0001
0100
0010
0100
0001
1000
0010
1000
0100
,
0010
0001
0100
0010
0100
0001
1000
0010
1000
0100
0010
0001
1000
0010
0100
0001
,
1000
0010
0100
0001
0100
0010
1000
0001
0100
0001
0010
0100
1000
0001
0100
0010
,
0100
0001
1000
0100
1000
0010
0100
0001
0100
0010
1000
0001
0010
0100
1000
0001
,
0010
0001
1000
0100
0010
0001
1000
0100
1000
0010
0100
0001
0100
0010
1000
0001
,
1000
0100
0010
0001
1000
0010
1000
0001
0100
0001
1000
0100
0010
0001
1000
0100
,
1000
0010
0100
0010
1000
0001
0100
0001
0010
0100
1000
0001
0010
0001
0100
0010
,
1000
0001
0100
0010
0100
0001
2000
3000
,
0120
0000
0230
0302
,
2013
3020
0230
0000
,
0312
2003
3020
0000
,
0200
0000
0000
0000
,
1332
0000
2003
3200
,
0312
2003
3020
0000
,
0132
2003
3200
0000
,
0020
0000
0000
0000
,
0332
1003
0001
0100
0020
0130
0002
1003
,
0100
0000
0010
0000
0001
1000
0001
0100
0020
0000
1030
0000
0001
0000
0100
0000
,
0020
0130
0001
1000
0200
0310
0002
1003
,
0010
0000
0100
0000
0001
1000
0010
1000
0200
0000
0310
0000
0001
0000
1000
0000
,
0020
0130
0010
1000
0002
0103
0002
0013
,
0100
1000
0002
0103
0010
0100
0002
1003
,
1010
0010
0100
0001
1000
0010
0100
0001
,
1000
0100
0010
0001
1000
0100
0010
0001
,
1001
1000
0010
0100
0010
1000
0001
0100
,
0001
0010
0100
1000
0001
0000
0100
0000
0010
1000
0010
0100
0001
1000
0001
0010
,
0100
1000
0001
0100
0010
0100
0001
1000
0100
1000
0001
0100
0010
0100
0001
1000
,
0010
0100
0010
1000
0001
0010
0100
1000
0001
0010
0001
0100
0010
0100
0001
1000
,
0001
0100
0010
1000
0010
0100
0001
1000
0001
0010
0100
1000
0001
0010
0001
1000
,
0100
1000
0010
0100
0001
0100
0010
1000
0001
1000
0100
0010
0001
1000
0100
1000
,
0020
0000
0130
0000
0001
0000
1000
0000
0001
0000
0010
0100
1000
0000
0001
0000
,
0100
0000
0010
0000
1000
0000
0001
0000
0100
0000
0001
1000
0001
0000
0010
0000
,
0100
0000
1000
0000
0010
0000
0100
0001
0100
0000
0010
0000
1000
0001
1000
0000
,
0100
0000
0010
0001
1000
0001
0100
0000
0020
0000
2030
0000
3002
0000
0023
0000
,
0230
0000
1300
0000
0001
0010
0001
0000
0100
0000
0010
1000
0010
0100
0001
0000
,
1000
0000
0001
0010
0100
1000
0001
0000
0200
0000
0320
0000
2030
0000
3002
0000
,
2003
0000
3100
0000
0010
0000
0001
0100
0001
0000
1000
0000
0010
0000
0100
0000
,
0001
0000
1000
0010
2000
0000
3200
0000
0320
0000
0031
1000
0002
0000
0203
0000
,
0320
0030
2000
3001
0100
0000
0010
0000
,
1000
0001
1000
0000
0100
0000
0010
0001
,
2000
3000
0010
0000
0100
0000
0010
0000
2000
3000
0001
0000
0200
0300
0001
0000
,
2000
3000
0100
0000
0020
0030
0001
0000
2000
3000
0010
0000
1000
0000
0001
0000
,
0200
0300
0010
0000
0100
0000
0001
0000
2000
3000
0100
0000
2000
3000
0001
0000
,
0020
0030
0100
0000
1000
0000
0001
0100
0002
0003
1000
0000
0020
0030
0100
0000
,
0020
0030
1000
0000
0001
0000
0100
0000
0002
0003
1000
0000
0200
0300
0010
0000
,
0002
0003
0100
0000
0010
0000
1000
0000
0020
0030
0100
0000
0002
0003
1000
0000
,
2MM2
0000
0000
3003
0020
0000
0230
0000
,
0302
0000
0000
0000
0000
0000
1003
0000
0000
0010
0000
0000
0100
0000
0010
0000
1000
0000
0001
0000
0100
0000
0001
0000
,
2000
0000
3200
0320
,
0032
2003
3002
0000
,
0203
0000
0320
2030
,
3002
0000
0103
0010
1000
0001
2000
0000
3100
0000
0010
0001
,
2000
0010
3102
2013
,
3120
1000
0231
1302
,
2013
3120
0132
1000
,
0010
0000
0000
0100
0000
0000
1003
0100
0010
0001
1000
0001
,
0200
0010
1320
0132
,
2103
3210
0321
0001
,
1032
0100
1023
2130
,
3102
0010
0123
2130
,
3102
1000
2013
3120
,
0132
1000
1023
2031
,
3001
0010
0100
1000
0001
0100
0010
1000
0010
0100
0001
1000
0001
0100
0010
0100
,
0001
1000
0010
0100
0010
1000
0001
0100
0001
0010
0100
1000
0010
0100
0010
1000
0001
0100
0001
1000
0100
0010
0001
1000
,
0001
0100
0010
0100
0001
1000
0010
1000
0100
0010
0001
1000
0100
1000
0001
0100
,
0010
0100
0001
1000
0001
0010
0100
1000
0001
0010
0001
0100
0010
0100
0001
1000
,
0010
1000
0100
0010
0001
1000
0100
1000
0010
0100
0001
0100
0010
1000
0001
1000
,
0100
0010
0001
1000
0100
1000
0010
0100
0010
1000
0001
0100
0001
0010
0100
1000
,
0001
0010
0001
1000
0100
1000
0001
0100
0010
0100
0001
1000
0010
1000
0001
0100
,
0001
1000
0100
0010
0001
1000
0100
1000
0001
0010
0001
0100
0010
0100
0001
1000
,
0010
1000
0001
0100
0010
0100
0001
1000
0100
0010
0001
1000
0100
1000
0001
0010
,
0100
1000
0001
0010
0001
0100
0010
0100
0001
1000
0010
1000
0001
0100
0001
1000
,
0010
0100
0010
1000
0001
0100
0001
1000
0100
0010
0001
1000
0100
1000
0010
0100
,
0010
1000
0001
0010
0001
0100
0010
0100
0001
1000
0100
0010
0001
1000
0100
1000
,
0001
0010
0001
0100
0010
1000
0010
0100
0001
1000
0001
0010
0100
1000
0001
0010
,
0001
1000
0100
1000
0010
0100
0010
1000
0001
0100
0001
1000
0100
0010
0001
1000
,
0010
1000
0001
0100
0010
0100
0001
1000
0100
0010
0001
1000
0100
1000
0001
0010
,
0001
1000
0100
0010
0001
1000
0100
1000
0001
0100
0010
1000
0001
0100
0001
1000
,
0100
0010
0001
1000
0100
1000
0001
0010
0001
0100
0010
0100
0001
1000
0010
1000
,
0001
0100
0001
1000
0100
0010
0001
1000
0100
1000
0001
0010
0001
0100
0010
0100
,
0001
1000
0010
1000
0001
0100
0001
1000
0100
0010
0001
1000
0100
1000
0001
0100
,
0010
1000
0010
0100
0001
1000
0001
0010
0100
1000
0001
0010
0001
0100
0010
1000
,
0010
0100
0001
1000
0001
0010
0100
1000
0001
0010
0001
1000
0100
1000
0001
0100
,
0010
0100
0001
1000
0010
1000
0001
0100
0001
1000
0100
0010
0001
1000
0100
1000
,
0001
0010
0001
0100
0010
1000
0001
0100
0001
1000
0100
0010
0001
1000
0010
1000
,
0100
0010
0001
1000
0001
0100
0010
0100
0001
1000
0001
0100
0010
1000
0010
0100
,
0001
1000
0001
0010
0100
1000
0001
0010
0001
0100
0010
0100
0001
1000
0010
1000
,
0100
0010
0001
1000
0100
1000
0001
0100
0010
0100
0001
1000
0010
1000
0100
0010
,
0001
1000
0100
1000
0001
0010
0001
0100
0010
0100
0001
1000
0001
0100
0010
1000
,
0010
0100
0001
1000
0001
0010
0100
1000
0001
0010
0001
1000
0100
1000
0010
0100
,
0010
1000
0001
0100
0010
0100
0001
1000
0100
0010
0001
1000
0100
1000
0010
0100
,
0001
0000
0000
0001
0000
0000
0010
0000
0000
0010
0000
0000
0100
0000
1000
0000
0001
0000
1000
0000
0010
0000
0100
0000
,
0002
2003
3020
0230
,
1302
0000
0000
0000
0000
0000
0000
0000
1000
0000
0000
0003
2000
0000
0000
0000
,
3200
0320
0032
2003
,
3120
0000
2030
0000
,
3001
0000
0000
0000
0000
0000
0000
0000
0000
0000
0000
0000
0010
0000
0000
0000
0000
0000
0100
0000
0000
0000
0000
0000
1000
0000
0010
0000
1000
0000
0010
0000
0000
0100
0000
0000
0001
0000
0000
0100
0000
0000
0001
0000
1000
0000
0001
0000
,
1000
0000
0000
0010
0000
0000
0100
0000
0000
0010
0000
0000
1000
0000
0001
0000
1000
0000
0001
0000
0000
0100
0000
0000
0010
0000
0000
1000
0000
0000
0001
0000
0010
0000
0001
0000
0010
0000
0000
0100
0000
0000
1000
0000
0000
0001
0000
0000
,
1000
0000
0010
0000
0100
0000
0010
0000
0000
1000
0000
0000
0001
0000
0100
0000
0001
0000
0010
0000
0000
0100
0000
0000
1000
0000
0001
0000
1000
0000
0100
0000
0000
0010
0000
0000
0001
0000
0000
1000
0000
0000
0010
0000
0100
0000
0010
0000
,
1000
0000
0000
0001
0000
0000
0010
0000
0000
0001
0000
0000
0100
0000
0010
0000
1000
0000
0010
0000
0000
0100
0000
0000
0001
0000
0000
1000
0000
0000
0001
0000
0100
0000
0010
0000
0100
0000
0000
0001
0000
0000
1000
0000
0000
0010
0000
0000
,
1000
0000
0001
0000
0100
0000
0001
0000
0000
1000
0000
0000
0010
0000
0100
0000
0010
0000
1000
0000
0000
0001
0000
0000
0100
0000
0010
0000
0100
0000
0001
0000
0000
1000
0000
0000
0010
0000
0000
0100
0000
0000
0010
0000
1000
0000
0001
0000
,
1000
0000
0000
0100
0000
0000
0010
0000
0000
0001
0000
0000
0100
0000
0010
0000
1000
0000
0010
0000
0000
0100
0000
0000
0001
0000
0000
1000
0000
0000
0001
0000
0100
0000
0010
0000
0100
0000
0000
0001
0000
0000
1000
0000
0000
0100
0000
0000
,
0010
0000
0001
0000
0010
0000
0001
0000
0000
1000
0000
0000
0010
0000
0100
0000
0010
0000
0100
0000
0000
0001
0000
0000
1000
0000
0100
0000
1000
0000
0010
0000
0000
0100
0000
0000
0001
0000
0000
1000
0000
0000
0001
0000
0100
0000
0010
0000
,
0100
0000
0000
0001
0000
0000
1000
0000
0000
0100
0000
0000
1000
0000
0001
0000
0100
0000
0001
0000
0000
0010
0000
0000
0100
0000
0000
1000
0000
0000
0001
0000
1000
0000
0010
0000
0100
0000
0000
0001
0000
0000
1000
0000
0000
0001
0000
0000
,
0010
0000
0000
0100
0000
0000
1000
0000
0000
0001
0000
0000
0100
0000
0000
0010
0000
0000
0100
0000
0000
0001
0000
0000
1000
0000
0010
0000
1000
0000
0100
0000
0000
0010
0000
0000
0001
0000
0000
0100
0000
0000
0010
0000
1000
0000
0010
0000
,
0100
0000
0000
0001
0000
0000
0100
0000
0000
0010
0000
0000
1000
0000
0001
0000
1000
0000
0001
0000
0000
0100
0000
0000
0010
0000
0000
1000
0000
0000
0001
0000
0010
0000
0001
0000
0010
0000
0000
0100
0000
0000
1000
0000
0000
0001
0000
0000
,
1000
0000
0010
0000
0100
0000
0010
0000
0000
1000
0000
0000
0001
0000
0100
0000
0001
0000
0010
0000
0000
0100
0000
0000
1000
0000
0001
0000
1000
0000
0100
0000
0000
0010
0000
0000
0001
0000
0000
1000
0000
0000
0010
0000
0100
0000
0010
0000
,
1000
0000
0000
0001
0000
0000
0010
0000
0000
0001
0000
0000
0100
0000
0010
0000
1000
0000
0010
0000
0000
0100
0000
0000
0001
0000
0000
1000
0000
0000
0001
0000
0100
0000
0010
0000
0100
0000
0000
0001
0000
0000
1000
0000
0000
0010
0000
0000
,
1000
0000
0001
0000
0100
0000
0001
0000
0000
1000
0000
0000
0010
0000
0100
0000
0010
0000
1000
0000
0000
0001
0000
0000
0100
0000
0010
0000
0100
0000
0001
0000
0000
1000
0000
0000
0010
0000
0000
0100
0000
0000
0010
0000
1000
0000
0001
0000
,
1000
0000
0000
0100
0000
0000
0010
0000
0000
0001
0000
0000
0100
0000
0010
0000
1000
0000
0010
0000
0000
0100
0000
0000
0001
0000
1000
0000
0001
0000
1000
0000
0000
0100
0000
0000
0010
0000
0000
0001
0000
0000
1000
0000
0000
0010
0000
0000
,
1000
0000
0000
0001
0000
0000
0100
0000
0000
0010
0000
0000
0100
0000
0000
0001
0000
0000
1000
0000
0000
0001
0000
0000
0010
0000
0100
0000
0010
0000
0100
0000
0000
1000
0000
0000
0001
0000
0000
1000
0000
0000
0010
0000
0100
0000
0001
0000
,
0100
0000
0000
0010
0000
0000
1000
0000
0000
0100
0000
0000
1000
0000
0001
0000
0100
0000
0001
0000
0000
0010
0000
0000
0100
0000
0000
0000
0000
0000
1000
0000
0000
0000
0000
0000
0001
0000
0000
0100
0000
0000
0001
0000
0000
0000
0000
0000
,
1000
0000
0010
0000
0100
0001
0100
0010
1000
0001
0100
0001
0010
0100
1000
0001
,
0100
0010
0100
0001
1000
0010
1000
0100
0010
0001
0100
0010
0100
0001
1000
0010
,
1000
0100
0010
0001
1000
0010
0100
0001
1000
0010
0100
0001
0100
0010
1000
0001
,
0100
0001
0010
0100
1000
0001
0100
0010
0100
0001
1000
0100
1000
0010
0100
0001
,
0100
0010
1000
0001
0010
0100
1000
0001
0010
0001
1000
0100
0010
0001
1000
0100
,
1000
0010
0100
0001
0100
0010
1000
0001
1000
0100
0010
0001
1000
0010
1000
0001
,
0100
0001
1000
0100
0010
0001
1000
0100
1000
0010
0100
0010
1000
0001
0100
0001
,
0010
0100
1000
0001
0010
0001
0100
0010
1000
0000
0001
0000
0100
0000
0010
0000
,
0100
0001
2000
3000
0120
0000
0000
0000
,
0230
0302
0003
0000
;

//---------------dance-single - 23 (owenviau1)----------------
#NOTES:
     dance-single:
     23 (owenviau1):
     Edit:
     23:
     1.000,1.000,0.181,0.629,1.000,1929.000,37.000,129.000,2.000,33.000:
0000
0000
0000
0000
,
0000
0000
0000
0000
,
0000
0000
0000
0000
,
0000
0000
0000
0000
,
0000
0000
0000
0000
,
1000
0000
0100
0000
1000
0000
0100
0000
0000
0010
0000
0000
0001
0000
0000
0100
0000
0000
0010
0000
1000
0000
0010
0000
1000
0000
0000
0001
0000
0000
0010
0000
0000
0100
0000
0000
1000
0000
0001
0000
1000
0000
0001
0000
0000
0100
0000
0000
,
0010
0000
0000
1000
0000
0000
0001
0000
0010
0000
0001
0000
0010
0000
0000
0100
0000
0000
1000
0000
0000
0001
0000
0000
1000
0000
0010
0000
0100
0000
0010
0000
0000
1000
0000
0000
0001
0000
0100
0000
0001
0000
0010
0000
0000
0100
0000
0000
,
1000
0000
0001
0000
1000
0000
0100
0000
0000
0010
0000
0000
0001
0000
0000
1000
0000
0000
0010
0000
0100
0000
0010
0000
1000
0000
0000
0001
0000
0000
0010
0000
0000
0001
0000
0000
0100
0000
0010
0000
1000
0000
0010
0000
0000
0100
0000
0000
,
0001
0000
0000
1000
0000
0000
0001
0000
0100
0000
0010
0000
0100
0000
0000
0001
0000
0000
1000
0000
0000
0010
0000
0000
1000
0000
0001
0000
0100
0000
0001
0000
0000
1000
0000
0000
0010
0000
0100
0000
0010
0000
1000
0000
0000
0001
0000
0000
,
0100
0000
0010
0000
0100
0000
0001
0000
0000
1000
0000
0000
0010
0000
0000
0100
0000
0000
0010
0000
1000
0000
0001
0000
1000
0000
0000
0100
0000
0000
0010
0000
0000
0001
0000
0000
0100
0000
0010
0000
1000
0000
0010
0000
0000
0100
0000
0000
,
0001
0000
0000
1000
0000
0000
0001
0000
0100
0000
0010
0000
0100
0000
0000
0001
0000
0000
1000
0000
0000
0100
0000
0000
0010
0000
0001
0000
0010
0000
0001
0000
0000
1000
0000
0000
0010
0000
0100
0000
0010
0000
0100
0000
0000
0001
0000
0000
,
1000
0000
0100
0000
1000
0000
0010
0000
0000
0100
0000
0000
0001
0000
0000
1000
0000
0000
0001
0000
0100
0000
0010
0000
0100
0000
0000
0001
0000
0000
1000
0000
0000
0100
0000
0000
1000
0000
0001
0000
0100
0000
0001
0000
0000
0010
0000
0000
,
0100
0000
0000
1000
0000
0000
0001
0000
1000
0000
0010
0000
0100
0000
0000
0001
0000
0000
1000
0000
0000
0001
0000
0000
0010
0000
0000
0100
0000
0000
1000
0000
0000
0001
0000
0000
0100
0000
0000
0010
0000
0000
0100
0000
0000
0001
0000
0000
,
1000
0000
0010
0000
1000
0000
0100
0000
0000
0010
0000
0000
0001
0000
0000
0100
0000
0000
0010
0000
1000
0000
0010
0000
0100
0000
0000
0001
0000
0000
0100
0000
0000
0010
0000
0000
1000
0000
0001
0000
1000
0000
0001
0000
0000
0100
0000
0000
,
0010
0000
0000
1000
0000
0000
0001
0000
0010
0000
0001
0000
0010
0000
0000
0100
0000
0000
1000
0000
0000
0001
0000
0000
1000
0000
0010
0000
0100
0000
0010
0000
0000
1000
0000
0000
0001
0000
0100
0000
0001
0000
0010
0000
0000
0100
0000
0000
,
1000
0000
0001
0000
1000
0000
0100
0000
0000
0010
0000
0000
0001
0000
0000
1000
0000
0000
0010
0000
0100
0000
0010
0000
1000
0000
0000
0001
0000
0000
0010
0000
0000
0001
0000
0000
0100
0000
0010
0000
1000
0000
0010
0000
0000
0100
0000
0000
,
0001
0000
0000
1000
0000
0000
0001
0000
0100
0000
0010
0000
0100
0000
0000
0001
0000
0000
1000
0000
0000
0010
0000
0000
1000
0000
0001
0000
0100
0000
0001
0000
0000
1000
0000
0000
0010
0000
0100
0000
0010
0000
1000
0000
0000
0001
0000
0000
,
0100
0000
0010
0000
0100
0000
0001
0000
0000
1000
0000
0000
0010
0000
0000
0100
0000
0000
0010
0000
1000
0000
0001
0000
1000
0000
0000
0100
0000
0000
0010
0000
0000
0001
0000
0000
0100
0000
0010
0000
1000
0000
0010
0000
0000
0100
0000
0000
,
0001
0000
1000
0000
0001
0000
1000
0000
0000
0100
0000
0000
0010
0000
0000
0001
0000
0000
1000
0000
0000
0010
0000
0000
1000
0000
0000
0001
0000
0000
0100
0000
0000
0010
0000
0000
0100
0000
0000
0001
0000
0000
1000
0000
0000
0001
0000
0000
,
0010
0000
0100
0000
0010
0000
0100
0000
0000
1000
0000
0000
0001
0000
0000
1000
0000
0000
0010
0000
0100
0000
0001
0000
0100
0000
0000
0010
0000
0000
1000
0000
0000
0100
0000
0000
1000
0000
0001
0000
0100
0000
0001
0000
0000
0010
0000
0000
,
0100
0000
1000
0000
0001
0100
0001
0000
1000
0000
0010
0000
0100
0001
0100
0010
,
1000
0001
0100
0001
0010
0100
1000
0001
0100
0010
0100
0001
1000
0010
1000
0100
,
0010
0001
0100
0010
0100
0001
1000
0010
1000
0100
0010
0001
1000
0010
0100
0001
,
1000
0010
0100
0001
0100
0010
1000
0001
0100
0001
0010
0100
1000
0001
0100
0010
,
0100
0001
1000
0100
1000
0010
0100
0001
0100
0010
1000
0001
0010
0100
1000
0001
,
0010
0001
1000
0100
0010
0001
1000
0100
1000
0010
0100
0001
0100
0010
1000
0001
,
1000
0100
0010
0001
1000
0010
1000
0001
0100
0001
1000
0100
0010
0001
1000
0100
,
1000
0010
0100
0010
1000
0001
0100
0001
0010
0100
1000
0001
0010
0001
0100
0010
,
1000
0001
0100
0010
0100
0001
2000
3000
,
0120
0000
0230
0302
,
2013
3020
0230
0000
,
0312
2003
3020
0000
,
0200
0000
0000
0000
,
1332
0000
2003
3200
,
0312
2003
3020
0000
,
0132
2003
3200
0000
,
0020
0000
0000
0000
,
0332
1003
0001
0100
0020
0130
0002
1003
,
0100
0000
0010
0000
0001
1000
0001
0100
0020
0000
1030
0000
0001
0000
0100
0000
,
0020
0130
0001
1000
0200
0310
0002
1003
,
0010
0000
0100
0000
0001
1000
0010
1000
0200
0000
0310
0000
0001
0000
1000
0000
,
0020
0130
0010
1000
0002
0103
0002
0013
,
0100
1000
0002
0103
0010
0100
0002
1003
,
1010
0010
0100
0001
1000
0010
0100
0001
,
1000
0100
0010
0001
1000
0100
0010
0001
,
1001
1000
0010
0100
0010
1000
0001
0100
,
0001
0010
0100
1000
0001
0000
0100
0000
0010
1000
0010
0100
0001
1000
0001
0010
,
0100
1000
0001
0100
0010
0100
0001
1000
0100
1000
0001
0100
0010
0100
0001
1000
,
0010
0100
0010
1000
0001
0010
0100
1000
0001
0010
0001
0100
0010
0100
0001
1000
,
0001
0100
0010
1000
0010
0100
0001
1000
0001
0010
0100
1000
0001
0010
0001
1000
,
0100
1000
0010
0100
0001
0100
0010
1000
0001
1000
0100
0010
0001
1000
0100
1000
,
0020
0000
0130
0000
0001
0000
1000
0000
0001
0000
0010
0100
1000
0000
0001
0000
,
0100
0000
0010
0000
1000
0000
0001
0000
0100
0000
0001
1000
0001
0000
0010
0000
,
0100
0000
1000
0000
0010
0000
0100
0001
0100
0000
0010
0000
1000
0001
1000
0000
,
0100
0000
0010
0001
1000
0001
0100
0000
0020
0000
2030
0000
3002
0000
0023
0000
,
0230
0000
1300
0000
0001
0010
0001
0000
0100
0000
0010
1000
0010
0100
0001
0000
,
1000
0000
0001
0010
0100
1000
0001
0000
0200
0000
0320
0000
2030
0000
3002
0000
,
2003
0000
3100
0000
0010
0000
0001
0100
0001
0000
1000
0000
0010
0000
0100
0000
,
0001
0000
1000
0010
2000
0000
3200
0000
0320
0000
0031
1000
0002
0000
0203
0000
,
0320
0030
2000
3001
0100
0000
0010
0000
,
1000
0001
1000
0000
0100
0000
0010
0001
,
2000
3000
0010
0000
0100
0000
0010
0000
2000
3000
0001
0000
0200
0300
0001
0000
,
2000
3000
0100
0000
0020
0030
0001
0000
2000
3000
0010
0000
1000
0000
0001
0000
,
0200
0300
0010
0000
0100
0000
0001
0000
2000
3000
0100
0000
2000
3000
0001
0000
,
0020
0030
0100
0000
1000
0000
0001
0100
0002
0003
1000
0000
0020
0030
0100
0000
,
0020
0030
1000
0000
0001
0000
0100
0000
0002
0003
1000
0000
0200
0300
0010
0000
,
0002
0003
0100
0000
0010
0000
1000
0000
0020
0030
0100
0000
0002
0003
1000
0000
,
2MM2
0000
0000
3003
0020
0000
0230
0000
,
0302
0000
0000
0000
0000
0000
1003
0000
0000
0010
0000
0000
0100
0000
0010
0000
1000
0000
0001
0000
0100
0000
0001
0000
,
2000
0000
3200
0320
,
0032
2003
3002
0000
,
0203
0000
0320
2030
,
3002
0000
0103
0010
1000
0001
2000
0000
3100
0000
0010
0001
,
2000
0010
3102
2013
,
3120
1000
0231
1302
,
2013
3120
0132
1000
,
0010
0000
0000
0100
0000
0000
1003
0100
0010
0001
1000
0001
,
0200
0010
1320
0132
,
2103
3210
0321
0001
,
1032
0100
1023
2130
,
3102
0010
0123
2130
,
3102
1000
2013
3120
,
0132
1000
1023
2031
,
3001
0010
0100
1000
0001
0100
0010
1000
0010
0100
0001
1000
0001
0100
0010
0100
,
0001
0000
0000
0000
1000
0000
0000
0000
0010
0000
0000
0000
0100
0000
0000
0000
0010
0000
0000
0000
1000
0000
0000
0000
0001
0000
0000
0000
0100
0000
0000
0000
0001
0000
0000
0000
0010
0000
0000
0000
0100
0000
0000
0000
1000
0000
0000
0000
0001
0000
0000
0100
0000
0000
0010
0000
0000
1000
0000
0000
0010
0000
0000
0100
0000
0000
0001
0000
0000
1000
0000
0000
0001
0000
0000
0010
0000
0000
0100
0000
0000
1000
0000
0000
0001
0000
0000
0100
0000
0000
0010
0000
0000
1000
0000
0000
,
0001
0010
0100
1000
0001
0100
0010
1000
0010
0100
0001
1000
0001
0100
0010
1000
0010
0100
0001
1000
0001
0010
0100
1000
,
0001
0010
0001
1000
0100
1000
0001
0100
0010
0100
0001
1000
0100
1000
0010
0100
0001
0100
0010
1000
0001
1000
0100
0010
,
0001
1000
0100
1000
0001
0010
0001
0100
0010
1000
0010
0100
0001
1000
0001
0010
0100
1000
0001
0010
0100
1000
0100
0010
,
0001
1000
0100
1000
0001
0100
0010
0100
0001
1000
0010
1000
0100
0010
0001
1000
0100
1000
0001
0010
0001
0100
0010
0100
,
0001
1000
0010
1000
0001
0100
0001
1000
0100
0010
0001
1000
0100
1000
0010
0100
0001
0100
0010
1000
0001
1000
0100
0010
,
0001
1000
0100
1000
0010
0100
0010
1000
0001
0100
0001
0010
0100
1000
0001
0100
0001
1000
0010
0100
0010
1000
0001
0100
,
0001
1000
0100
1000
0001
0010
0100
1000
0001
0010
0001
0100
0010
0100
0001
1000
0010
1000
0100
0010
0001
1000
0100
1000
,
0010
0100
0010
1000
0001
0100
0001
1000
0100
0010
0001
1000
0010
0100
0001
0100
0010
1000
0001
1000
0100
0010
0001
1000
,
0100
1000
0010
0100
0001
1000
0100
1000
0001
0100
0010
0100
0001
1000
0100
1000
0010
0100
0001
0100
0010
1000
0001
1000
,
0100
0010
0001
1000
0010
0100
0010
1000
0001
0100
0010
1000
0001
0100
0010
1000
0010
0100
0001
1000
0001
0010
0100
1000
,
0001
0010
0001
1000
0100
1000
0001
0100
0010
0100
0001
1000
0100
1000
0010
0100
0001
0100
0010
1000
0001
1000
0100
0010
,
0001
1000
0100
1000
0001
0010
0001
0100
0010
1000
0010
0100
0001
1000
0001
0010
0100
1000
0001
0010
0100
1000
0100
0010
,
0001
1000
0100
1000
0001
0100
0010
0100
0001
1000
0010
1000
0100
0010
0001
1000
0100
1000
0001
0010
0001
0100
0010
0100
,
0001
1000
0010
1000
0001
0100
0001
1000
0100
0010
0001
1000
0100
1000
0010
0100
0001
0100
0010
1000
0001
1000
0100
0010
,
0001
1000
0100
1000
0010
0100
0010
1000
0001
0100
0001
0010
0100
1000
0001
0100
0001
1000
0010
0100
0010
1000
0001
0100
,
0001
1000
0100
1000
0001
0010
0100
1000
0001
0010
0001
0100
0010
0100
0001
1000
0010
1000
0100
0010
0001
1000
0100
1000
,
0010
0100
0010
1000
0001
0100
0001
1000
0100
0010
0001
1000
0010
0100
0001
0100
0010
1000
0001
1000
0100
0010
0001
1000
,
0100
1000
0010
0100
0001
1000
0100
1000
0001
0100
0010
0100
0001
1000
0100
1000
0010
0100
0001
0100
0010
1000
0001
1000
,
0100
0010
0001
1000
0010
0100
0010
1000
0001
0100
0010
0100
0001
1000
0010
1000
0100
0010
0001
1000
0100
1000
0001
0100
,
0010
1000
0001
0100
0001
1000
0100
0010
0001
1000
0010
0100
0010
1000
0001
0100
0001
1000
0010
0100
0001
0100
0010
1000
,
0001
1000
0100
0010
0001
1000
0100
1000
0001
0010
0001
0100
0010
0100
0001
1000
0010
1000
0001
0100
0010
0100
0001
1000
,
0100
1000
0010
0100
0010
1000
0001
0100
0010
0100
0001
1000
0100
0010
0001
1000
0100
1000
0001
0010
0001
0100
0010
0100
,
0001
1000
0010
1000
0001
0100
0010
1000
0010
0100
0001
0100
0010
1000
0001
0010
0100
1000
0100
0010
0001
1000
0100
1000
,
0001
0100
0010
0100
0001
1000
0010
0100
0010
1000
0001
1000
0100
0010
0001
1000
0100
1000
0001
0010
0001
0100
0010
0100
,
0001
1000
0001
0100
0010
0100
0001
1000
0100
0010
0001
1000
0100
1000
0001
0100
0010
1000
0010
0100
0001
1000
0001
0010
,
0100
1000
0001
0010
0001
0100
0010
0100
0001
1000
0010
1000
0001
0100
0001
1000
0100
0010
0001
1000
0100
1000
0001
0100
,
0001
1000
0010
0100
0010
1000
0001
0010
0001
0100
0010
0100
0001
1000
0100
0010
0001
1000
0100
1000
0001
0100
0010
1000
,
0001
0000
0000
0001
0000
0000
0010
0000
0000
0010
0000
0000
0100
0000
1000
0000
0001
0000
1000
0000
0010
0000
0100
0000
,
0002
2003
3020
0230
,
1302
0000
0000
0000
0000
0000
0000
0000
1000
0000
0000
0003
2000
0000
0000
0000
,
3200
0320
0032
2003
,
3120
0000
2030
0000
,
3001
0000
0000
0000
0000
0000
0000
0000
0000
0000
0000
0000
0010
0000
0000
0000
0000
0000
0100
0000
0000
0000
0000
0000
1000
0000
0010
0000
1000
0000
0010
0000
0000
0100
0000
0000
0001
0000
0000
0100
0000
0000
0001
0000
1000
0000
0001
0000
,
1000
0000
0000
0010
0000
0000
0100
0000
0000
0010
0000
0000
1000
0000
0001
0000
1000
0000
0001
0000
0000
0100
0000
0000
0010
0000
0000
1000
0000
0000
0001
0000
0010
0000
0001
0000
0010
0000
0000
0100
0000
0000
1000
0000
0000
0001
0000
0000
,
1000
0000
0010
0000
0100
0000
0010
0000
0000
1000
0000
0000
0001
0000
0100
0000
0001
0000
0010
0000
0000
0100
0000
0000
1000
0000
0001
0000
1000
0000
0100
0000
0000
0010
0000
0000
0001
0000
0000
1000
0000
0000
0010
0000
0100
0000
0010
0000
,
1000
0000
0000
0001
0000
0000
0010
0000
0000
0001
0000
0000
0100
0000
0010
0000
1000
0000
0010
0000
0000
0100
0000
0000
0001
0000
0000
1000
0000
0000
0001
0000
0100
0000
0010
0000
0100
0000
0000
0001
0000
0000
1000
0000
0000
0010
0000
0000
,
1000
0000
0001
0000
0100
0000
0001
0000
0000
1000
0000
0000
0010
0000
0100
0000
0010
0000
1000
0000
0000
0001
0000
0000
0100
0000
0010
0000
0100
0000
0001
0000
0000
1000
0000
0000
0010
0000
0000
0100
0000
0000
0010
0000
1000
0000
0001
0000
,
1000
0000
0000
0100
0000
0000
0010
0000
0000
0001
0000
0000
0100
0000
0010
0000
1000
0000
0010
0000
0000
0100
0000
0000
0001
0000
0000
1000
0000
0000
0001
0000
0100
0000
0010
0000
0100
0000
0000
0001
0000
0000
1000
0000
0000
0100
0000
0000
,
0010
0000
0001
0000
0010
0000
0001
0000
0000
1000
0000
0000
0010
0000
0100
0000
0010
0000
0100
0000
0000
0001
0000
0000
1000
0000
0100
0000
1000
0000
0010
0000
0000
0100
0000
0000
0001
0000
0000
1000
0000
0000
0001
0000
0100
0000
0010
0000
,
0100
0000
0000
0001
0000
0000
1000
0000
0000
0100
0000
0000
1000
0000
0001
0000
0100
0000
0001
0000
0000
0010
0000
0000
0100
0000
0000
1000
0000
0000
0001
0000
1000
0000
0010
0000
0100
0000
0000
0001
0000
0000
1000
0000
0000
0001
0000
0000
,
0010
0000
0000
0100
0000
0000
1000
0000
0000
0001
0000
0000
0100
0000
0000
0010
0000
0000
0100
0000
0000
0001
0000
0000
1000
0000
0010
0000
1000
0000
0100
0000
0000
0010
0000
0000
0001
0000
0000
0100
0000
0000
0010
0000
1000
0000
0010
0000
,
0100
0000
0000
0001
0000
0000
0100
0000
0000
0010
0000
0000
1000
0000
0001
0000
1000
0000
0001
0000
0000
0100
0000
0000
0010
0000
0000
1000
0000
0000
0001
0000
0010
0000
0001
0000
0010
0000
0000
0100
0000
0000
1000
0000
0000
0001
0000
0000
,
1000
0000
0010
0000
0100
0000
0010
0000
0000
1000
0000
0000
0001
0000
0100
0000
0001
0000
0010
0000
0000
0100
0000
0000
1000
0000
0001
0000
1000
0000
0100
0000
0000
0010
0000
0000
0001
0000
0000
1000
0000
0000
0010
0000
0100
0000
0010
0000
,
1000
0000
0000
0001
0000
0000
0010
0000
0000
0001
0000
0000
0100
0000
0010
0000
1000
0000
0010
0000
0000
0100
0000
0000
0001
0000
0000
1000
0000
0000
0001
0000
0100
0000
0010
0000
0100
0000
0000
0001
0000
0000
1000
0000
0000
0010
0000
0000
,
1000
0000
0001
0000
0100
0000
0001
0000
0000
1000
0000
0000
0010
0000
0100
0000
0010
0000
1000
0000
0000
0001
0000
0000
0100
0000
0010
0000
0100
0000
0001
0000
0000
1000
0000
0000
0010
0000
0000
0100
0000
0000
0010
0000
1000
0000
0001
0000
,
1000
0000
0000
0100
0000
0000
0010
0000
0000
0001
0000
0000
0100
0000
0010
0000
1000
0000
0010
0000
0000
0100
0000
0000
0001
0000
1000
0000
0001
0000
1000
0000
0000
0100
0000
0000
0010
0000
0000
0001
0000
0000
1000
0000
0000
0010
0000
0000
,
1000
0000
0000
0001
0000
0000
0100
0000
0000
0010
0000
0000
0100
0000
0000
0001
0000
0000
1000
0000
0000
0001
0000
0000
0010
0000
0100
0000
0010
0000
0100
0000
0000
1000
0000
0000
0001
0000
0000
1000
0000
0000
0010
0000
0100
0000
0001
0000
,
0100
0000
0000
0010
0000
0000
1000
0000
0000
0100
0000
0000
1000
0000
0001
0000
0100
0000
0001
0000
0000
0010
0000
0000
0100
0000
0000
0000
0000
0000
1000
0000
0000
0000
0000
0000
0001
0000
0000
0100
0000
0000
0001
0000
0000
0000
0000
0000
,
1000
0000
0010
0000
0100
0001
0100
0010
1000
0001
0100
0001
0010
0100
1000
0001
,
0100
0010
0100
0001
1000
0010
1000
0100
0010
0001
0100
0010
0100
0001
1000
0010
,
1000
0100
0010
0001
1000
0010
0100
0001
1000
0010
0100
0001
0100
0010
1000
0001
,
0100
0001
0010
0100
1000
0001
0100
0010
0100
0001
1000
0100
1000
0010
0100
0001
,
0100
0010
1000
0001
0010
0100
1000
0001
0010
0001
1000
0100
0010
0001
1000
0100
,
1000
0010
0100
0001
0100
0010
1000
0001
1000
0100
0010
0001
1000
0010
1000
0001
,
0100
0001
1000
0100
0010
0001
1000
0100
1000
0010
0100
0010
1000
0001
0100
0001
,
0010
0100
1000
0001
0010
0001
0100
0010
1000
0000
0001
0000
0100
0000
0010
0000
,
0100
0001
2000
3000
0120
0000
0000
0000
,
0230
0302
0003
0000
;
