#TITLE:Rainbow Bunchie;
#SUBTITLE:;
#ARTIST:Jean Jacques Perrey;
#TITLETRANSLIT:;
#SUBTITLETRANSLIT:;
#ARTISTTRANSLIT:;
#CREDIT:owenviau1;
#BANNER:../owenviau1 Simfiles 6 (Science X Owen).png;
#BACKGROUND:BG.GIF;
#LYRICSPATH:;
#CDTITLE:../ov1!title.png;
#MUSIC:Jean Jacques Perrey - Rainbow Bunchie (Brazilian Flower).mp3;
#OFFSET:-0.036;
#SAMPLESTART:0.019;
#SAMPLELENGTH:29.999;
#SELECTABLE:YES;
#DISPLAYBPM:162.260;
#BPMS:0.000=151.929,1.000=162.003,3.000=161.993,4.000=162.003,6.000=161.993,7.000=157.425,8.000=161.008,9.000=160.998,12.000=161.008,13.000=160.998,15.000=155.757,16.000=162.003,17.000=161.993,18.000=162.003,20.000=161.993,21.000=168.782,22.000=162.003,23.000=161.993,24.000=162.003,26.000=161.993,27.000=162.003,28.000=173.508,29.000=162.003,30.000=161.993,31.000=147.467,32.000=162.132,36.000=162.122,37.000=162.132,40.000=162.122,41.000=162.132,44.000=162.122,45.000=162.132,48.000=162.122,49.000=162.132,52.000=162.122,53.000=162.132,57.000=162.122,58.000=162.132,60.000=179.878,61.000=162.122,62.000=162.132,65.000=162.122,66.000=162.132,68.000=167.003,69.000=162.471,72.000=162.481,73.000=162.471,76.000=167.681,77.000=162.471,80.000=162.461,81.000=162.471,84.000=162.481,85.000=165.977,86.000=162.471,88.000=170.468,89.000=162.471,92.000=162.461,93.000=162.471,95.000=159.110,96.000=155.191,97.000=162.471,100.000=162.481,101.000=162.471,104.000=162.461,105.000=162.471,108.000=162.481,109.000=162.471,116.000=162.461,117.000=162.471,119.000=157.575,120.000=162.471,123.000=162.481,124.000=162.471,128.000=162.461,129.000=162.471,136.000=162.481,137.000=162.471,139.000=162.461,140.000=162.471,147.000=162.481,148.000=162.471,151.000=162.461,152.000=162.471,159.000=162.481,160.000=162.471,163.000=162.461,164.000=162.471,171.000=162.481,172.000=162.471,175.000=162.461,176.000=162.471,183.000=162.481,184.000=162.471,187.000=162.461,188.000=162.471,192.000=181.768,193.000=162.951,199.000=162.941,200.000=162.951,208.000=162.941,209.000=162.951,217.000=162.941,218.000=162.951,222.000=147.664,223.000=162.951,226.000=162.941,227.000=162.951,235.000=162.941,236.000=162.951,244.000=162.941,245.000=162.951,253.000=162.941,254.000=162.951,261.000=162.941,262.000=162.951,270.000=162.941,271.000=162.951,279.000=162.941,280.000=162.951,288.000=162.941,289.000=162.951,297.000=162.941,298.000=162.951,306.000=162.941,307.000=162.951;
#STOPS:;
#BGCHANGES:;
// cache tags:
#FIRSTBEAT:0.000;
#LASTBEAT:302.000;
#SONGFILENAME:Songs/owenviau1 Simfiles 6/Rainbow Bunchie - [owenviau1] v1.1.5/Rainbow Bunchie.sm;
#HASMUSIC:1;
#HASBANNER:1;
#MUSICLENGTH:114.207;
// end cache tags

//---------------dance-single - 15+ (owenviau1)----------------
#NOTES:
     dance-single:
     15+ (owenviau1):
     Hard:
     15:
     1.000,1.000,0.543,0.630,1.000,1171.000,62.000,72.000,0.000,0.000:
2100
3000
0120
0030
2001
3000
1200
0300
0012
0003
0210
0300
1002
0003
1020
0030
,
1200
0300
0012
0003
0120
0030
0201
0300
2001
3000
0020
0030
0002
0003
0020
0030
,
1200
0300
0120
0030
2001
3000
0012
0003
0120
0030
1200
0300
1002
0003
2010
3000
,
0012
0003
1200
0300
2001
3000
0102
0003
1200
0300
0002
0003
2000
3000
0020
0030
,
2001
3000
0012
0003
0210
0300
1002
0003
2010
3000
0012
0003
0120
0030
1200
0300
,
1002
0003
2010
3000
0120
0030
0201
0300
1002
0003
2100
3000
0201
0300
0021
0030
,
1002
0003
2010
3000
0210
0300
0012
0003
2100
3000
0120
0030
1002
0003
2100
3000
,
0120
0030
2001
3000
0201
0300
2010
3000
0210
0300
0002
0003
0020
0030
0200
0300
,
1000
0010
1000
0001
0010
0100
1000
0001
0100
0010
1000
0100
1000
0001
1000
0010
,
0100
0001
0010
0001
0100
0010
1000
0100
0010
0001
0010
0100
1000
0010
0100
0001
,
1000
0100
1000
0010
1000
0001
0100
0010
1000
0010
0100
0001
0010
0100
1000
0001
,
1000
0010
1000
0100
0010
0001
0100
0001
1000
0001
0100
0010
1000
0100
0010
0001
,
1000
0010
0100
0001
0010
0001
1000
0010
1000
0001
0100
0001
1000
0100
1000
0010
,
0100
0001
0010
0100
1000
0010
0100
0001
1000
0100
1000
0010
1000
0001
0100
0001
,
1000
0100
0010
0001
0100
0010
1000
0100
1000
0001
1000
0010
0100
0001
0010
0001
,
0100
0001
1000
0010
0100
0001
1000
0100
1000
0010
0100
0001
0010
0001
1000
0001
,
0100
0010
1000
0100
0010
0001
0100
0010
1000
0001
0010
0001
1000
0100
1000
0010
,
1000
0001
0100
0001
0010
0100
1000
0010
0100
0001
1000
0100
1000
0001
1000
0010
,
0100
0001
0010
0001
1000
0001
0100
0010
1000
0100
1000
0001
0100
0010
1000
0001
,
0010
0001
0100
0001
1000
0010
1000
0100
1000
0001
1000
0010
0100
0001
0010
0100
,
1000
0010
0100
0001
1000
0100
1000
0010
1000
0001
0100
0010
1000
0001
0010
0001
,
0100
0001
1000
0010
0100
0001
1000
0100
1000
0010
0100
0001
1000
0100
1000
0010
,
1000
0001
0100
0010
1000
0100
0010
0001
0100
0001
1000
0010
0100
0001
1000
0100
,
1000
0010
0100
0001
1200
0000
0310
0000
2001
0000
3100
0000
0012
0000
0103
0000
,
0010
0100
1000
0100
0010
0001
0100
0010
1000
0001
0010
0001
1000
0100
1000
0010
,
1000
0001
0100
0001
0010
0100
1000
0010
0100
0001
1000
0100
1000
0001
1000
0010
,
0100
0001
0100
0010
1000
0001
0100
0010
1000
0100
1000
0001
0100
0010
1000
0001
,
0010
0001
0100
0001
1000
0010
1000
0100
1000
0001
1000
0010
0100
0001
0010
0100
,
1000
0010
0100
0001
1000
0100
1000
0010
1000
0001
0100
0010
1000
0001
0010
0001
,
0100
0001
1000
0010
0100
0001
1000
0100
1000
0010
0100
0001
1000
0100
1000
0010
,
1000
0001
0100
0010
1000
0100
0010
0001
0100
0001
1000
0010
0100
0001
1000
0100
,
1000
0010
1000
0001
1000
0010
0100
0001
2000
3000
0000
0000
0001
1000
0001
1000
,
0001
0010
0100
1000
0001
0100
0001
0010
0100
1000
0100
0010
0001
1000
0010
1000
0001
0100
0010
1000
0001
0010
0001
1000
,
0001
0100
0010
1000
0100
0010
0001
0100
0010
1000
0001
0100
0010
1000
0100
1000
0001
1000
0010
0100
0001
0010
0001
1000
,
0001
0100
0010
1000
0100
0010
0001
0100
0010
1000
0010
0100
0001
0100
0010
1000
0100
0010
0001
0100
0010
1000
0100
1000
,
0001
0100
0010
1000
0001
0010
0001
0100
0001
1000
0100
0010
0001
1000
0001
0100
0010
1000
0100
1000
0001
0100
0001
0010
,
0100
1000
0100
0010
0001
1000
0001
0100
0010
1000
0100
1000
0001
1000
0010
0100
0001
0010
0100
1000
0010
1000
0001
0010
,
0001
0100
0001
1000
0010
1000
0100
0010
0001
0010
0100
1000
0010
1000
0001
0100
0001
1000
0010
0100
0001
1000
0100
1000
,
0010
0100
0001
0010
0001
1000
0001
0100
0010
1000
0100
0010
0001
1000
0010
1000
0100
0010
0001
0100
0001
1000
0100
0010
,
0001
1000
0010
1000
0100
0010
0001
0100
0010
1000
0001
0100
0001
0000
0000
1000
0100
0000
0010
0001
0000
1000
0100
0000
,
0010
0001
0100
0010
1000
0001
0010
0100
1000
0001
0010
0100
1000
0001
1000
0010
,
0100
0001
0010
0001
0100
0010
1000
0100
0010
0001
0010
0100
1000
0010
0100
0001
,
1000
0100
1000
0010
1000
0001
0100
0010
1000
0010
0100
0001
0010
0100
1000
0001
,
1000
0010
1000
0100
0010
0001
0100
0001
1000
0001
0100
0010
1000
0100
0010
0001
,
1000
0010
0100
0001
0010
0001
1000
0010
1000
0001
0100
0001
1000
0100
1000
0010
,
0100
0001
0010
0100
1000
0010
0100
0001
1000
0100
1000
0010
1000
0001
0100
0001
,
1000
0100
0010
0001
0100
0010
1000
0100
1000
0001
1000
0010
0100
0001
0010
0001
,
0100
0001
1000
0010
0100
0001
1000
0100
1000
0010
0100
0001
0010
0001
1000
0001
,
0100
0010
1000
0100
0010
0001
0100
0010
1000
0001
0010
0001
1000
0100
1000
0010
,
1000
0001
0100
0001
0010
0100
1000
0010
0100
0001
1000
0100
1000
0001
1000
0010
,
0100
0001
0010
0001
1000
0001
0100
0010
1000
0100
1000
0001
0100
0010
1000
0001
,
0010
0001
0100
0001
1000
0010
1000
0100
1000
0001
1000
0010
0100
0001
0010
0100
,
1000
0010
0100
0001
1000
0100
1000
0010
1000
0001
0100
0010
1000
0001
0010
0001
,
0100
0001
1000
0010
0100
0001
1000
0100
1000
0010
0100
0001
1000
0100
1000
0010
,
1000
0001
0100
0010
1000
0100
0010
0001
0100
0001
1000
0010
0100
0001
1000
0100
,
1000
0010
0100
0001
2001
0000
3100
0000
0021
0000
1030
0000
0201
0000
0310
0000
,
0100
0001
1000
0001
0010
0100
1000
0001
0100
0010
1000
0100
0010
0001
1000
0010
,
0100
0001
0010
0001
0100
0010
1000
0100
0010
0001
0010
0100
1000
0010
0100
0001
,
1000
0100
1000
0010
1000
0001
0100
0010
1000
0010
0100
0001
0010
0100
1000
0001
,
1000
0010
1000
0100
0010
0001
0100
0001
1000
0001
0100
0010
1000
0100
0010
0001
,
1000
0010
0100
0001
0010
0001
1000
0010
1000
0001
0100
0001
1000
0100
1000
0010
,
0100
0001
0010
0100
1000
0010
0100
0001
1000
0100
1000
0010
1000
0001
0100
0001
,
1000
0100
0010
0001
0100
0010
1000
0100
1000
0001
1000
0010
0100
0001
0010
0001
,
0100
0001
1000
0010
2000
0000
0000
0000
0000
0000
0000
0000
3010
0000
0100
0000
,
1000
0010
1000
0100
0010
0001
0100
0010
1000
0001
0010
0001
1000
0100
1000
0010
,
1000
0001
0100
0001
0010
0100
1000
0010
0100
0001
1000
0100
1000
0001
1000
0010
,
0100
0001
0010
0001
1000
0001
0100
0010
1000
0100
1000
0001
0100
0010
1000
0001
,
0010
0001
0100
0001
1000
0010
1000
0100
1000
0001
1000
0010
0100
0001
0010
0100
,
1000
0010
0100
0001
1000
0100
1000
0010
1000
0001
0100
0010
1000
0001
0010
0001
,
0100
0001
1000
0010
0100
0001
1000
0100
1000
0010
0100
0001
1000
0100
1000
0010
,
1000
0001
0100
0010
1000
0100
0010
0001
0100
0001
1000
0010
0100
0001
1000
0100
,
1000
0010
0100
0001
1000
0010
1000
0001
0010
0100
1000
0001
0100
0010
1000
0100
,
1000
0001
1000
0010
0100
0001
0010
0001
0100
0010
1000
0100
0010
0001
0010
0100
,
1000
0010
0100
0001
1000
0100
1000
0010
1000
0001
0100
0010
1000
0010
0100
0001
,
0010
0100
1000
0001
1000
0010
1000
0100
0010
0001
0100
0001
1000
0001
0100
0000
,
0000
0000
1001
0000
,
0000
0000
0000
0000
,
0000
0000
0000
0000
;

//---------------dance-single - 26+ (owenviau1)----------------
#NOTES:
     dance-single:
     26+ (owenviau1):
     Challenge:
     26:
     1.000,1.000,0.543,0.630,1.000,1678.000,62.000,72.000,0.000,0.000:
2100
3000
0120
0030
2001
3000
1200
0300
0012
0003
0210
0300
1002
0003
1020
0030
,
1200
0300
0012
0003
0120
0030
0201
0300
2001
3000
0020
0030
0002
0003
0020
0030
,
1200
0300
0120
0030
2001
3000
0012
0003
0120
0030
1200
0300
1002
0003
2010
3000
,
0012
0003
1200
0300
2001
3000
0102
0003
1200
0300
0002
0003
2000
3000
0020
0030
,
2001
3000
0012
0003
0210
0300
1002
0003
2010
3000
0012
0003
0120
0030
1200
0300
,
1002
0003
2010
3000
0120
0030
0201
0300
1002
0003
2100
3000
0201
0300
0021
0030
,
1002
0003
2010
3000
0210
0300
0012
0003
2100
3000
0120
0030
1002
0003
2100
3000
,
0120
0030
2001
3000
0201
0300
2010
3000
0210
0300
0002
0003
0020
0030
0200
0300
,
1000
0001
0100
0010
1000
0001
0100
0001
1000
0100
0010
0001
0100
0010
1000
0001
0100
0001
1000
0100
0010
0001
0100
0010
,
1000
0001
0010
0001
0100
0010
1000
0100
1000
0001
0100
0010
1000
0010
0100
0001
1000
0100
0010
0001
0010
0100
1000
0001
,
0100
0001
1000
0010
0100
0010
1000
0001
0010
0001
1000
0100
1000
0010
0100
0010
1000
0001
0100
0001
1000
0100
0010
0001
,
0100
0010
1000
0001
0010
0001
1000
0010
1000
0100
0010
0001
0100
0001
1000
0100
1000
0001
0100
0010
1000
0001
0010
0001
,
0100
0010
1000
0100
0010
0001
1000
0010
1000
0001
0100
0001
1000
0100
0010
0001
0100
0010
1000
0001
0100
0001
1000
0100
,
1000
0010
0100
0010
1000
0001
0010
0001
1000
0100
0010
0001
1000
0010
0100
0010
1000
0001
0100
0001
1000
0100
0010
0001
,
0100
0010
1000
0001
0100
0001
1000
0100
0010
0001
0100
0010
1000
0001
0010
0001
0100
0010
1000
0100
1000
0001
0100
0010
,
1000
0010
0100
0001
1000
0100
0010
0001
0010
0100
1000
0001
0100
0001
1000
0010
0100
0010
1000
0001
0010
0001
1000
0100
,
1000
0010
0100
0010
1000
0001
0100
0001
1000
0100
0010
0001
0100
0010
1000
0001
0010
0001
1000
0010
1000
0100
0010
0001
,
0100
0001
1000
0100
1000
0001
0100
0010
1000
0001
0010
0001
0100
0010
1000
0100
0010
0001
1000
0010
1000
0001
0100
0001
,
1000
0100
0010
0001
0100
0010
1000
0001
0100
0001
1000
0100
1000
0010
0100
0010
1000
0001
0010
0001
1000
0100
0010
0001
,
0100
0010
1000
0010
0100
0001
0010
0001
1000
0100
0010
0001
1000
0100
1000
0001
0100
0010
1000
0010
0100
0001
0010
0001
,
1000
0100
1000
0001
0100
0010
1000
0001
0100
0001
1000
0010
0100
0010
1000
0001
0010
0001
1000
0100
0010
0001
0100
0010
,
1000
0001
0100
0001
1000
0100
0010
0001
0100
0010
1000
0010
0100
0001
0010
0001
1000
0100
0010
0001
0100
0010
1000
0010
,
0100
0001
0010
0001
1000
0100
1000
0001
0100
0010
1000
0001
0100
0001
1000
0100
0010
0001
0100
0010
1000
0010
0100
0010
,
1000
0001
0100
0001
0010
0000
1200
0000
0000
0310
0000
0000
2001
0000
0000
3100
0000
0000
1002
0000
0000
0103
0000
0000
,
1000
0001
0100
0010
1000
0001
0100
0001
1000
0100
0010
0001
0100
0010
1000
0001
0100
0001
1000
0100
0010
0001
0100
0010
,
1000
0001
0010
0001
0100
0010
1000
0100
1000
0001
0100
0010
1000
0010
0100
0001
1000
0100
0010
0001
0010
0100
1000
0001
,
0100
0001
1000
0010
0100
0010
1000
0001
0010
0001
1000
0100
1000
0010
0100
0010
1000
0001
0100
0001
1000
0100
0010
0001
,
0100
0010
1000
0001
0010
0001
1000
0010
1000
0100
0010
0001
0100
0001
1000
0100
1000
0001
0100
0010
1000
0001
0010
0001
,
0100
0010
1000
0100
0010
0001
1000
0010
1000
0001
0100
0001
1000
0100
0010
0001
0100
0010
1000
0001
0100
0001
1000
0100
,
1000
0010
0100
0010
1000
0001
0010
0001
1000
0100
0010
0001
1000
0010
0100
0010
1000
0001
0100
0001
1000
0100
0010
0001
,
0100
0010
1000
0001
0100
0001
1000
0100
0010
0001
0100
0010
1000
0001
0010
0001
0100
0010
1000
0100
1000
0001
0100
0010
,
1000
0000
0010
0000
0100
0000
0001
0000
1000
0000
0100
0000
0010
0000
0001
0000
0010
0000
0100
0000
1000
0000
0001
0000
0200
0000
0000
0300
0000
0000
0000
0000
0000
0000
0000
0000
0001
0000
0000
1000
0000
0000
0001
0000
0000
1000
0000
0000
,
0001
0010
0100
1000
0001
0100
0010
1000
0010
0100
0001
0010
0001
1000
0100
0010
0001
0100
0010
1000
0001
0010
0001
1000
0100
1000
0001
0100
0010
1000
0010
0100
,
0001
0010
0001
1000
0100
0010
0001
0100
0010
1000
0001
0100
0001
1000
0010
0100
0010
1000
0001
0010
0001
1000
0100
0010
0001
0010
0100
1000
0001
0100
0010
1000
,
0010
0100
0001
0010
0001
1000
0100
0010
0001
0100
0010
1000
0001
0010
0001
1000
0100
1000
0001
0100
0010
1000
0010
0100
0001
0010
0001
1000
0100
0010
0001
0100
,
0010
1000
0001
0100
0001
1000
0010
0100
0010
1000
0001
0010
0001
1000
0100
0010
0001
0010
0100
1000
0001
0100
0010
1000
0010
0100
0001
0010
0001
1000
0100
0010
,
0001
0100
0010
1000
0001
0010
0001
1000
0100
1000
0001
0100
0010
1000
0010
0100
0001
0010
0001
1000
0100
0010
0001
0100
0010
1000
0001
0100
0001
1000
0010
0100
,
0010
1000
0001
0010
0001
1000
0100
0010
0001
0010
0100
1000
0001
0100
0010
1000
0010
0100
0001
0010
0001
1000
0100
0010
0001
0100
0010
1000
0001
0010
0001
1000
,
0100
1000
0001
0100
0010
1000
0010
0100
0001
0010
0001
1000
0100
0010
0001
0100
0010
1000
0001
0100
0001
1000
0010
0100
0010
1000
0001
0010
0001
1000
0100
0010
,
0001
0000
0000
0100
0000
0000
0010
0000
0000
1000
0000
0000
0010
0000
0000
0100
0000
0000
0001
0000
0000
1000
0000
0000
0001
0000
0000
0100
0000
0000
0010
0000
0000
1000
0000
0000
0100
0000
0000
0010
0000
0000
0001
0000
0000
0100
0000
0000
0010
0000
0000
0000
0000
0000
0000
0000
0000
0000
0000
0000
1000
0000
0000
0000
0010
0000
0000
0000
0000
0000
0000
0000
0100
0000
0000
0000
0001
0000
0000
0000
0000
0000
0000
0000
1000
0000
0000
0000
0001
0000
0000
0000
0000
0000
0000
0000
,
1000
0010
0100
0010
1000
0001
0100
0001
1000
0100
0010
0001
0100
0010
1000
0001
0100
0001
1000
0100
0010
0001
0100
0010
,
1000
0001
0010
0001
0100
0010
1000
0100
1000
0001
0100
0010
1000
0010
0100
0001
1000
0100
0010
0001
0010
0100
1000
0001
,
0100
0001
1000
0010
0100
0010
1000
0001
0010
0001
1000
0100
1000
0010
0100
0010
1000
0001
0100
0001
1000
0100
0010
0001
,
0100
0010
1000
0001
0010
0001
1000
0010
1000
0100
0010
0001
0100
0001
1000
0100
1000
0001
0100
0010
1000
0001
0010
0001
,
0100
0010
1000
0100
0010
0001
1000
0010
1000
0001
0100
0001
1000
0100
0010
0001
0100
0010
1000
0001
0100
0001
1000
0100
,
1000
0010
0100
0010
1000
0001
0010
0001
1000
0100
0010
0001
1000
0010
0100
0010
1000
0001
0100
0001
1000
0100
0010
0001
,
0100
0010
1000
0001
0100
0001
1000
0100
0010
0001
0100
0010
1000
0001
0010
0001
0100
0010
1000
0100
1000
0001
0100
0010
,
1000
0001
0100
0010
1000
0001
0100
0001
1000
0100
0010
0001
0100
0010
1000
0001
0100
0001
1000
0100
0010
0001
0100
0010
,
1000
0001
0010
0001
0100
0010
1000
0100
1000
0001
0100
0010
1000
0010
0100
0001
1000
0100
0010
0001
0010
0100
1000
0001
,
0100
0001
1000
0010
0100
0010
1000
0001
0010
0001
1000
0100
1000
0010
0100
0010
1000
0001
0100
0001
1000
0100
0010
0001
,
0100
0010
1000
0001
0010
0001
1000
0010
1000
0100
0010
0001
0100
0001
1000
0100
1000
0001
0100
0010
1000
0001
0010
0001
,
0100
0010
1000
0100
0010
0001
1000
0010
1000
0001
0100
0001
1000
0100
0010
0001
0100
0010
1000
0001
0100
0001
1000
0100
,
1000
0010
0100
0010
1000
0001
0010
0001
1000
0100
0010
0001
1000
0010
0100
0010
1000
0001
0100
0001
1000
0100
0010
0001
,
0100
0010
1000
0001
0100
0001
1000
0100
0010
0001
0100
0010
1000
0001
0010
0001
0100
0010
1000
0100
1000
0001
0100
0010
,
1000
0001
0100
0010
1000
0001
0100
0001
1000
0100
0010
0001
0100
0010
1000
0001
0100
0001
1000
0100
0010
0001
0100
0010
,
1000
0001
0010
0001
0100
0000
2001
0000
0000
3100
0000
0000
0021
0000
0000
1030
0000
0000
0201
0000
0000
0310
0000
0000
,
0100
0001
1000
0010
0100
0010
1000
0001
0010
0001
1000
0100
1000
0010
0100
0010
1000
0001
0100
0001
1000
0100
0010
0001
,
0100
0010
1000
0001
0010
0001
1000
0010
1000
0100
0010
0001
0100
0001
1000
0100
1000
0001
0100
0010
1000
0001
0010
0001
,
0100
0010
1000
0100
0010
0001
1000
0010
1000
0001
0100
0001
1000
0100
0010
0001
0100
0010
1000
0001
0100
0001
1000
0100
,
1000
0010
0100
0010
1000
0001
0010
0001
1000
0100
0010
0001
1000
0010
0100
0010
1000
0001
0100
0001
1000
0100
0010
0001
,
0100
0010
1000
0001
0100
0001
1000
0100
0010
0001
0100
0010
1000
0001
0010
0001
0100
0010
1000
0100
1000
0001
0100
0010
,
1000
0001
0100
0010
1000
0001
0100
0001
1000
0100
0010
0001
0100
0010
1000
0001
0100
0001
1000
0100
0010
0001
0100
0010
,
1000
0001
0010
0001
0100
0010
1000
0100
1000
0001
0100
0010
1000
0010
0100
0001
1000
0100
0010
0001
0010
0100
1000
0001
,
0100
0001
1000
0010
0100
0001
0200
0000
0000
0000
0000
0000
0000
0000
0000
0000
0000
0000
0301
0000
0000
1000
0000
0000
,
0010
0100
0001
1000
0100
0010
0001
0100
0010
1000
0001
0100
0001
1000
0100
0010
0001
0100
0010
1000
0001
0010
0001
0100
,
0010
1000
0100
1000
0001
0100
0010
1000
0010
0100
0001
1000
0100
0010
0001
0010
0100
1000
0001
0100
0001
1000
0010
0100
,
0010
1000
0001
0010
0001
1000
0100
1000
0010
0100
0010
1000
0001
0100
0001
1000
0100
0010
0001
0100
0010
1000
0001
0010
,
0001
1000
0010
1000
0100
0010
0001
0100
0001
1000
0100
1000
0001
0100
0010
1000
0001
0010
0001
0100
0010
1000
0100
0010
,
0001
1000
0010
1000
0001
0100
0001
1000
0100
0010
0001
0100
0010
1000
0001
0100
0001
1000
0100
1000
0010
0100
0010
1000
,
0001
0010
0001
1000
0100
0010
0001
1000
0010
0100
0010
1000
0001
0100
0001
1000
0100
0010
0001
0100
0010
1000
0001
0100
,
0001
1000
0100
0010
0001
0100
0010
1000
0001
0010
0001
0100
0010
1000
0100
1000
0001
0100
0010
1000
0001
0100
0010
1000
,
0001
0100
0001
1000
0100
0010
0001
0100
0010
1000
0001
0100
0001
1000
0100
0010
0001
0100
0010
1000
0001
0010
0001
0100
,
0010
1000
0100
1000
0001
0100
0010
1000
0010
0100
0001
1000
0100
0010
0001
0010
0100
1000
0001
0100
0001
1000
0010
0100
,
0010
1000
0001
0010
0001
1000
0100
1000
0010
0100
0010
1000
0001
0100
0001
1000
0100
0010
0001
0100
0010
1000
0001
0010
,
0001
1000
0010
1000
0100
0010
0001
0100
0001
1000
0100
1000
0001
0100
0010
1000
0001
0010
0001
0100
0010
1000
0000
0000
,
0000
0000
1001
0000
,
0000
0000
0000
0000
,
0000
0000
0000
0000
;
