#TITLE:Z;
#SUBTITLE:;
#ARTIST:DM Ashura;
#TITLETRANSLIT:;
#SUBTITLETRANSLIT:;
#ARTISTTRANSLIT:;
#CREDIT:;
#BANNER:Z BN.png;
#BACKGROUND:Z BG.png;
#LYRICSPATH:;
#CDTITLE:ncdx_cdtitle.png;
#MUSIC:DM Ashura - Z.mp3;
#OFFSET:-5.499;
#SAMPLESTART:34.600;
#SAMPLELENGTH:15.200;
#SELECTABLE:YES;
#BPMS:0.000=300.000,133.000=150.000,173.000=300.000;
#STOPS:;
#BGCHANGES:;
// cache tags:
#FIRSTBEAT:5.000;
#LASTBEAT:374.000;
#SONGFILENAME:Songs/stepmix .10/z/Z.sm;
#HASMUSIC:1;
#HASBANNER:1;
#MUSICLENGTH:90.130;
// end cache tags

//---------------dance-single - ----------------
#NOTES:
     dance-single:
     :
     Hard:
     10:
     0.819,0.882,0.211,0.089,0.055,490.000,19.000,8.000,0.000,0.000:
0000
0000
0000
0000
,
0000
1000
0001
0010
,
0001
0100
0001
2000
,
3100
0010
0001
1000
,
0001
0100
0001
0020
,
0031
1000
0010
0100
,
0001
1000
0001
2000
,
3001
1000
0100
0010
,
0001
1000
0010
0200
,
0310
0000
1000
0100
0000
0010
0001
0000
,
1000
0001
0000
0100
0001
0000
0010
0000
,
0010
0000
0001
1000
0000
0001
0100
0000
,
0001
0010
0000
0001
1000
0000
0100
0000
,
0100
0000
1000
0010
0000
0100
0001
0000
,
1000
0001
0000
0010
0001
0000
1000
0000
,
1000
0000
0001
0010
0000
0001
1000
0000
,
0010
0100
0000
0001
1000
0000
0001
0000
,
0001
1000
0001
0010
,
0001
0000
1000
0000
0001
0100
0001
0000
,
1000
0010
0100
0010
,
1000
0000
0100
0010
0100
0010
0100
0000
,
1000
0001
0100
0000
0001
0010
0001
0000
,
1000
0000
0001
0100
0001
0100
0001
0000
,
0010
0100
1000
0000
0010
0100
0001
0000
,
1000
0001
1000
0001
1000
0001
0100
0000
,
0010
0001
1000
0001
,
0010
0000
0100
1000
0100
1000
0100
0000
,
0010
0001
0010
0000
0001
1000
0100
0000
,
1000
0010
1000
0010
1000
0010
1000
0000
,
0010
0100
0010
0100
0010
0100
0010
0000
,
1000
0001
1000
0001
0010
0001
1000
0000
,
0001
0100
0001
1000
0100
0010
0001
1000
,
0001
0100
0001
0010
0100
1000
0010
0100
,
0001
1000
2002
0000
0000
0000
0000
0000
,
0000
0000
0000
0000
,
3003
0000
0000
0000
0010
0000
0000
0000
0000
0000
0000
0000
0100
0000
0000
1000
,
0000
0000
0001
0000
0010
0000
0000
0001
0000
0000
1000
0000
0010
0000
0000
0100
,
0000
0000
0001
0000
1000
0000
0000
0000
0000
0000
0001
0010
0001
0000
0000
0000
,
1000
0000
0100
0000
0000
0000
0001
0010
0100
1000
0100
0010
0001
0000
0000
0000
,
1000
0000
0010
0000
0000
0100
0000
0000
,
0001
0000
1000
0000
0001
0000
0000
0010
0000
0000
0001
0000
0000
0000
0000
0000
,
1000
0000
0000
0000
0010
0000
0000
0000
0000
0000
1000
0001
1000
0000
0000
0001
,
0000
0010
0100
0000
0000
0000
0000
0000
,
0010
1001
0010
0001
,
1000
0001
0100
0010
,
1000
0000
0001
0000
0010
0001
0010
0000
,
0001
0000
1000
0000
0100
1000
0100
0000
,
0010
0001
1000
0010
,
0100
0001
1000
0001
,
0010
0000
0001
1000
0001
1000
0001
0000
,
0100
0000
0001
0010
0001
0010
0001
0000
,
1000
0010
0100
0010
,
1000
0001
0010
0001
,
1000
0001
0100
0010
,
1000
0100
0010
0001
,
1000
0000
0001
0100
0001
0100
0001
0010
,
0100
0010
0100
1000
0010
1000
0010
0100
,
0010
1000
0001
0010
0001
1000
0100
1000
,
0010
0100
0001
1000
0001
0010
0100
1000
,
0001
0100
0001
0010
0000
0001
1000
0000
,
0001
0100
0000
0001
0010
0000
1100
0000
,
0011
0000
1000
0001
0000
0100
0001
0000
,
1000
0010
0000
0100
0001
0000
1010
0000
,
0101
0000
0010
0001
0000
1000
0100
0000
,
0010
0001
0000
1000
0001
0000
0110
0000
,
1001
0000
0010
0001
0000
1000
0001
0000
,
0100
0001
0000
0010
0001
0000
0101
0000
,
1100
0000
0010
0001
0000
1000
0001
0000
,
0100
0010
0000
1000
0001
0000
1010
0000
,
0011
0000
1000
0001
0000
0100
0001
0000
,
0010
0100
0000
1000
0001
0000
0011
0000
,
0101
0000
0010
0001
0000
1000
0010
0000
,
0100
0001
0000
0010
0001
0000
0110
0000
,
1001
0000
0010
0001
0000
0100
0001
0000
,
0010
0001
0000
1000
0001
0000
1010
0000
,
1100
0000
0010
0001
0010
0001
1000
0000
,
0100
0010
0100
0010
0100
1000
0001
0000
,
0000
0000
1000
0100
1000
0100
0001
0000
,
1000
0001
1000
0001
1000
0010
0100
0000
,
0000
0000
1000
0001
0010
0001
1000
0000
,
0001
0100
0001
1000
0010
0100
0010
0000
,
0000
0000
1000
0100
0010
0001
1000
0000
,
0001
0010
0100
1000
0010
0100
0001
0000
,
0000
0000
1000
0100
1000
0100
0010
0001
,
0010
0001
0100
0001
0100
0001
0010
0001
,
0010
0001
1000
0010
0100
0010
1000
0100
,
0010
0100
1000
0001
0010
0001
1000
0001
,
0100
0001
0010
0100
0010
0100
1000
0100
,
1000
0100
0010
0001
0010
0001
0100
0001
,
0100
0001
0010
0001
1000
0010
0100
0001
,
1000
0001
0010
0100
1000
0010
0100
0001
,
1000
0010
2002
0000
0000
0000
0000
0000
,
0000
0000
0000
0000
,
0000
0000
3003
0000
;

//---------------dance-single - ----------------
#NOTES:
     dance-single:
     :
     Medium:
     8:
     0.656,0.674,0.255,0.089,0.055,383.000,23.000,8.000,0.000,0.000:
0000
0000
0000
0000
,
0000
1000
0001
0010
,
0001
1000
0001
0200
,
0301
1000
0010
0100
,
0001
1000
0001
2000
,
3100
0010
0001
1000
,
0001
0100
0001
2000
,
3001
0010
0001
1000
,
0001
0100
0010
2000
,
3010
0100
0001
1000
,
0001
0010
0001
1000
,
1000
0001
0010
0001
,
1000
0010
0100
0001
,
0001
0010
0001
1000
,
0010
0100
0001
0100
,
0100
0001
1000
0001
,
0100
0001
1000
0010
,
0010
1000
0001
0010
,
0001
0000
1000
0000
0001
1000
0001
0000
,
0010
0001
1000
0010
,
0100
0000
0010
0100
0010
0100
0010
0000
,
1000
0001
0010
0001
,
1000
0000
0100
1000
0100
1000
0100
0000
,
0010
0001
1000
0001
,
0100
0000
0001
0000
0010
0001
0010
0000
,
0001
1000
0001
0100
,
0001
0000
1000
0100
1000
0100
1000
0000
,
0010
1000
0100
0010
,
0001
0000
1000
0001
1000
0001
1000
0000
,
0001
0100
0001
0100
,
0001
0000
0100
0010
0100
0010
0100
0000
,
0010
1000
0100
0010
,
0100
0000
1000
0100
1000
0100
0010
0000
,
0001
2002
0000
0000
,
0000
0000
0000
0000
,
3003
0000
0000
0000
0010
0000
0000
0000
0000
0000
0000
0000
1000
0000
0000
0001
,
0000
0000
0010
0000
0001
0000
0000
1000
0000
0000
0001
0000
1000
0000
0000
0100
,
0000
0000
1000
0000
0010
0000
0000
0000
0000
0000
1000
0100
1000
0000
0000
0000
,
0100
0000
0010
0000
0000
0000
0001
0100
0001
0100
0001
0100
0001
0000
0000
0000
,
1000
0000
0010
0000
0000
1000
0000
0000
,
0100
0000
0001
0000
0010
0000
0000
0100
0000
0000
0001
0000
0000
0000
0000
0000
,
1000
0000
0000
0000
0010
0000
0000
0000
0000
0000
1000
0001
1000
0000
0000
0001
,
0000
1000
0001
0000
0000
0000
0000
0000
,
0010
1001
0010
0001
,
1000
0001
0100
0001
,
0010
0001
1000
0110
,
1000
0001
0100
0110
,
1000
0001
0010
0001
,
1000
0100
0010
0001
,
1000
0010
0100
1001
,
0010
0001
0100
1001
,
0100
0001
0010
0001
,
0100
0010
1000
0001
,
0010
0001
1000
0010
,
0100
0001
1000
0001
,
0010
0000
0001
0010
0001
0010
0001
0000
,
1000
0000
0100
1000
0100
1000
0100
0000
,
0010
0000
0001
1000
0001
1000
0001
0000
,
1000
0000
0010
0100
0010
0100
0010
0000
,
0001
0000
1000
0001
0000
0100
0001
0000
,
1000
0001
0000
0010
0001
0000
1000
0000
,
1000
0000
0001
0100
0000
0001
1000
0000
,
0010
0100
0000
0001
1000
0000
0001
0000
,
0001
0000
0010
0100
0000
1000
0010
0000
,
0100
0001
0000
1000
0001
0000
0010
0000
,
0010
0000
0001
1000
0000
0001
0100
0000
,
0010
1000
0000
0001
0010
0000
0100
0000
,
0100
0000
1000
0001
0000
0100
0001
0000
,
0010
0001
0000
1000
0001
0000
0101
0000
,
0101
0000
1000
0100
0000
0010
0001
0000
,
1000
0001
0000
0100
0001
0000
1100
0000
,
1100
0000
0010
0001
0000
1000
0001
0000
,
0100
0010
0000
1000
0001
0000
1001
0000
,
1001
0000
0010
0100
0000
1000
0010
0000
,
0100
0001
0000
1000
0001
0000
0110
0000
,
0110
1000
0000
0001
,
0010
0000
0001
1000
,
0010
0100
0000
0001
,
1000
0000
0001
0010
,
0001
0110
0000
1000
,
1100
0000
0010
0001
,
1000
0010
0000
0100
,
0001
0000
1000
0100
,
0010
1001
0000
0101
,
0000
1000
0010
1000
,
0000
0110
0000
1100
,
0000
0010
0001
1000
,
0000
0101
0000
1100
,
0000
0010
0001
0010
,
0000
1000
0010
0100
,
0001
0010
0001
1000
,
0100
2002
0000
0000
,
0000
0000
0000
0000
,
0000
0000
3003
0000
;

//---------------dance-single - ----------------
#NOTES:
     dance-single:
     :
     Easy:
     6:
     0.472,0.674,0.189,0.089,0.061,273.000,17.000,8.000,0.000,0.000:
0000
0000
0000
0000
,
0000
1000
0000
0001
,
0000
0010
0000
0002
,
0103
0001
0000
0010
,
0000
0100
0000
0002
,
1003
0100
0000
1000
,
0000
0001
0000
2000
,
3010
1000
0000
0100
,
0000
0010
0000
0002
,
1003
0001
0000
0100
,
0000
0010
0000
1100
,
1100
1100
0000
0010
,
0000
0001
0000
0101
,
0101
0101
0000
1000
,
0000
0010
0000
0110
,
0110
0110
0000
1000
,
0000
0001
0000
1001
,
1001
1001
0000
0010
,
0000
0001
0000
1000
,
0000
0100
1000
0100
,
0000
0010
0001
0010
,
0000
0001
0100
0001
,
0000
1000
0010
1000
,
0000
1000
1000
1000
,
0000
0100
0010
0100
,
0000
1000
0001
0100
,
0000
0001
0010
0001
,
0000
0100
0001
1000
,
0001
0010
0001
0100
,
0000
1000
0010
1000
,
0000
0100
0010
0001
,
0000
1000
0010
0100
,
0001
0010
0100
1000
,
0010
2002
0000
0000
,
0000
0000
0000
0000
,
3003
0000
0000
0000
0010
0000
0000
0000
0000
0000
0000
0000
1000
0000
0000
0001
,
0000
0000
0010
0000
0001
0000
0000
1000
0000
0010
0000
0000
0100
0000
0000
0001
,
0000
0000
1000
0000
0001
0000
0000
0000
0000
0000
0100
0001
0100
0000
0000
0000
,
0001
0000
0010
0000
0000
0000
0100
1000
0100
1000
0100
1000
0100
0000
0000
0000
,
0010
0000
0001
0000
0000
1000
0000
0000
,
0010
0000
0100
0000
0001
0000
0000
1000
0000
0000
0001
0000
0000
0000
0000
0000
,
0010
0000
0000
0000
0001
0000
0000
0000
0000
0000
1000
0001
1000
0000
0000
0001
,
0000
0010
0100
0000
0000
0000
0000
0000
,
0010
1001
0000
0010
,
0000
0001
1000
0001
,
0000
1000
0000
0010
,
0000
0100
0001
0100
,
0000
0001
1000
0001
,
0000
1000
0100
0010
,
0000
1000
0001
0100
,
0000
0010
0001
1000
,
0000
0010
0100
0010
,
0000
1000
0001
0010
,
0000
1000
0001
0100
,
0000
0010
0001
1000
,
0000
0100
0100
0010
,
0000
0001
1000
1000
,
0000
0001
0100
0100
,
0000
0010
0010
1000
,
0000
0010
0000
0001
,
0000
1000
0001
1000
,
0000
0010
0100
0010
,
1000
0100
0010
0001
,
0000
1000
0000
0001
,
0000
0100
0001
0010
,
0000
0001
1000
0100
,
0010
0001
1000
0001
,
1000
0010
0000
1000
,
0000
0100
0010
0001
,
0000
1000
0001
0100
,
0001
0010
0001
0100
,
0000
1000
0010
1000
,
0100
1000
0010
1000
,
0001
1000
0000
0010
,
0000
1000
0100
0010
,
0001
1000
0000
0001
,
1000
0000
0100
0001
,
1000
0001
0000
0100
,
0101
0000
1000
0100
,
0010
0100
0000
0010
,
1000
0000
0000
0001
,
0100
0010
0000
1000
,
0100
0000
0010
0100
,
0010
0110
0000
1000
,
0001
0000
0000
0100
,
0001
1000
0000
0010
,
0100
0000
1000
0001
,
0010
0001
0000
0100
,
0001
0000
0000
1000
,
0010
1000
0000
0100
,
0010
0000
0001
1000
,
0010
2002
0000
0000
,
0000
0000
0000
0000
,
0000
0000
3003
0000
;
