#TITLE:SON OF SUN;
#SUBTITLE:;
#ARTIST:Shinji Hosoe;
#TITLETRANSLIT:;
#SUBTITLETRANSLIT:;
#ARTISTTRANSLIT:;
#CREDIT:;
#BANNER:SON OF SUN-bn.png;
#BACKGROUND:SON OF SUN-bg.jpg;
#LYRICSPATH:;
#CDTITLE:Type MARS.png;
#MUSIC:SON OF SUN.mp3;
#OFFSET:-0.380;
#SAMPLESTART:14.780;
#SAMPLELENGTH:21.200;
#SELECTABLE:YES;
#BPMS:0.000=200.001;
#STOPS:;
#BGCHANGES:-4.000=Black.jpg=1.000=1=1=0,
-0.500=Son of Sun.avi=1.000=0=0=1,
341.000=Black.jpg=1.000=0=0=1,
99999=-nosongbg-=1.000=0=0=0 // don't automatically add -songbackground-
;
// cache tags:
#FIRSTBEAT:0.000;
#LASTBEAT:341.000;
#SONGFILENAME:Songs/Definitive Keyboard Megapack/SON OF SUN(typeMARS)/SON OF SUN.sm;
#HASMUSIC:1;
#HASBANNER:1;
#MUSICLENGTH:106.012;
// end cache tags

//---------------dance-single - ----------------
#NOTES:
     dance-single:
     :
     Beginner:
     2:
     0.232,0.276,0.000,0.047,0.000,167.000,0.000,5.000,0.000,0.000:
0000
0000
0000
0000
,
0000
0000
0000
0000
,
0000
0000
0000
0000
,
0000
0000
0000
0000
,
0001
0000
0000
0000
,
0000
0000
0000
0000
,
0010
0000
0000
0000
,
0000
0000
0000
0000
,
0100
0000
0000
0000
,
0000
0000
0000
0000
,
0010
0000
0000
0000
,
0200
0000
0300
0000
,
0010
0000
0010
0000
,
0010
0000
0010
0000
,
0100
0000
0100
0000
,
0100
0000
0100
0000
,
1000
0000
1000
0000
,
1000
0000
1000
0000
,
0001
0000
0001
0000
,
0002
0000
0003
0000
,
0100
0000
0100
0000
,
0010
0000
0010
0000
,
1000
0000
1000
0000
,
0001
0000
0001
0000
,
0010
0000
0010
0000
,
0100
0000
0100
0000
,
1000
0000
1000
0000
,
0001
0001
0001
0001
,
0001
0000
0001
0000
,
1000
0000
1000
0000
,
0010
0000
0010
0000
,
0200
0000
0300
0000
,
0010
0000
0010
0000
,
1000
0000
1000
0000
,
0001
0000
0001
0000
,
0200
0000
0300
0000
,
0010
0000
0000
0000
,
1000
0000
0000
0000
,
0100
0000
0000
0000
,
0001
0001
0001
0001
,
1000
0000
0000
0000
,
0010
0000
0000
0000
,
0100
0000
0000
0000
,
0001
0001
0001
0001
,
1000
1000
0000
0010
,
0000
0100
0000
0001
,
0000
0001
0000
0100
,
0000
0010
0000
1000
,
1000
1000
0000
0010
,
0000
0100
0000
0001
,
0000
0010
0000
0100
,
0000
1000
0000
1000
,
0001
0000
0001
0000
,
0100
0000
0010
0010
,
1000
0000
1000
0000
,
0100
0000
0010
0000
,
0001
0000
0100
0000
,
0010
0000
1000
1000
,
0001
0000
0001
0000
,
0100
0100
0100
0100
,
0010
0010
0000
1000
,
1000
0001
0000
0100
,
0100
0010
0000
1000
,
1000
0001
0000
0100
,
0100
0001
0000
0001
,
0001
1000
0000
1000
,
1000
0010
0000
0010
,
0010
0100
0000
0100
,
0001
0000
0001
0000
,
0100
0100
1000
0000
,
0010
0000
0010
0010
,
0100
0000
0001
0000
,
1000
0000
0010
0000
,
0100
0100
0001
0000
,
0100
0000
0010
0010
,
1000
0000
0000
0100
,
0010
0000
0010
0000
,
1000
0000
1000
0001
,
0100
0000
0100
0000
,
0001
1000
0001
1000
,
0001
0000
0100
0000
,
0010
0000
1000
0001
,
0100
0000
0010
0000
,
2000
0000
3000
0000
;

//---------------dance-single - ----------------
#NOTES:
     dance-single:
     :
     Easy:
     5:
     0.434,0.514,0.387,0.094,0.000,271.000,41.000,10.000,0.000,0.000:
0000
0000
0000
0000
,
0000
0000
0000
0000
,
0000
0000
0000
0000
,
0000
0000
0000
0000
,
0001
0000
0000
0000
,
0001
0000
0000
0000
,
0100
0000
0000
0000
,
0100
0000
0000
0000
,
0010
0000
0000
0000
,
0010
0000
0000
0000
,
1000
0000
0000
0000
,
2000
3002
0203
0320
,
1030
0001
1000
0001
,
0100
0010
0100
0010
,
1000
0001
1000
0001
,
0100
0010
0100
0010
,
1000
0100
0001
0100
,
1000
0100
0001
0100
,
1000
0010
0001
0010
,
2000
3200
0320
0032
,
1003
0010
1000
0010
,
0100
0001
0100
0001
,
1000
0010
1000
0010
,
0100
0001
0100
0100
,
0001
0010
0001
0010
,
0100
1000
0100
1000
,
0001
0010
0001
0010
,
0100
0100
0100
0110
,
0010
1000
0010
0110
,
0100
0001
0100
0110
,
0001
1000
0001
1001
,
0100
0010
1000
0001
,
0100
1000
0001
1001
,
0010
0001
1000
1001
,
0010
1000
0100
0110
,
0010
0001
0100
1000
,
0010
0000
0100
0001
,
1000
0000
0010
0001
,
1000
0000
0010
0100
,
0110
0110
1001
0110
,
0001
0000
0100
1000
,
0001
0000
0010
0001
,
1000
0000
0010
1000
,
1001
1001
0110
1001
,
0010
0001
0000
0100
,
0000
0010
1000
0100
,
0001
0100
0000
0010
,
0000
1000
0001
0100
,
0010
0010
0000
0100
,
0000
0001
1000
0010
,
0100
0001
0000
1000
,
0000
0001
1000
1001
,
0110
0000
0010
0000
,
0001
0000
0100
1100
,
0101
0000
0001
0000
,
0100
0000
0010
1000
,
0101
0000
0001
0000
,
0100
0000
0010
0011
,
1100
0000
0010
0000
,
0100
0100
0100
0100
,
0001
1001
0010
1000
,
0001
1001
0100
1000
,
0001
1001
0010
0001
,
1000
1001
0010
0001
,
0100
0110
0010
1000
,
0100
0110
0010
0001
,
0100
0110
0010
1000
,
0100
0100
0100
0100
,
0010
0001
0100
0010
,
1000
1001
1001
0010
,
0001
0100
0010
1000
,
0002
0000
1000
0003
,
0010
1000
0100
0001
,
0010
1001
1001
0010
,
0001
0100
0010
1000
,
0101
0000
0000
1100
0000
0000
1001
0000
,
0010
0010
0010
0010
,
1000
1000
1000
1001
,
0001
0001
0001
0001
,
0100
0110
0010
0110
,
0100
1000
0001
1000
,
0010
0001
1000
1001
,
0010
1000
0001
0100
,
0020
0100
0130
0110
;

//---------------dance-single - ----------------
#NOTES:
     dance-single:
     :
     Medium:
     7:
     0.574,0.593,0.566,0.123,0.019,353.000,60.000,13.000,0.000,0.000:
0000
0000
0000
0000
,
0000
0000
0000
0000
,
0000
0000
0000
0000
,
0000
0000
0000
0000
,
0001
0000
0100
0000
,
0010
0000
1000
0000
,
0100
0000
0001
0000
,
0010
0000
0001
0000
,
0100
0000
0010
0000
,
1000
0000
0100
0000
,
1000
0000
0001
0000
,
2000
3002
0203
0320
,
1030
0001
1000
1001
,
0010
0000
0100
0000
0010
0000
0100
0001
,
1000
0010
0100
0001
,
1000
0000
0010
0000
0100
0000
0001
1000
,
0001
0100
0010
1000
,
0001
0000
0100
0000
0010
0000
1000
0001
,
1000
0010
0001
0100
,
2000
3002
0203
0320
,
1030
0010
1000
0000
0001
0100
0001
0000
,
1000
1001
0001
1001
,
0100
0001
0100
0000
0010
1000
0010
0000
,
0101
1000
1100
0101
,
1000
0001
0100
0000
0001
1000
0100
0000
,
0011
1000
1010
0010
,
0001
0100
0001
0000
1000
0100
1000
0000
,
0101
1100
0101
1001
,
0010
1000
0100
0000
1000
0000
1001
0000
,
0010
0001
0100
0000
0001
0000
1001
0000
,
0010
0100
0010
0000
0100
0000
0110
0000
,
0001
0100
1000
0000
1000
0100
0001
0000
,
1000
0010
0100
0000
0001
0000
0101
0000
,
0001
0100
0010
0000
1000
0000
1100
0000
,
1000
0010
0100
0000
0001
0000
1001
0000
,
0100
0001
1000
0000
0010
1000
0001
0000
,
1001
0100
0010
0001
,
1001
0010
0100
1000
,
0110
0001
0010
0100
,
1001
0110
0101
1100
,
0110
0001
0100
1000
,
0110
1000
0100
0001
,
1001
0100
0010
1000
,
0101
1100
0110
1001
,
0010
0000
0101
0000
0010
1000
0000
0100
,
0000
0010
0001
0000
0100
0000
1001
0000
,
0010
0000
1001
0000
0100
0001
0000
1000
,
0000
0010
0100
0000
0001
0000
1001
0000
,
0010
0000
1100
0000
0001
0100
0000
0010
,
0000
1000
0001
0000
0100
0000
1001
0000
,
0010
1001
0100
0001
,
1000
0010
0101
1100
,
0110
0000
0001
0000
0100
0000
0001
0100
,
0000
0010
1000
0000
0100
0000
0001
0000
,
1001
0000
1001
0000
0010
0000
1000
0100
,
0000
0001
0100
0000
0010
0000
1000
0000
,
1100
0000
0010
0000
0001
0000
0100
0001
,
0000
0001
1000
0000
0010
0000
0001
0000
,
1100
0000
0101
0000
0010
0000
1000
0001
,
0100
0100
0100
0100
,
0010
1000
0001
0000
0100
0000
0101
0000
,
0001
1000
0100
0000
0001
0000
1100
0000
,
0010
1000
0001
0000
0100
0000
0101
0000
,
0010
0001
1000
0000
0010
1000
0001
0000
,
0100
0001
0010
0000
0100
0000
0011
0000
,
0100
1000
0010
0000
0100
0000
1010
0000
,
0100
0001
1000
0000
0010
0000
1001
0000
,
0100
0001
1000
0000
0010
1000
0010
1000
,
0010
0000
0000
0000
0000
0100
0001
0000
0000
0010
0000
0000
,
0100
0101
1100
0010
,
1000
0000
0000
0000
0000
0001
0100
0000
0000
0010
0000
0000
,
2000
0001
0001
3001
,
0010
0000
0000
0100
0000
0001
1000
0000
0000
0010
0000
0000
,
0100
0101
1100
0010
,
1000
0000
0000
0001
0000
0100
0001
0000
0000
1000
0000
0000
,
0101
0000
0000
1100
0000
0000
0101
0000
,
1000
0001
0000
0100
0000
0010
0000
1000
,
0000
0100
0000
1000
0000
0001
2000
0000
,
3001
1000
0000
0010
0000
0100
0000
0001
,
0000
1000
0020
0000
0130
0010
2000
0000
,
3001
1000
0000
0010
0000
0100
0000
0001
,
0000
1000
0000
0010
0000
0100
0002
0000
,
0103
0001
0000
1000
0000
0010
0000
0100
,
0001
0000
0100
1000
0001
1000
0001
0000
;

//---------------dance-single - ----------------
#NOTES:
     dance-single:
     :
     Hard:
     9:
     0.722,0.830,0.745,0.255,0.042,430.000,79.000,27.000,0.000,0.000:
0000
0000
0000
0000
,
0000
0000
0000
0000
,
0000
0000
0000
0000
,
0000
0000
0000
0000
,
0001
0001
0001
0001
,
0100
0100
0100
0100
,
1000
1000
1000
1000
,
0100
0100
0100
0100
,
0001
0001
0001
0001
,
0010
0010
0010
0010
,
0100
0100
0100
0100
,
2000
3200
0320
0032
,
1003
0001
0100
0010
1000
0001
0100
0000
,
0010
1000
0001
0000
0100
0001
1000
0000
,
0001
0010
0100
1000
0001
0010
0100
0000
,
0001
0100
0010
0000
1000
0010
0100
0000
,
1000
0100
0010
0001
0010
0100
1000
0000
,
0001
0100
0010
0000
1000
0010
0100
0000
,
0001
0100
0010
1000
0001
0100
0010
0000
,
2000
3002
0023
0230
,
1300
0001
0100
0000
0001
1000
0100
0000
,
0011
1100
0101
1010
,
0001
0100
1000
0000
1000
0100
0001
0000
,
1010
0101
1100
0011
,
1000
0010
0100
0000
0001
0010
0100
0000
,
1001
1100
0101
1001
,
0010
0001
0100
0000
0010
1000
0001
0000
,
0202
0303
2200
3300
2002
3003
0110
0000
,
0001
1000
0001
1000
0001
0000
1001
0000
,
0010
0100
0010
0100
0010
0000
0110
0000
,
0001
0100
0001
0100
0001
0000
0101
0000
,
1000
0010
0001
0010
1000
0100
0001
0000
,
1000
0100
0010
0100
1000
0000
1100
0000
,
0001
0010
0100
0010
0001
0000
0101
0000
,
0001
0100
0010
1000
0100
0000
0110
0000
,
0001
0100
0010
0100
0010
1000
0100
0000
,
0001
0100
0000
0010
0000
0110
0000
0100
,
0001
1000
0000
0010
0000
0101
0000
0001
,
1000
0100
0000
0010
0000
1001
0000
0100
,
0101
1001
1100
1001
,
0001
1000
0000
0010
0000
1100
0000
0010
,
0001
1000
0000
0001
0000
1100
0000
0010
,
0100
0001
0000
0100
0000
1010
0000
0001
,
1001
1100
1001
0101
,
0010
0000
1001
0000
0100
0001
1000
0010
,
0000
0100
0001
1000
0100
0000
0110
0000
,
0001
0000
0101
0000
0010
1000
0100
0010
,
0000
0100
0001
0010
0100
0000
1001
0000
,
0001
0000
1100
0000
0010
0001
0100
0010
,
0000
1000
0010
0100
0010
0000
1100
0000
,
0001
0000
0101
0000
0010
0000
1000
0001
,
0000
0100
0010
0000
1100
0000
0101
0000
,
1001
0000
0010
0000
0100
0000
0001
0100
,
0000
1000
0100
0000
0001
0000
1000
0001
,
0100
0000
0110
0000
0001
0000
0100
0010
,
0000
1000
0100
0000
0001
0000
0100
0000
,
1001
0000
0010
0000
0001
0000
0100
0010
,
0000
0010
1000
0000
0100
0000
0001
1000
,
0100
0000
0110
0000
0001
0000
0100
0010
,
1000
0001
1000
0001
1000
0100
1000
0001
,
1000
0010
0100
0001
1000
0010
0100
0001
,
1000
0100
0010
0001
1000
0100
0010
0001
,
1000
0010
0100
0001
0100
0010
1000
0010
,
0100
0010
0001
0010
0100
1000
0100
0010
,
0001
0100
1000
0100
0001
0100
1000
0100
,
0001
0010
1000
0010
0001
0010
1000
0010
,
0001
1000
0001
0100
0001
0010
0001
0100
,
0002
0203
0320
2030
,
3001
0000
0100
0000
0000
0010
1000
0000
0000
1001
0000
0000
,
0100
0101
1100
1001
,
0010
0000
0100
0000
0000
0001
1000
0000
0100
0001
0000
0000
,
2001
0001
0001
3100
,
0001
0000
0100
0000
0000
0010
1000
0000
0000
1001
0000
0000
,
0100
0101
0110
0101
,
1000
0000
0001
0000
0000
0100
0001
0000
0000
1001
0000
0000
,
0202
0000
0303
2200
0000
3300
1001
0000
,
0010
0001
0000
0101
0000
0110
0000
1100
,
0000
0101
0000
1100
0000
0001
2000
0000
,
3001
0100
0000
1010
0000
0101
0000
0110
,
0000
0001
2000
0000
3010
0100
0002
0000
,
1003
0010
0000
1100
0000
0101
0000
0110
,
0000
1001
0000
0110
0000
0001
2000
0000
,
3010
0001
0000
0101
0000
1100
0000
0110
,
0001
0100
0010
1000
0100
0010
1001
0000
;

//---------------dance-single - ----------------
#NOTES:
     dance-single:
     :
     Challenge:
     11:
     1.000,1.000,1.000,0.972,0.241,613.000,173.000,103.000,0.000,0.000:
2001
0000
0010
0100
0000
0010
0000
0001
,
0100
0000
0100
0001
0010
0001
0000
0010
,
0100
0000
0001
0100
0000
0010
0000
0010
,
0100
0000
0010
0100
0000
0100
0001
0010
,
3100
0000
0001
0010
0100
1000
0001
0100
,
0001
0000
0100
0001
0000
1000
0010
0100
,
0001
0000
0100
0010
0000
1000
0010
0100
,
0001
0000
0100
0010
0000
0100
0010
0001
,
0100
0100
0010
1000
0010
0100
0001
0100
,
0010
0000
1000
0010
0000
0100
0001
1000
,
0010
0000
0100
0001
0000
0100
0010
1000
,
0102
0003
2100
3000
0120
0030
2001
3000
,
0101
0010
1000
0001
1100
0010
0001
0100
,
0101
0000
0010
0000
1100
0000
1100
0000
0010
0000
0101
0000
0101
0000
0010
1000
,
0010
0100
0001
0100
1010
0100
0001
1000
,
0110
0000
0001
0000
1100
0000
1100
0000
0010
0000
1001
0000
1001
0000
0001
0100
,
0001
0100
0010
1000
0101
0010
1000
0001
,
1100
0000
0010
0000
0101
0000
0101
0000
0010
0000
1100
0000
1100
0000
0001
1000
,
0001
0100
0010
1000
0101
0010
1000
0001
,
2100
3000
0120
0030
1002
0003
2100
3000
,
0002
2003
3002
0103
0020
2030
3020
0130
,
1001
0000
0010
0000
0101
0000
0101
0000
0010
0000
1100
0000
1100
0000
0001
1000
,
0002
0203
0302
1003
0020
0230
0320
1030
,
0101
1000
1001
1001
0110
1010
0110
0101
,
0020
2030
3002
0103
0020
0230
0302
1003
,
0110
0000
0001
0000
1100
0000
1100
0000
0010
0000
0101
0000
0101
0000
0010
1000
,
0002
0203
0320
1030
0002
2003
3020
0130
,
0011
1100
0011
1100
0011
1100
0220
0330
,
0001
0100
0001
0100
1001
0100
1001
0100
,
0010
1000
0010
1000
0110
1000
0110
1000
,
0001
1000
0001
1000
0101
1000
0101
1000
,
0002
0203
0302
2003
3200
0320
0032
0003
,
1000
0100
1000
0100
0011
1000
0011
1000
,
0010
0100
0010
0100
0011
0100
1010
0100
,
0001
1000
0001
1000
0011
0100
1010
0100
,
1001
1001
1001
0101
0101
1001
1001
0010
,
2001
0010
0100
0010
0100
0010
0100
0001
,
0001
0100
0010
0100
0001
0100
0010
0100
,
0100
0001
0010
0100
0010
0001
0100
3001
,
1001
0100
1001
0100
1001
0100
1001
0100
,
1001
0010
0100
0010
0001
0100
0010
1001
,
1001
0100
0010
0100
1000
0010
0100
0001
,
1001
0100
0010
1000
0001
0100
0010
1000
,
0101
1000
0101
1000
0101
1000
0101
1000
,
0101
0000
1001
0000
0110
1010
0101
1001
,
0000
0101
1100
0110
2002
3003
0220
0330
,
0202
0303
2002
3003
0110
1100
1001
0110
,
0000
1100
0101
0110
2002
3003
0220
0330
,
0101
0000
1100
0000
0110
0101
1100
0110
,
0000
0101
1001
0110
2002
3003
0220
0330
,
0101
0000
1100
0000
0010
0001
0100
0010
,
1000
0100
0010
0001
2002
3003
0220
0330
,
2000
0000
3002
0000
0203
0000
0320
2030
,
0000
3002
0203
0000
0320
0000
1030
0101
,
1001
0000
1002
0000
0203
0000
0320
2030
,
0000
3002
0203
0000
0320
0000
2030
0000
,
3002
0000
0203
0000
0320
0000
0230
0302
,
0000
2003
3020
0000
0230
0000
0301
1100
,
1001
0000
1001
0000
0010
0000
0100
0001
,
1000
0001
1000
0001
1000
0001
1000
0001
1000
0001
1000
0001
1000
0001
1000
0001
,
1000
0000
0010
0000
0101
0000
0010
0100
1000
0000
0001
0000
0100
0000
0010
0000
,
1000
0000
0001
0000
1100
0000
0010
0100
0001
0000
0100
0000
0010
0000
1000
0010
,
0001
0000
0100
0000
1010
0000
0100
0010
0001
0000
1000
0000
0010
0000
0100
0010
,
0001
1100
0010
0101
0010
1001
0100
1001
,
0010
0000
0100
0000
0011
0000
1000
0010
0100
0000
0001
0000
0100
0000
0010
0100
,
1000
0000
0001
0000
0110
0000
1000
0001
0100
0000
0010
0000
1000
0000
0001
0010
,
0100
0000
1000
0000
0110
0000
0001
0100
0010
0000
1000
0000
0001
0000
0100
0010
,
1000
0001
1000
0001
1000
0001
1000
0001
1000
0001
1000
0001
1000
0001
1000
0001
,
1000
0000
0001
0100
0000
0010
1000
0000
0000
1001
0000
0010
,
0001
0000
0000
1100
0000
0000
0101
0000
0001
1000
0000
1000
,
0001
0000
1000
0001
0000
0001
0100
0000
0000
0110
0000
0000
,
2001
0100
0001
0100
0001
0100
0001
0100
0001
3100
0000
0000
,
0001
0000
1000
0001
0000
0001
0100
0000
0000
0110
0000
0000
,
1000
0000
0001
0100
0000
0100
0001
0000
0000
1001
0000
0000
,
0100
0000
1000
0001
0000
0001
0100
0000
0000
0110
0000
0000
,
2200
0000
3300
0202
0000
0303
1001
0000
,
1000
0101
1000
0011
1000
0101
1000
0011
,
0100
1010
0100
1001
0100
1010
0200
0000
,
0301
1100
0001
1010
0001
1100
0001
1010
,
0001
0110
2000
0000
3001
0110
0002
0000
,
1003
0110
0001
0110
1000
0101
0010
1100
,
0001
1010
0100
0011
0100
1001
0200
0000
,
0310
1100
0001
0110
1000
0101
0010
1001
,
0200
0320
2030
3002
0203
0320
2030
0000
,
0000
0000
0000
0000
,
0000
3000
0000
0000
;
