#TITLE:Poison;
#SUBTITLE:[Club Mix Short];
#ARTIST:Groove Coverage;
#TITLETRANSLIT:;
#SUBTITLETRANSLIT:;
#ARTISTTRANSLIT:;
#CREDIT:;
#BANNER:;
#BACKGROUND:;
#LYRICSPATH:;
#CDTITLE:;
#MUSIC:Groove Coverage - Poison (Club Mix Short).ogg;
#OFFSET:0.060;
#SAMPLESTART:44.381;
#SAMPLELENGTH:12.000;
#SELECTABLE:YES;
#BPMS:0.000=135.010;
#STOPS:;
#BGCHANGES:;
// cache tags:
#FIRSTBEAT:8.000;
#LASTBEAT:412.000;
#SONGFILENAME:Songs/lvsb tourney pack/Poison (Club Mix Short)/Groove Coverage - Poison (Club Mix Short).sm;
#HASMUSIC:1;
#HASBANNER:0;
#MUSICLENGTH:105.000;
// end cache tags

//---------------dance-single - ----------------
#NOTES:
     dance-single:
     :
     Challenge:
     9:
     1.000,1.000,1.000,0.533,0.833,698.000,105.000,56.000,0.000,2.000:
0000
0000
0000
0000
,
0000
0000
0000
0000
,
1001
0000
0001
0000
0100
0000
0000
1001
,
1001
1000
0001
0000
,
1010
0000
0100
0000
0001
0000
0000
1100
,
1100
0000
0010
0000
0001
0000
0000
1000
,
1001
0000
0010
0000
0100
0000
0000
0001
,
0011
0000
1000
0000
0100
0000
0000
0010
,
1001
0000
0100
0000
0010
0000
0000
1000
,
1100
0001
0100
0010
1000
0010
0100
1000
,
1001
0100
0010
1000
0110
1000
0101
0000
,
1001
0010
0100
0001
1000
0100
0010
0001
,
0010
0100
1001
0000
2200
3300
0000
0000
,
0101
0010
1000
0001
0100
0010
0100
0001
,
1100
0000
0110
0000
0010
0001
0000
0001
,
0100
0010
1010
1000
0001
0100
0101
0001
,
1000
1000
1100
0000
0010
0000
0011
0000
,
1001
0010
0101
1000
0100
0010
0011
0001
,
1000
0010
1010
0000
0001
0000
1100
0000
,
2000
0002
0000
3003
,
2020
0000
0000
0000
3030
0000
0001
0010
,
0002
0000
0203
0000
0320
2030
0000
3200
,
0000
0320
0000
2030
0000
3000
0011
0000
,
1001
0000
0001
0100
0001
0000
1000
0000
0100
0000
0010
0001
0010
0000
0100
0000
,
1000
0000
0001
0100
0001
0000
1000
0000
0010
0000
0100
0010
0100
0000
0001
0000
,
2000
0000
3200
0000
0320
0032
0000
0023
,
0000
0230
0000
2000
0000
0000
3300
0000
,
1000
1100
1110
1100
,
1000
0001
0000
0000
1010
0000
0100
0001
0100
0001
0000
0000
1100
0000
0010
0001
,
0000
1000
0000
0000
1010
0000
0010
0100
0001
0100
0000
0000
1010
0000
0100
0001
,
1000
0100
0000
0000
1100
0000
0010
0001
1000
0001
0000
0000
0011
0000
0010
0100
,
1000
0001
0000
0000
0101
0000
0100
0010
0000
1000
0000
0000
1001
0000
1000
0000
,
0001
0100
0001
0100
0001
0100
0001
0100
0001
0100
0001
0100
0001
0100
0001
0100
,
0010
1000
0010
1000
0010
1000
0010
1000
0010
1000
0010
1000
0010
1000
0010
1000
,
0100
1000
0100
1000
0100
1000
0100
1000
0001
0010
0001
0010
0001
0010
0001
0010
,
0100
1000
0100
1000
0001
0100
0001
0100
0010
0100
0001
1000
0100
0010
0001
0010
,
0100
1000
0000
0000
1001
0000
0000
0100
0000
0010
0000
0000
0100
0000
0000
0001
,
0000
0010
0000
0000
0100
0000
0000
1000
0000
0100
0000
0000
0010
0000
0000
0001
,
0000
0100
0000
0000
0001
0000
0000
0010
0000
0001
0000
0000
0100
0000
0000
0001
,
0000
0010
0000
0000
0100
0000
0000
1000
0000
0001
0000
0000
0100
0000
0000
0001
,
1000
0100
0000
0000
0011
0000
0000
0100
1000
0001
0000
0000
1010
0000
0000
0100
,
0001
0010
0000
0000
1100
0000
0000
0010
0001
1000
0000
0000
0011
0000
0000
0010
,
0100
1000
0000
0000
0101
0000
0000
0001
1000
0100
0000
0000
0011
0000
0000
0010
,
0100
1000
0000
0000
1001
0000
0000
0001
0100
0010
0000
0000
1010
0000
0000
0001
,
1000
0010
0100
0010
1000
0001
0100
0010
,
0100
0001
1000
0100
0010
0001
0010
0100
,
1000
0001
0010
0100
1000
0100
0010
0001
,
1000
0010
1000
0001
0100
0001
1000
0100
,
0010
0001
0000
0000
0011
0000
0010
0100
1000
0001
0000
0000
0101
0000
0001
0100
,
0010
0100
0000
0000
1001
0000
0010
0100
0010
0100
0000
0000
0101
0000
0001
1000
,
0100
0010
0000
0000
0001
0000
1000
0010
1000
0001
0000
0000
0100
0000
0001
0010
,
0100
1000
0000
0000
0100
0000
0010
0001
1000
0001
0000
0000
0010
0000
0100
1000
,
2002
0000
0000
0000
0000
0000
0000
3003
,
0000
0200
0002
0303
,
0000
2000
0200
3300
,
0000
0020
0002
0033
,
0000
2000
0002
3003
,
0000
2000
0020
3030
,
0000
0200
0020
0330
,
0000
0002
0200
0303
,
0000
2000
0020
3030
,
1001
0100
0010
1000
0110
0101
1001
0000
,
1100
1000
0001
0100
0010
0001
0010
1000
,
0001
0100
0200
0000
0020
0000
0330
0000
,
0000
0010
0100
0001
1000
0100
0010
0001
,
2000
0000
3020
0000
0130
0101
0000
0001
,
1001
1000
0100
0010
1000
0010
0001
1000
,
0010
0100
0110
0000
1010
0000
0001
0000
,
0000
1000
0001
0100
0001
0010
0100
1000
,
0010
0100
0001
1000
,
0101
0220
0000
0330
,
2200
3300
0000
0011
,
0200
0000
2300
0000
3002
0203
0000
0302
,
0000
0023
0000
0230
0000
0300
1000
0000
,
1001
0000
1000
0100
0010
0000
0100
0000
1000
0000
0001
0100
0010
0000
1000
0000
,
0010
0000
0001
0010
0100
0000
1000
0000
0100
0000
0001
1000
0100
0000
0010
0000
,
0011
0000
1001
0000
1100
0101
0000
1001
,
0000
1010
0000
0220
0000
0000
0330
0000
,
0001
0011
0111
0011
,
0001
0010
0000
0000
0001
0000
1000
0100
0010
0001
0000
0000
0010
0000
0001
0010
,
0100
1000
0000
0000
0001
0000
1000
0010
0100
0001
0000
0000
1000
0000
0001
0100
,
0010
1000
0000
0000
0010
0000
0100
0001
1000
0100
0000
0000
0010
0000
0001
0010
,
0100
0001
0000
0000
0100
0000
1000
0001
0100
0010
0000
0000
0001
0000
0010
1000
,
0001
0100
0000
0000
0001
0000
0010
0100
1000
0001
0000
0000
0100
0000
0001
0010
,
0100
0001
0000
0000
0100
0000
1000
0010
0001
0010
0000
0000
1001
0000
1000
0010
,
1000
0100
0000
0010
0001
0100
0000
0001
1000
0100
0000
0010
0001
1000
0000
0100
,
0010
0001
0010
0100
1000
0001
0100
0010
1000
0010
0100
0010
2000
0000
0000
0000
,
3100
0010
0000
0000
0011
0000
0000
0001
0010
0001
0000
0000
1001
0000
0000
1000
,
0010
1000
0000
0000
0101
0000
0000
0001
1000
0001
0000
0000
1100
0000
0000
0100
,
0010
0100
0000
0000
1001
0000
0000
0010
1000
0010
0000
0000
0101
0000
0000
0010
,
0001
0010
0000
0000
1001
0000
0000
0100
1000
0100
0000
0000
0011
0000
0000
1000
,
0001
1000
0000
0000
0110
0000
0000
0001
0100
0001
0000
0000
1100
0000
0000
0001
,
0010
0001
0000
0000
1100
0000
0000
0010
0100
0010
0000
0000
1010
0000
0000
0100
,
0001
0100
0000
0000
1001
0000
0000
1000
0100
1000
0000
0000
0011
0000
0000
0100
,
0010
0100
0000
0000
0101
0000
0000
0001
1000
0001
0000
0000
1100
0000
0000
0010
,
0001
1000
0010
1000
0100
0010
0001
0100
,
0001
0010
0100
0010
0001
1000
0010
1000
,
0001
0100
0001
1000
0100
1000
0001
0010
,
0001
1000
0010
1000
0001
0100
0010
0100
,
0001
1000
1010
0010
0100
0001
1001
1000
,
0100
0010
0011
0001
0010
0100
0110
0010
,
0001
1000
1010
0010
0100
1000
1100
0100
,
0001
0000
0000
1000
0000
0000
1100
0000
0000
0100
0000
0000
0010
0000
0000
0001
0000
0000
1001
0000
0000
1000
0001
1000
,
0010
0000
0000
0000
;
