#TITLE:Redemption;
#SUBTITLE:;
#ARTIST:Gackt;
#TITLETRANSLIT:;
#SUBTITLETRANSLIT:;
#ARTISTTRANSLIT:;
#CREDIT:;
#BANNER:Redemption.png;
#BACKGROUND:bg.JPG;
#LYRICSPATH:;
#CDTITLE:Title.png;
#MUSIC:REDEMPTION.mp3;
#OFFSET:-0.620;
#SAMPLESTART:120.279;
#SAMPLELENGTH:12.000;
#SELECTABLE:YES;
#BPMS:0.000=120.000,32.000=240.001,96.000=120.001,152.000=240.001,216.000=120.001,291.000=240.001,487.000=120.001,520.000=240.001,706.000=360.000,711.000=479.999,716.000=240.002;
#STOPS:106.000=3.000
,151.500=1.000
,243.000=2.000
,290.000=0.500
,356.500=0.260
,358.500=0.260
,360.500=0.260
,362.500=0.260
,487.000=0.700
,519.000=0.760
,717.500=0.280
,719.500=0.240
;
#BGCHANGES:0.000=Gackt - REDEMPTION.avi=1.000=1=1=0,
721.563=bg.JPG=1.000=0=0=1,
99999=-nosongbg-=1.000=0=0=0 // don't automatically add -songbackground-
;
// cache tags:
#FIRSTBEAT:0.000;
#LASTBEAT:721.500;
#SONGFILENAME:Songs/juju step2/Redemption/REDEMPTION.sm;
#HASMUSIC:1;
#HASBANNER:1;
#MUSICLENGTH:244.871;
// end cache tags

//---------------dance-single - Copied from----------------
#NOTES:
     dance-single:
     Copied from:
     Hard:
     7:
     0.775,1.000,1.000,1.000,0.071,718.000,297.000,313.000,0.000,0.000:
1000
0100
0010
0100
1000
0100
0001
0100
,
1000
0010
0001
0010
1000
0100
0010
0100
,
1000
0100
0001
0100
1000
0010
0001
0010
,
0100
1000
0100
0010
0001
0010
0100
1000
,
0110
0000
0110
0000
1001
0000
0000
1010
1010
0000
1010
0000
1100
0000
0000
0101
,
0101
0000
0101
0000
0011
0000
0000
0010
1000
0010
1000
0000
1001
0000
0000
0000
,
0101
0000
0101
0000
0110
0000
0000
1100
1100
0000
1100
0000
0011
0000
0000
0010
,
1000
0010
1000
0010
1000
0010
1000
0010
1000
0001
1000
0001
1000
0001
1000
0001
,
0100
0000
0010
0000
1000
0000
0100
0001
,
1000
0100
0001
0000
1000
0000
0000
0100
,
0010
0000
0001
0000
1000
0000
0100
0001
,
0100
1000
0001
0000
0100
1000
0000
0010
,
1000
0000
0010
0000
0100
0000
1000
0010
,
1000
0100
0001
0000
0100
0000
0000
1000
,
0010
0000
0100
0000
0010
0000
1000
0001
,
0100
0010
1000
0000
0001
0100
1000
0100
,
0001
0000
1000
0000
0010
0000
1000
0001
,
0100
0001
1000
0000
0010
0000
0000
0100
,
0001
0000
1000
0000
0001
0000
1000
0100
,
1000
0001
1000
0000
0010
1000
0000
0001
,
0100
0000
0010
0000
0100
0000
1000
0001
,
1000
0100
0001
0000
0100
0000
0000
0001
,
1000
0000
0010
0000
1000
0000
0100
0010
,
0100
0001
1000
0000
0100
1000
0100
1000
,
0000
0000
0000
0010
0000
0000
0000
1000
0000
0000
0010
0000
0000
0000
0200
0000
0000
0000
0000
0000
0310
0000
0000
0000
0001
0000
0000
0000
0010
0000
0000
0000
,
0200
0000
0000
0302
0000
0000
1003
0000
0010
0000
1000
0000
0100
0000
1000
0000
,
0002
0000
0000
0000
0000
0000
0000
0000
0000
0000
0000
0000
2003
0000
0000
0000
0000
0000
0000
0000
0000
0000
0000
0000
3200
0000
0000
0000
0000
0000
0000
0000
0000
0300
0000
0000
0000
0000
0000
0000
0001
0000
0000
0000
0000
0000
0000
0000
0010
0000
0000
0000
0100
0000
0000
0000
0000
0000
0000
0000
2000
0000
0000
0000
,
0000
0000
3100
0000
0010
0000
0001
0000
0100
0000
1000
0000
0100
0001
0000
2000
,
0000
0000
3100
0000
0010
0000
0001
0000
0020
0000
0000
2030
0000
0000
3020
0000
,
0000
0000
0030
0000
,
0000
0100
0001
1000
0102
0000
0003
1200
,
0000
0300
0120
0000
0030
2002
3003
2200
,
3300
0202
0303
1100
2200
0000
3300
0201
,
0000
0300
1010
1010
0021
0030
1001
1002
,
0003
2200
3300
1001
1002
0000
0003
0120
,
0000
0030
2010
0000
3000
0012
0003
0201
,
0300
1001
2002
0000
3003
0000
0220
0330
,
2200
0000
0000
0000
0000
0000
0000
0000
3300
0000
0000
0000
0000
0000
0000
0000
0220
0000
0000
0000
0000
0000
0000
0000
0330
0000
0000
0000
0000
0000
0000
0000
0022
0000
0000
0000
0000
0000
0000
0000
0000
0000
0000
0000
0000
0000
0000
0000
0000
0000
0000
0000
0000
0000
0000
0000
0000
0033
0000
0000
0000
0000
0000
0000
,
1001
0000
1100
0000
1001
0000
1010
2020
,
0000
3030
2002
0000
0000
3003
0110
0000
,
0202
0000
0000
0303
0220
0000
0000
0330
,
0101
0000
0202
0000
0000
0000
0000
0303
,
1100
0000
1100
0000
0011
0000
0011
0022
,
0000
0033
1010
0000
0101
0000
1010
0000
,
0202
0000
0000
0303
0220
0000
0000
0330
,
2002
0000
0000
0000
0000
3003
1100
0000
,
0110
0000
0011
0000
1010
0000
1001
2002
,
0000
3003
0101
0000
0011
0000
0110
0000
,
2200
0000
0000
3300
2002
0000
0000
3003
,
0110
0000
2020
0000
0000
0000
0000
3030
,
1001
0000
1100
0000
0110
0000
0101
0202
,
0000
0303
0011
0000
1001
0000
1100
0000
,
0220
0000
0000
0330
0202
0000
0000
0303
,
0022
0000
0000
0033
2000
0000
0000
0000
,
0002
0000
0000
3003
0100
1000
0100
0010
,
0001
0010
0100
1000
0010
0001
0010
1000
,
0001
1000
0001
0010
0100
1000
0100
0010
,
0001
0100
1000
0100
0001
0100
0001
0000
,
0000
0000
0100
0000
0010
1000
0000
0002
0000
0000
1003
0000
0100
0000
0010
0000
,
1000
0001
0000
0010
1000
0010
0100
0001
,
1000
0000
0000
0000
0000
0000
0000
0000
0000
0000
0000
0000
0001
0000
0000
0000
0000
0000
0000
0000
0000
0000
0000
0000
0200
0000
0000
0000
0000
0000
0000
0000
0000
0000
0000
0000
0000
0000
0000
0000
0000
0000
0000
0000
0000
0000
0000
0000
0000
0300
0000
0000
0000
0000
0000
0000
0000
0000
0000
0000
0000
0000
0000
0000
,
0000
0000
0010
0000
1000
0001
0000
2000
0000
0000
3100
0000
1000
0000
0010
0000
,
1000
0000
0001
0000
1000
0010
1000
0020
0000
0000
0000
0000
0031
0000
1000
0000
,
0002
0000
0000
0203
0000
0000
2300
0000
0000
0000
0000
0000
0000
0000
0000
0000
,
3000
0000
0000
0000
0000
0100
0010
1000
,
1002
0000
0003
2100
0000
3000
1020
0000
,
0030
0220
0330
0022
0033
0202
0303
1001
,
1002
0000
0003
1200
0000
0300
2020
3030
,
0220
0330
0011
0022
0033
1001
0000
1100
,
1200
0000
0300
1020
0000
0030
0210
0000
,
0300
0022
0033
0202
0303
1001
2002
0000
,
3003
0000
0220
0330
2020
3030
0202
0303
,
0220
0000
0000
0000
0000
0000
0000
0000
0000
0000
0000
0000
0000
0000
0000
0000
0000
0000
0000
0000
0000
0000
0000
0000
0000
0000
0000
0000
0000
0000
0000
0000
0000
0330
0000
0000
0000
0000
0000
0000
0000
0000
0000
0000
0000
0000
0000
0000
1010
0000
0000
0000
0000
0000
0000
0000
0000
0000
0000
0000
0000
0000
0000
0000
,
0110
0000
1010
0000
1100
2200
0000
3300
,
0011
0101
0011
0202
,
0000
0303
2002
0000
0000
3003
1010
0000
,
2020
0000
3030
0110
,
1100
0000
0110
0000
0011
0022
0000
0033
,
0101
1001
0101
2002
,
0000
3003
0220
0000
0000
0330
2020
0000
,
0000
3030
1010
1100
,
1010
0000
1100
0000
1001
2002
0000
3003
,
0101
0011
0101
2200
,
0000
3300
0220
0000
0000
0330
1010
0000
,
2020
0000
3030
0101
,
0011
0000
0110
0000
1100
2200
0000
3300
,
1010
1001
0110
0022
,
0000
0033
0202
0000
0000
0303
2020
0000
,
0000
3030
0220
0000
0000
0330
1000
0001
,
1000
0001
1000
0100
1000
0100
1000
0010
,
1000
0010
1000
0001
1000
0001
1000
0100
,
1000
0100
1000
0200
0000
0000
0320
0000
,
1000
0000
0100
0000
1000
0030
2000
0000
,
0100
0000
0001
3000
0200
0000
0001
0000
,
1000
0300
0002
0000
0010
0000
1000
0000
,
0100
0003
2000
0000
0100
0000
0010
0000
,
0001
3000
0020
0000
0100
0000
1000
0030
,
0200
0000
0001
0000
1000
0300
0002
0000
,
0010
0100
1000
0100
,
1000
0003
0020
0000
1000
0000
0100
0000
,
1000
0030
0200
0000
0001
0000
0010
0300
,
2000
0000
0001
0000
0100
3000
0001
0010
,
0100
1000
0100
0010
0001
0010
0200
0000
,
0010
0000
0001
0000
0010
0300
0002
0000
,
0100
0000
1000
0003
0200
0000
1000
0000
,
0001
0300
0020
0000
0100
0000
1000
0000
,
0100
0000
1000
0000
0100
0030
2000
0000
,
0100
0000
0010
0000
0001
3000
0200
0000
,
0001
0000
0010
0300
2000
0000
0010
0000
,
0100
3000
0002
0000
1000
0000
0010
0000
,
0100
0003
2000
0000
0010
0000
0001
0000
,
0100
3000
0020
0000
0100
0000
1000
0030
,
0200
0000
0001
0000
1000
0300
0002
0000
,
0010
0100
0010
1000
,
0100
0003
0020
0000
0100
0000
1000
0000
,
0100
0030
2000
0000
0010
0000
0100
3000
,
0002
0000
1000
0000
0010
0003
1000
0100
,
0010
0001
0010
0100
1000
0000
0110
0000
,
0001
1000
0001
0000
1000
0001
1000
0000
,
0220
0330
0200
0000
,
0000
0302
0023
0230
,
0000
0000
0000
0000
0000
0000
0000
0000
0000
0000
0000
0000
0000
0000
0000
0000
0302
0000
0000
0000
0000
0000
0000
0000
0000
0000
0000
0000
0000
0000
0000
0000
0000
0000
0000
0000
0000
0000
0000
0000
0000
0000
0000
0000
0000
0000
0000
0000
0000
0003
0000
0000
0000
0000
0000
0000
0000
0000
0000
0000
0000
0000
0000
0000
,
0010
1000
0010
1002
0000
0003
2200
0000
,
3300
2020
0000
3030
0220
0330
0022
0033
,
0202
0303
1001
2002
0000
3003
2200
0000
,
3300
1010
1010
2020
3030
0011
0022
0033
,
0202
0303
1001
2002
0000
3003
2200
0000
,
3300
0220
0000
0330
0022
0033
0202
0303
,
1001
2002
0000
0000
3003
0022
0033
2200
,
3300
0000
0000
0000
0000
0000
0000
0000
2020
0000
0000
0000
0000
0000
0000
0000
3030
0000
0000
0000
0000
0000
0000
0000
0202
0000
0000
0000
0000
0000
0000
0000
0000
0000
0000
0000
0000
0000
0000
0000
0000
0000
0000
0000
0000
0000
0000
0000
0000
0303
0000
0000
0000
0000
0000
0000
0000
0000
0000
0000
0000
0000
0000
0000
,
1001
0000
1100
0000
1001
0000
1010
2020
,
0000
3030
0101
0000
0011
0000
0101
0000
,
2002
0000
0000
3003
0220
0000
0000
0330
,
1100
0000
2020
0000
0000
3030
0000
0000
,
0011
0000
0101
0000
1001
0000
1100
2200
,
0000
3300
0110
0000
0011
0000
0101
0000
,
2002
0000
0000
3003
2020
0000
0000
3030
,
2200
0000
3300
0110
,
1100
0000
0110
0000
1100
0000
0011
0022
,
0000
0033
0101
0000
1001
0000
0110
0000
,
2200
0000
0000
3300
2020
0000
0000
3030
,
0011
0202
0000
0303
,
1001
0000
1010
0000
1001
0000
0110
0220
,
0000
0330
0011
0000
0101
0000
0011
0000
,
2200
0000
0000
3300
2020
0000
0000
3030
,
0220
0000
0000
0000
0000
0000
0330
0000
1000
0001
1000
0001
0000
0000
0000
0000
,
1001
0000
1100
0000
1001
0000
1010
2020
,
0000
3030
0110
0000
0101
0000
0110
0000
,
0022
0000
0000
0033
2002
0000
0000
3003
,
1010
2200
0000
3300
,
0011
0000
1100
0000
0011
0000
1001
2002
,
0000
3003
0101
0000
1010
0000
0101
0000
,
2020
0000
0000
3030
2200
0000
0000
3300
,
0220
0000
0330
1001
,
0110
0000
1001
0000
0110
0000
1010
2020
,
0000
3030
1100
0000
0101
0000
1100
0000
,
0202
0000
0000
0303
0022
0000
0000
0033
,
0110
2002
0000
3003
,
1100
0000
0011
0000
1100
0000
0110
0220
,
0000
0330
0101
0000
1001
0000
0101
0000
,
0022
0000
0000
0033
0220
0000
0000
0330
,
2002
0000
0000
3003
2200
0000
0000
3300
,
2020
0000
0000
0000
,
0000
0000
0000
0000
,
0000
0000
0000
0000
0000
0000
0000
3030
,
0000
0000
0000
0000
2200
0000
0000
3300
,
2002
0000
0000
0000
0000
3003
0220
0000
,
0000
0000
0000
0000
,
0000
0000
0000
0000
0000
0000
0000
0330
,
0000
0000
0000
0000
,
2000
0000
0100
0000
0001
3000
0200
0000
,
0001
0300
0020
0000
1000
0000
0100
0030
,
2000
0000
0001
0000
0010
3000
0002
0000
,
0100
0003
1000
0000
2020
0000
0000
3030
,
0202
0000
0000
0000
0000
0303
2002
0000
,
0000
0000
0000
0000
,
0000
0000
0000
0000
,
0000
0000
0000
0000
,
0000
0000
0000
3003
0000
0000
0000
0000
,
1000
0010
1000
0010
1000
0100
1000
0100
,
1000
0001
1000
0001
0000
0000
0000
0000
;
