#TITLE:Digimon Adventure;
#SUBTITLE:- Butterfly;
#ARTIST:Wada Kouji;
#TITLETRANSLIT:;
#SUBTITLETRANSLIT:;
#ARTISTTRANSLIT:;
#CREDIT:;
#BANNER:Butterfly.JPG;
#BACKGROUND:Butterfly-bg.JPG;
#LYRICSPATH:;
#CDTITLE:;
#MUSIC:Digimon -Japanese opening.mp3;
#OFFSET:0.057;
#SAMPLESTART:56.137;
#SAMPLELENGTH:12.000;
#SELECTABLE:YES;
#BPMS:0.000=164.880;
#STOPS:;
#BGCHANGES:;
// cache tags:
#FIRSTBEAT:4.000;
#LASTBEAT:257.500;
#SONGFILENAME:Songs/Anime Songs/Butterfly/Butterfly.sm;
#HASMUSIC:1;
#HASBANNER:1;
#MUSICLENGTH:96.084;
// end cache tags

//---------------dance-single - Challenge----------------
#NOTES:
     dance-single:
     Challenge:
     Challenge:
     8:
     0.616,0.569,0.239,0.156,0.010,376.000,23.000,15.000,0.000,0.000:

0000
0000
0000
0000
,
0100
0100
0000
0000
0001
0001
0000
0100
,
0001
0000
0100
0001
0000
0020
0000
0030
,
0100
0100
0000
0000
1000
0010
0000
1000
,
0010
0000
1000
0010
0000
0001
0100
0001
,
0100
0001
0000
0100
0001
0000
0100
0001
,
0010
0001
0100
0000
0001
0100
0000
0100
,
1000
0000
0100
1000
0000
0010
1000
0010
,
1000
0010
1000
0010
0000
0001
0000
0100
,
0001
0000
0100
0001
0000
0100
0001
0100
,
0001
0100
0001
0100
0000
0100
0000
0100
,
1000
0000
0100
1000
0000
1000
0010
1000
,
0010
1000
0010
1000
0000
0001
0100
0001
,
0100
0001
0100
0001
1000
0001
1000
0001
,
1000
0001
0010
0001
0010
0010
1000
0010
,
1000
0010
0100
0010
0100
0010
0010
0100
,
0100
0010
0010
0100
0100
0001
0001
1000
,
1000
0001
0001
0100
0001
0000
0100
0001
,
1000
0000
1000
0100
0100
1000
0000
0010
,
0100
0010
0000
1000
0010
1000
0010
1000
,
0010
1010
0000
1010
0000
0001
0001
0100
,
0100
1000
0100
0001
0100
1000
1000
1000
,
0010
0010
0010
0001
0000
0010
1000
0010
,
0001
0010
1000
0010
1000
0010
0010
1000
,
1000
0010
0001
0010
1000
0100
0002
0000
,
0000
0003
0000
0000
0001
0000
0100
0000
0001
0000
0000
0000
0100
0000
0001
0000
,
0100
0000
1000
0010
0000
1010
1000
0010
,
1000
0010
0000
0100
0001
0001
0100
0001
,
0000
0100
0100
0100
0000
0101
0000
0100
,
0000
0100
1000
0000
2020
0000
0000
0000
,
0000
3030
0100
0001
0100
0001
1000
0000
,
0001
0100
0001
0000
0200
0000
0000
0300
,
0000
0000
0100
1000
0010
1000
0000
1001
,
0000
1000
0100
0000
2000
0000
0000
0000
,
0000
3000
0000
0000
0000
0000
1000
0000
0100
0000
0001
0000
0000
0000
0001
0000
,
0101
0000
0100
1000
1100
0000
0010
0010
,
1000
0010
0001
0010
1000
0010
0000
1000
,
0010
0000
1000
0000
0010
0000
1000
0000
0010
0000
1000
0000
0000
0010
1000
0000
,
0000
0010
1000
0000
0020
0000
0000
0000
0030
0000
1000
0000
0000
0000
0100
0000
,
0000
0002
0000
0103
0000
0001
0000
0100
,
0101
0000
0001
0100
1000
0000
1000
0100
,
0001
0010
1000
0010
0010
1010
0000
0010
,
1000
0000
0010
0100
0002
0000
0000
0003
,
0100
0000
0001
0100
1000
0000
0100
1000
,
0100
0000
0100
0001
0100
0001
0100
0001
,
0100
0001
0000
0001
0100
0000
0001
0100
,
0000
0001
0100
0001
0100
0001
0000
1000
,
0010
0000
1000
0010
0000
1010
0000
0010
,
0100
0000
0010
0100
0002
0000
0000
0000
,
0000
0003
0000
0000
0000
0000
0001
0000
0100
0000
0010
0000
0100
0000
1000
0000
,
0010
1100
1000
0010
2000
0000
0000
3010
,
0000
0000
1000
0010
0101
0000
0000
0001
,
0202
0000
0000
0000
0000
0300
0003
0000
0000
0000
1001
0000
0000
0000
0001
0000
,
1000
0001
1000
0001
1000
1001
0000
0010
,
0100
0010
0100
0010
0100
0110
0000
0001
,
0100
1000
0100
0001
1000
0020
0000
0000
,
1000
0030
0000
0100
0001
0200
0000
0300
,
0001
0100
1000
0010
0000
1000
0000
0100
,
1100
0000
0100
0001
0100
0101
0000
0001
,
0100
0001
0100
1000
0000
1100
0000
0010
,
1010
0000
0010
0100
0010
0100
0000
0101
,
0001
0100
0001
0100
0001
0100
0001
0100
,
0001
0000
1000
1000
0000
1000
1100
0100
,
0001
0001
0000
0100
0100
1000
0010
0010
,
1000
0010
1000
0010
0000
0000
0000
0000;
