#TITLE:He4ven;
#SUBTITLE:;
#ARTIST:Unknown artist;
#TITLETRANSLIT:;
#SUBTITLETRANSLIT:;
#ARTISTTRANSLIT:;
#CREDIT:;
#BANNER:../BN.png;
#BACKGROUND:../BG.png;
#LYRICSPATH:;
#CDTITLE:../CDTitleBRAEDEN.png;
#MUSIC:He4ven.ogg;
#OFFSET:-0.140;
#SAMPLESTART:99.840;
#SAMPLELENGTH:12.000;
#SELECTABLE:YES;
#BPMS:0.000=128.000,25.000=256.000,59.000=128.000,84.000=256.000,118.000=128.000,133.000=256.000,147.000=128.000,153.500=256.000,256.000=128.000,272.000=256.000,302.000=128.000,310.000=256.000,430.000=128.000;
#STOPS:122.000=0.234
,154.000=0.117
,305.000=0.234
;
#BGCHANGES:;
// cache tags:
#FIRSTBEAT:1.000;
#LASTBEAT:410.000;
#SONGFILENAME:Songs/Index Gradation/He4ven - [Braeden]/He4ven.sm;
#HASMUSIC:1;
#HASBANNER:1;
#MUSICLENGTH:121.208;
// end cache tags

//---------------dance-single - ----------------
#NOTES:
     dance-single:
     :
     Challenge:
     21:
     1.000,1.000,0.677,0.767,1.000,1077.000,82.000,93.000,0.000,0.000:

0000
0202
0300
0023
,
2030
3002
0000
1003
,
0100
0000
0000
0000
0010
0001
0100
0010
1000
0100
0010
0001
0100
0010
1000
0010
,
1000
0100
0010
0001
0001
1000
0010
0100
0001
1000
0010
0100
0100
0001
0100
0010
,
1000
0000
0000
0100
0000
0000
0010
0000
0000
0001
0000
0000
1000
0000
0100
0000
0010
0000
0001
0000
1000
0000
0010
0000
0100
0000
0001
0000
0010
0000
0001
0000
1000
0000
0010
0000
0100
0000
0001
0000
0010
0000
0001
0000
0100
0000
0010
0000
,
0100
0001
0010
0001
1000
0100
1000
0010
0100
0001
0010
0001
1000
0100
0010
0100
1000
0001
0100
0010
1000
0001
0010
0100
,
1000
0001
0100
0010
1000
0001
1001
0000
0000
1001
0000
0000
0000
0000
0000
0101
0000
0000
0101
0000
0000
0000
0000
0000
,
0110
0110
0000
1010
1010
0000
1000
0000
,
1001
1001
0000
0101
0101
0000
0110
0110
,
0000
0000
1010
0000
0010
0100
0001
0100
0010
1000
0001
0010
0100
0000
0100
0000
,
0011
0100
0100
1001
0010
0010
1001
0100
,
0100
1001
0001
0100
0010
1000
0000
0000
,
2002
0000
0000
0000
3003
0000
0000
0000
0001
0010
0100
1000
0100
0010
0001
1000
,
0010
0100
0010
1000
0100
1000
0001
1000
0100
0010
0001
1000
0010
0100
0010
1000
,
0100
1000
0001
0100
0010
1000
0100
1000
0001
0010
0100
1000
0001
0010
0100
1000
,
0001
0100
0010
1000
0010
0000
0100
0001
0000
0100
0010
0000
1000
0100
0000
1000
,
0010
0000
0100
0000
0001
0000
0000
0000
0000
0000
1001
0000
0000
0000
0000
0000
0000
0000
0000
0000
0000
0000
0000
0000
0000
0000
0000
0000
1000
0001
1000
0001
,
0100
0000
0010
1000
0000
1000
1001
0000
0001
0100
0000
0100
0010
0000
1000
0001
,
0100
0000
0000
0000
0000
0000
0001
0000
1000
0000
0010
0000
0100
0000
0001
0000
1000
0000
0100
0000
0000
1000
0000
0000
0001
0000
0000
0100
0000
0000
0010
0000
0000
1000
0000
0000
1020
0000
0000
0000
0000
0000
0000
0000
0000
0230
0000
0000
,
0000
0000
0302
0000
0000
0000
0013
0100
2000
0000
0000
3010
0000
0000
0100
0000
,
0000
0000
0001
0000
0000
0000
0000
0000
0100
0000
0010
0000
1000
0000
0100
0000
0010
0001
0010
0100
1000
0001
0100
0010
0100
0001
0010
0001
0100
0010
1000
0001
,
0100
0000
0100
0000
0010
0000
0100
0000
0100
0000
0001
1000
0010
0000
0100
0001
,
1000
0000
0010
0100
0001
1000
0001
0000
0000
0000
0000
0000
1001
0000
1000
0001
,
0100
0000
0010
1000
0001
0000
0100
0010
0100
0000
0001
1000
0100
0000
0010
0001
,
0100
0000
0010
0000
1000
0000
0001
0000
0200
0000
0000
0000
0310
0000
1000
0001
,
0200
0310
1000
0100
0010
0100
1000
0001
,
4000
0000
0000
0000
3001
0000
0100
0010
0100
0000
0010
1000
0010
0000
0100
0000
,
0001
0010
0100
1000
0001
0100
0010
1000
0100
0000
1000
0000
0001
0000
0100
0000
,
0001
0000
0010
0000
0100
1000
0001
0100
0010
0000
1000
0000
0010
0100
0010
0000
,
1000
0000
0000
0000
0001
0000
1000
0000
0000
0000
0000
0000
0000
0000
0000
0000
0001
0010
0100
1000
0004
0000
0000
0000
0000
0000
0003
0000
1001
0000
1000
0000
,
0100
0040
0000
0000
0000
0030
0002
0003
1001
0000
1100
0100
0010
0004
0000
0000
,
0003
0000
0000
0000
1000
0010
0100
0001
1000
0010
0100
0001
0010
0001
1000
0100
1000
0001
0010
0100
1000
0001
0100
0010
0100
0001
0010
0001
1000
0010
0100
0001
,
0010
0000
0000
0000
0000
0000
0001
0000
0000
0000
0000
0000
1000
0000
0000
0000
0000
0000
0010
0000
0000
0000
0000
0000
0100
0000
0000
0000
0000
0000
0001
0000
0000
0000
0000
0000
0010
0000
0000
0000
0000
0000
0001
0000
0000
0000
0000
0000
1000
0000
0000
0000
0000
0000
0100
0000
0000
0000
0000
0000
0010
0000
0000
0000
0000
0000
0100
0000
0000
0000
0000
0000
1000
0000
0000
0000
0000
0000
0001
0000
0000
0000
0000
0000
0100
0000
0000
0000
0000
0000
0010
0000
0000
0000
0000
0000
1000
0000
0000
0000
0000
0000
0001
0000
0000
0000
0000
0000
0010
0000
0000
0000
0000
0000
0100
0000
0000
0000
0000
0000
1000
0000
0000
0000
0000
0000
0000
0000
0010
0000
0000
0000
0000
0000
0000
0000
0100
0000
0000
0000
0000
0000
0000
0000
0001
0000
0000
0000
0000
0000
0000
0000
0000
0000
0000
0000
0100
0000
0000
0000
0000
0000
0000
0000
0000
0000
0000
0000
0010
0000
0000
0000
0000
0000
0000
0000
0100
0000
0000
0000
0000
0000
0000
0000
0001
0000
0000
0000
0000
0000
0000
0000
,
0100
0000
0000
0001
0000
0000
1000
0000
0100
0000
0010
0000
0110
0000
0000
0000
0000
0000
0110
0000
0000
0000
0000
0000
0000
0000
0000
0000
0000
0000
1100
0000
0000
0000
0000
0000
1100
0000
0000
0000
0000
0000
0000
0000
0000
0000
0000
0000
,
1001
1001
0000
0101
0101
0000
1000
0000
,
1001
1001
0000
0101
0101
0000
1010
1010
,
0000
0000
1001
0000
1001
0000
0000
0000
0001
0000
0100
0000
0010
1000
0100
0010
,
0001
0000
1000
0000
0010
0000
0100
0000
0001
0000
1000
0000
0010
0100
0010
0100
0001
0000
1000
0000
0010
0100
0010
0100
0001
0000
1000
0000
0010
0100
0010
0000
,
1000
0000
0001
0010
0100
1000
0001
0100
0010
1000
0100
0010
0001
0000
0000
0000
0101
0000
0000
0000
0110
0000
0000
0000
0110
0000
0000
0000
0000
0000
0000
0000
,
1010
0000
1010
0000
0000
0000
1001
0000
1001
0000
0010
0100
0001
0010
0100
1000
,
0001
1001
0000
1010
1010
0000
0110
0110
,
0000
0000
0000
0101
0000
0000
0001
0000
0010
0000
0100
0000
1000
0000
0001
0000
0100
0000
0010
0000
1000
0000
0100
0000
,
0022
0000
0033
0220
0000
0330
2002
0000
,
3003
0000
0000
0000
0000
0000
1000
0000
0100
0000
0010
0000
0001
0000
0000
0010
0000
0000
0100
0000
0000
1000
0000
0000
,
2002
0000
0000
0000
3003
0000
0220
0000
0000
0000
0330
0000
0001
0010
0100
1000
,
0001
0100
0010
1000
0100
0010
0001
1000
0020
0000
0000
0000
0000
0000
0200
0000
,
0000
0330
2000
0000
,
3020
0130
0002
0103
,
0101
0101
0000
0110
0110
0000
1010
1010
,
0000
0000
0110
0000
0110
0000
0000
0000
0100
0001
0100
0010
1000
0100
0010
0100
,
2000
3010
0100
0001
0100
0001
0001
0010
,
0100
1000
0200
0310
0002
0103
0020
1030
,
0002
1003
0001
0100
1000
0100
0001
0100
,
0010
0000
1000
0000
0200
0300
0020
0030
0200
0300
2000
3000
0002
0003
0200
0300
,
0010
0000
1000
0000
0100
0000
0010
0000
0002
0003
0200
0300
0020
0030
2000
3000
,
0001
0100
0010
1000
0100
0010
0001
0100
,
1001
0000
0010
0110
0000
1000
1001
0000
,
0001
1000
0001
0000
1000
0010
1000
0000
0001
0000
0100
0000
0010
0000
1000
0000
,
0000
0000
1001
0001
0100
0010
1000
0100
,
0010
0001
0200
0310
2000
3100
0020
0031
,
0200
0000
0310
0000
2000
3000
0200
0300
0020
0030
0200
0300
2000
3000
0020
0030
,
0100
0001
0100
1000
0100
0001
0100
0010
,
1000
0100
0001
0100
1000
0010
0001
0010
,
0000
1000
0100
0000
0010
0000
0000
0001
,
1000
0010
0100
0001
0010
0001
1000
0100
0010
0100
1000
0001
0100
0010
0100
0001
0010
0001
1000
0100
0010
0100
1000
0001
,
0010
0100
1000
0001
0100
0010
0100
0001
0010
0001
1000
0100
0010
0100
1000
0001
0010
0100
1000
0001
0100
0010
0100
0001
,
0100
0010
1000
0001
0010
0100
1000
0001
0100
0010
0100
0001
0010
0001
1000
0100
0010
0100
1000
0001
0010
0100
1000
0001
0100
0010
0100
0001
0010
0001
1000
0100
,
0010
0100
1000
0001
0010
0100
1000
0001
0100
0010
0100
0001
0010
0001
1000
0001
0010
0000
0000
0000
0000
0000
0000
0000
0001
0010
0100
1000
0001
0100
0010
1000
,
0100
0100
0000
0010
0010
0000
0001
0001
,
0000
1000
1000
0000
0001
0100
0010
1000
,
0010
0010
0000
0100
0100
0000
0001
0001
,
0000
0100
0100
0000
0010
1000
0001
0100
,
1000
0010
0010
0100
0001
0001
0100
0010
,
0010
1000
0100
0100
0010
0001
0100
0010
,
1000
0010
0100
0001
0100
0010
1000
0001
0010
0100
1000
0001
0100
0010
0100
0001
,
0010
0001
1000
0010
0100
0001
0100
0001
1000
0000
0000
0000
0001
0000
0000
0000
,
0100
0000
0000
0000
0000
0000
0000
0000
0010
0000
0000
0000
1000
0000
0000
0000
0100
0010
0001
0010
0100
0000
1000
0000
0010
0000
0100
0000
0001
0010
0100
1000
,
0001
0100
0010
1000
0100
1000
0001
0100
0010
1000
0001
0010
0100
0000
0000
0000
1000
0000
0001
0000
0100
0000
0010
0000
1000
0000
0010
0000
0100
0000
0001
0000
,
0010
0001
1000
0100
0010
0100
1000
0001
0100
0010
0100
0001
0010
0001
1000
0010
,
0100
0001
0100
0000
0001
1000
0001
1000
0001
0000
0100
0010
0100
0001
0100
0010
,
1000
0000
0000
0001
0000
0000
0010
0000
0000
0100
0000
0000
1000
0000
0000
0000
0010
0000
0000
0000
0100
0000
0000
0000
0001
0000
0000
0100
0000
0000
0010
0000
0000
1000
0000
0000
0001
0000
0000
0010
0000
0000
0100
0000
0000
1000
0000
0000
,
0001
0100
0010
1000
1001
0000
0010
0100
0010
0000
0110
0000
1000
0001
1000
0000
,
1000
0010
0100
0001
0100
0010
1000
0100
0010
0100
1000
0001
0010
0100
1000
0001
,
0100
0010
1000
0001
0100
0000
0010
0000
1000
0000
0100
0000
0020
0000
0032
0000
,
0203
0000
0320
0000
1030
0100
0010
0001
0010
0100
1000
0001
0100
0010
1000
0001
,
0010
0100
1000
0001
0020
0000
0000
0000
0031
0100
0010
1000
0002
0000
0203
0000
,
0320
0000
2030
0000
3010
0100
0001
1000
0100
0010
0100
1000
0001
0010
0100
1000
,
0001
0100
0020
2030
3200
0320
0230
2300
,
3002
0000
0203
0000
0300
0000
0020
0000
2030
0000
3200
0000
0310
0000
0001
0010
,
0100
1000
0200
0000
0320
0000
0032
0000
0203
0000
0320
0000
2030
0000
3100
0010
,
0100
1000
0001
0000
0000
0000
0200
0000
0320
0000
2030
0000
3001
0100
0010
1000
,
0001
0010
0100
1000
0002
0000
0203
0000
0320
0000
2030
0000
3200
0000
0320
0000
,
0230
2300
3001
0010
0010
0000
0200
0000
,
0000
0310
1000
0001
0100
0010
1000
0000
,
0000
0010
0100
0001
0200
0310
0000
1000
,
0001
0100
0010
0010
0000
1000
0001
0100
,
0010
1000
0000
0100
0010
0100
1000
0001
,
0000
0100
0010
1000
0100
0010
0000
0001
,
0100
0000
0010
0000
1000
0000
0001
0000
0000
0000
1000
0000
0100
0000
0010
0001
,
0100
0010
1000
0100
1100
0000
0000
0000
0110
0000
0000
0000
0011
0000
0000
0000
,
1001
0000
1000
0100
1000
0100
0010
0001
,
0010
0001
1000
0010
0100
0001
0100
0010
,
1000
0100
0000
0000
1001
0000
0000
0000
;
