#TITLE:Slash Dot Slash (Slim Boy Fat);
#SUBTITLE:EXoduz Violation II;
#ARTIST:Round Wave Crusher;
#TITLETRANSLIT:;
#SUBTITLETRANSLIT:;
#ARTISTTRANSLIT:;
#CREDIT:;
#BANNER:../Banner.png;
#BACKGROUND:../Background.png;
#LYRICSPATH:;
#CDTITLE:;
#MUSIC:music.ogg;
#OFFSET:-0.669;
#SAMPLESTART:94.853;
#SAMPLELENGTH:11.940;
#SELECTABLE:YES;
#DISPLAYBPM:220.000;
#BPMS:0.000=220.000,716.000=218.000,723.000=220.000,1088.000=218.000,1090.000=223.000,1092.000=220.000;
#STOPS:;
#BGCHANGES:;
// cache tags:
#FIRSTBEAT:4.000;
#LASTBEAT:1232.000;
#SONGFILENAME:Songs/EXoduz Violation II/Slash Dot Slash - [Ov3rHell3XoduZ]/sm.sm;
#HASMUSIC:1;
#HASBANNER:1;
#MUSICLENGTH:339.562;
// end cache tags

//---------------dance-single - ----------------
#NOTES:
     dance-single:
     :
     Beginner:
     15:
     1.000,1.000,0.035,1.000,1.000,2712.000,12.000,462.000,27.000,1.000:
0000
0000
0000
0000
,
2000
3020
0000
0230
,
0000
0302
0000
2003
,
0000
3200
0000
0320
,
0031
1000
0010
1000
0100
0010
0001
1000
,
0002
0203
0000
0320
,
0000
2030
0000
3200
,
0000
0320
0000
0032
,
0000
0000
2003
0000
0000
0000
3100
0010
,
0001
1000
0100
1000
0010
0000
0000
0000
0100
0001
0010
0100
1000
0000
0000
0000
,
0001
0100
0001
0100
0010
0000
0000
0000
1000
0100
1000
0100
0010
0000
0000
0000
,
0001
1000
0001
1000
0100
0000
0000
0000
1000
0010
1000
0010
0100
0000
0000
0000
,
0001
0010
0001
0010
0100
0000
0000
0000
0000
2000
0000
0000
0000
0000
0000
0000
,
3001
0010
0100
1000
0001
0000
0000
0000
1000
0010
1000
0100
0010
0000
0000
0000
,
0001
0100
0001
0010
0100
0000
0000
0000
1000
0001
1000
0100
1000
0000
0000
0000
,
0010
0100
0010
0100
0010
0000
0000
0000
0100
0001
0100
0001
0010
0000
0000
0000
,
0100
1000
0001
1000
0100
0000
0000
0000
0000
0020
0000
0000
0000
0000
0000
0000
,
0031
1000
0010
0100
0001
0000
0000
0000
0010
0100
1000
0100
1000
0000
0000
0000
,
0010
0100
0001
0100
0001
0000
0000
0000
0010
0100
1000
0001
1000
0000
0000
0000
,
0010
1000
0100
1000
0010
0000
0000
0000
0100
0001
1000
0001
1000
0000
0000
0000
,
0100
0010
0001
0010
0001
0000
0000
0000
0000
2000
0000
0000
0000
0000
0000
0000
,
3010
0100
0001
1000
0001
0000
0000
0000
1000
0100
1000
0100
1000
0000
0000
0000
,
0010
0100
0001
0100
0001
0000
0000
0000
0010
0100
1000
0001
1000
0000
0000
0000
,
0001
1000
0001
0100
0001
0000
0000
0000
0010
0100
1000
0100
1000
0000
0000
0000
,
1000
0010
0100
0001
0100
0000
0000
0000
0000
0020
0000
0000
0000
0000
0000
0000
,
1030
0100
1000
0100
1000
0000
0000
0000
0010
0100
0001
1000
0100
0000
0000
0000
,
0010
1000
0001
0010
0100
0000
0000
0000
1000
0001
0100
0001
1000
0000
0000
0000
,
0010
1000
0100
0010
0001
0000
0000
0000
1000
0100
1000
0100
1000
0000
0000
0000
,
0001
0100
0001
0010
0100
0000
0000
0000
0000
2000
0000
0000
0000
0000
0000
0000
,
3020
0230
0302
2003
3200
2300
3020
0230
,
0302
0023
0230
2300
3002
0203
0302
2003
,
3100
0010
0001
1000
0001
0100
0001
0010
0100
1000
0001
1000
,
0100
0100
0010
0010
0002
0000
2003
0000
,
3020
0230
0302
2003
,
3200
0000
0320
0000
0031
0001
1000
1000
,
0020
0230
0302
2003
,
3200
0000
0000
0000
2300
0000
0000
0000
3020
0000
0000
0000
0000
0000
0130
0001
,
2000
3200
2300
3020
,
0230
0320
2030
3200
,
0320
0032
2003
3002
,
0203
0320
2030
3200
0320
0032
2003
3020
,
0130
0001
0100
0001
0010
0100
1000
0100
2000
0000
0000
0000
3002
0000
0000
0000
,
1003
0100
1000
0100
0010
0001
1000
0010
2000
0000
0000
0000
3002
0000
0000
0000
,
1003
0100
0010
0001
0010
0001
1000
0010
2000
0000
0000
0000
3200
0000
0000
0000
,
0310
0001
0010
0001
1000
0010
1000
0010
0200
0000
0000
0000
0302
0000
0000
0000
,
0013
0100
1000
0100
1000
0010
0100
0010
2000
0000
0000
0000
3200
0000
0000
0000
,
0310
0001
1000
0001
0010
0001
1000
0001
0020
0000
0000
0000
0230
0000
0000
0000
,
1300
0001
0100
0001
1000
0100
1000
0010
2000
0000
0000
0000
3200
0000
0000
0000
,
0320
0000
0000
0000
0030
0000
0000
0000
0011
0000
0000
0000
0001
1000
0100
1000
,
0010
0000
0000
0100
0000
0000
0010
0000
0000
0100
0000
0000
0001
0000
0000
0000
0010
0000
0000
0000
0100
0000
0000
0000
1000
0000
0000
0010
0000
0000
1000
0000
0000
0100
0000
0000
0010
0000
0000
0000
0001
0000
0000
0000
1000
0000
0000
0000
,
0001
0000
0000
0100
0000
0000
0010
0000
0000
1000
0000
0000
0100
0000
0000
0000
0010
0000
0000
0000
0001
0000
0000
0000
1000
0000
0000
0100
0000
0000
1000
0000
0000
0100
0000
0000
1000
0000
0000
0000
0010
0000
0000
0000
0100
0000
0000
0000
,
0001
0000
0000
1000
0000
0000
0100
0000
0000
1000
0000
0000
0010
0000
0000
0000
0100
0000
0000
0000
0001
0000
0000
0000
1000
0000
0000
0001
0000
0000
0010
0000
0000
0001
0000
0000
0010
0000
0000
0000
0100
0000
0000
0000
1000
0000
0000
0000
,
0001
0000
0000
0100
0000
0000
0001
0000
0000
0100
0000
0000
0001
0000
0000
0000
0010
0000
0000
0000
0100
0000
0000
0000
1000
0000
0000
0000
0000
0000
0001
0000
0000
0000
0000
0000
1000
0000
0000
0000
0000
0000
0100
0000
0000
0000
0000
0000
,
0010
0000
0000
0001
0000
0000
1000
0000
0000
0100
0000
0000
1000
0000
0000
0000
0010
0000
0000
0000
0100
0000
0000
0000
0001
0000
0000
1000
0000
0000
0100
0000
0000
1000
0000
0000
0100
0000
0000
0000
0010
0000
0000
0000
0001
0000
0000
0000
,
1000
0000
0000
0010
0000
0000
1000
0000
0000
0010
0000
0000
1000
0000
0000
0000
0100
0000
0000
0000
0010
0000
0000
0000
0001
0000
0000
1000
0000
0000
0100
0000
0000
1000
0000
0000
0010
0000
0000
0000
0100
0000
0000
0000
0001
0000
0000
0000
,
1000
0000
0000
0100
0000
0000
0010
0000
0000
0100
0000
0000
0010
0000
0000
0000
0001
0000
0000
0000
1000
0000
0000
0000
0001
0000
0000
1000
0000
0000
0010
0000
0000
1000
0000
0000
0100
0000
0000
0000
0010
0000
0000
0000
0001
0000
0000
0000
,
1000
0000
0000
0010
0000
0000
0100
0000
0000
0001
0000
0000
1000
0000
0000
0000
0100
0000
0000
0000
0010
0000
0000
0000
0002
0000
0000
0000
0000
0000
2003
0000
0000
0000
0000
0000
3200
0000
0000
0000
0000
0000
2300
0000
0000
0000
0000
0000
,
3010
0000
0000
0100
0000
0000
0001
0000
0000
1000
0000
0000
0100
0000
0000
0000
0010
0000
0000
0000
0001
0000
0000
0000
1000
0000
0000
0100
0000
0000
1000
0000
0000
0100
0000
0000
1000
0000
0000
0000
0010
0000
0000
0000
0100
0000
0000
0000
,
0001
0000
0000
1000
0000
0000
0100
0000
0000
1000
0000
0000
0100
0000
0000
0000
0010
0000
0000
0000
0001
0000
0000
0000
1000
0000
0000
0010
0000
0000
1000
0000
0000
0010
0000
0000
1000
0000
0000
0000
0100
0000
0000
0000
0010
0000
0000
0000
,
0001
0000
0000
0100
0000
0000
0001
0000
0000
0100
0000
0000
0001
0000
0000
0000
0010
0000
0000
0000
0100
0000
0000
0000
1000
0000
0000
0001
0000
0000
1000
0000
0000
0001
0000
0000
1000
0000
0000
0000
0010
0000
0000
0000
1000
0000
0000
0000
,
0100
0000
0000
0010
0000
0000
0100
0000
0000
0010
0000
0000
0100
0000
0000
0000
0010
0000
0000
0000
0001
0000
0000
0000
1000
0000
0000
0100
0000
0000
0010
0000
0000
0001
0000
0000
2000
0000
0000
0000
0000
0000
0000
0000
0000
0000
0000
0000
,
3010
0100
0001
0100
0001
1000
0100
1000
0100
0010
0001
0010
0001
1000
0010
1000
,
0010
0100
0001
0100
0001
0010
0001
0010
0100
1000
0100
1000
0001
1000
0001
1000
,
0020
0230
0302
2003
3200
2300
3020
0230
,
0302
0023
0230
0000
,
1300
0000
0000
0001
0000
0000
0100
0000
0000
0001
0000
0000
1000
0000
0000
0000
0100
0000
0000
0000
0010
0000
0000
0000
0001
0000
0000
1000
0000
0000
0010
0000
0000
1000
0000
0000
0100
0000
0000
0000
0010
0000
0000
0000
0001
0000
0000
0000
,
0010
0000
0000
0100
0000
0000
1000
0000
0000
0100
0000
0000
1000
0000
0000
0000
0010
0000
0000
0000
0100
0000
0000
0000
0001
0000
0000
1000
0000
0000
0100
0000
0000
1000
0000
0000
0010
0000
0000
0000
0100
0000
0000
0000
0001
0000
0000
0000
,
1000
0000
0000
0100
0000
0000
0010
0000
0000
0001
0000
0000
0010
0000
0000
0000
0100
0000
0000
0000
1000
0000
0000
0000
0001
0000
0000
1000
0000
0000
0010
0000
0000
1000
0000
0000
0010
0000
0000
0000
0100
0000
0000
0000
0001
0000
0000
0000
,
1000
0000
0000
0100
0000
0000
0010
0000
0000
0100
0000
0000
0010
0000
0000
0000
0001
0000
0000
0000
1000
0000
0000
0000
0100
0000
0000
0000
0000
0000
1000
0000
0000
0000
0000
0000
1000
0000
0000
0000
0000
0000
0010
0000
0000
0000
0000
0000
,
0010
0000
0000
0100
0000
0000
0001
0000
0000
1000
0000
0000
0100
0000
0000
0000
0010
0000
0000
0000
0001
0000
0000
0000
1000
0000
0000
0010
0000
0000
1000
0000
0000
0010
0000
0000
1000
0000
0000
0000
0100
0000
0000
0000
0010
0000
0000
0000
,
0001
0000
0000
1000
0000
0000
0100
0000
0000
1000
0000
0000
0010
0000
0000
0000
0100
0000
0000
0000
0001
0000
0000
0000
1000
0000
0000
0100
0000
0000
0010
0000
0000
0001
0000
0000
0010
0000
0000
0000
0100
0000
0000
0000
1000
0000
0000
0000
,
0001
0000
0000
1000
0000
0000
0010
0000
0000
1000
0000
0000
0010
0000
0000
0000
0100
0000
0000
0000
0001
0000
0000
0000
1000
0000
0000
0100
0000
0000
0010
0000
0000
0100
0000
0000
0010
0000
0000
0000
0001
0000
0000
0000
1000
0000
0000
0000
,
0100
0010
0001
1000
0010
0000
0100
0000
0002
0000
2003
0000
3200
0000
2300
0000
,
3001
0000
0000
0100
0000
0000
0001
0000
0000
0100
0000
0000
0010
0000
0000
0000
1000
0000
0000
0000
0100
0000
0000
0000
0010
0000
0000
0001
0000
0000
1000
0000
0000
0001
0000
0000
1000
0000
0000
0000
0100
0000
0000
0000
0010
0000
0000
0000
,
0001
0000
0000
1000
0000
0000
0010
0000
0000
1000
0000
0000
0010
0000
0000
0000
0100
0000
0000
0000
0001
0000
0000
0000
1000
0000
0000
0100
0000
0000
0010
0000
0000
0001
0000
0000
1000
0000
0000
0000
0010
0000
0000
0000
1000
0000
0000
0000
,
0010
0000
0000
0100
0000
0000
0001
0000
0000
1000
0000
0000
0100
0000
0000
0000
0010
0000
0000
0000
0001
0000
0000
0000
0010
0000
0000
0100
0000
0000
1000
0000
0000
0001
0000
0000
1000
0000
0000
0000
0010
0000
0000
0000
0100
0000
0000
0000
,
0001
0000
0000
1000
0000
0000
0100
0000
0000
1000
0000
0000
0100
0000
0000
0000
0010
0000
0000
0000
0001
0000
0000
0000
1000
0000
0000
0010
0000
0000
0100
0000
0000
0001
0000
0000
0400
0000
0000
0000
0000
0000
0000
0000
0000
0000
0000
0000
,
0310
1000
0010
1000
0100
0010
0001
0010
0001
1000
0010
0100
0001
1000
0001
1000
,
0100
1000
0010
1000
0100
0010
0001
1000
0001
0100
0001
1000
0001
1000
0010
1000
,
0100
0010
0000
0000
0001
0100
0000
0000
0010
1000
0000
0000
0100
0010
0000
0000
,
0002
2003
3200
2300
3001
0100
0010
1000
,
0200
0320
0032
2003
,
3000
MMMM
0000
0000
0000
0000
0000
MMMM
,
0020
0230
0302
2003
,
3200
0300
0200
0300
0200
0300
0200
0300
,
0020
0032
2003
3020
,
0030
MMMM
0000
0000
0000
0000
0000
MMMM
,
0200
0302
2003
3200
,
0310
0001
1000
0001
0100
0001
0010
0100
1000
0010
0100
0001
,
2000
3200
0320
0032
,
2003
3020
0230
0302
,
2003
3200
2300
3002
,
0203
0302
2003
3200
,
0320
0032
2003
3200
2300
3020
0230
0302
,
2003
3200
2300
3020
0230
0302
0023
0230
,
1300
0001
0100
0001
0010
0100
1000
0001
1000
0100
1000
0010
1000
0100
0010
0001
,
1000
1000
0100
0100
0020
0000
0032
0000
,
1003
0000
0000
0100
0000
0000
0010
0000
0000
0001
0000
0000
1000
0000
0000
0000
0010
0000
0000
0000
1000
0000
0000
0000
0010
0000
0000
0100
0000
0000
0001
0000
0000
1000
0000
0000
0100
0000
0000
0000
0010
0000
0000
0000
0001
0000
0000
0000
,
0010
0000
0000
0100
0000
0000
1000
0000
0000
0100
0000
0000
1000
0000
0000
0000
0001
0000
0000
0000
0100
0000
0000
0000
0001
0000
0000
0010
0000
0000
0100
0000
0000
1000
0000
0000
0001
0000
0000
0000
1000
0000
0000
0000
0010
0000
0000
0000
,
1000
0000
0000
0100
0000
0000
0010
0000
0000
0001
0000
0000
0100
0000
0000
0000
0010
0000
0000
0000
1000
0000
0000
0000
0100
0000
0000
0010
0000
0000
0001
0000
0000
0010
0000
0000
0001
0000
0000
0000
1000
0000
0000
0000
0010
0000
0000
0000
,
0100
0000
0000
0001
0000
0000
0010
0000
0000
0001
0000
0000
0010
0000
0000
0000
0100
0000
0000
0000
1000
0000
0000
0000
0001
0000
0000
0000
0000
0000
0001
0000
0000
0000
0000
0000
1000
0000
0000
0000
0000
0000
1000
0000
0000
0000
0000
0000
,
0010
0000
0000
0100
0000
0000
0001
0000
0000
1000
0000
0000
0001
0000
0000
0000
0010
0000
0000
0000
0100
0000
0000
0000
1000
0000
0000
0001
0000
0000
0100
0000
0000
0001
0000
0000
0100
0000
0000
0000
0010
0000
0000
0000
1000
0000
0000
0000
,
0100
0000
0000
0010
0000
0000
0001
0000
0000
0010
0000
0000
0001
0000
0000
0000
1000
0000
0000
0000
0010
0000
0000
0000
0100
0000
0000
0001
0000
0000
1000
0000
0000
0001
0000
0000
1000
0000
0000
0000
0100
0000
0000
0000
0010
0000
0000
0000
,
0001
0000
0000
1000
0000
0000
0010
0000
0000
1000
0000
0000
0010
0000
0000
0000
0100
0000
0000
0000
0001
0000
0000
0000
1000
0000
0000
0100
0000
0000
0010
0000
0000
0100
0000
0000
0010
0000
0000
0000
0001
0000
0000
0000
1000
0000
0000
0000
,
0200
0320
0032
0000
,
1003
0000
0000
0010
0000
0000
0100
0000
0000
0001
0000
0000
1000
0000
0000
0000
0100
0000
0000
0000
0010
0000
0000
0000
0100
0000
0000
1000
0000
0000
0001
0000
0000
1000
0000
0000
0100
0000
0000
0000
1000
0000
0000
0000
0010
0000
0000
0000
,
0100
0000
0000
0001
0000
0000
0010
0000
0000
0001
0000
0000
0010
0000
0000
0000
0100
0000
0000
0000
1000
0000
0000
0000
0001
0000
0000
1000
0000
0000
0100
0000
0000
1000
0000
0000
0100
0000
0000
0000
0010
0000
0000
0000
0001
0000
0000
0000
,
1000
0000
0000
0010
0000
0000
1000
0000
0000
0010
0000
0000
0100
0000
0000
0000
0001
0000
0000
0000
1000
0000
0000
0000
0100
0000
0000
0010
0000
0000
0001
0000
0000
1000
0000
0000
0001
0000
0000
0000
0010
0000
0000
0000
0100
0000
0000
0000
,
1000
0000
0000
0001
0000
0000
0100
0000
0000
0001
0000
0000
1000
0000
0000
0000
0100
0000
0000
0000
0010
0000
0000
0000
0001
0000
0000
0000
0000
0000
1000
0000
0000
0000
0000
0000
0002
0000
0000
0000
0000
0000
0000
0000
0000
0000
0000
0000
,
0103
0000
0000
0010
0000
0000
1000
0000
0000
0100
0000
0000
0010
0000
0000
0000
0001
0000
0000
0000
1000
0000
0000
0000
0001
0000
0000
0100
0000
0000
0010
0000
0000
1000
0000
0000
0100
0000
0000
0000
0010
0000
0000
0000
0001
0000
0000
0000
,
0010
0000
0000
0100
0000
0000
1000
0000
0000
0001
0000
0000
1000
0000
0000
0000
0010
0000
0000
0000
0100
0000
0000
0000
0001
0000
0000
1000
0000
0000
0100
0000
0000
1000
0000
0000
0100
0000
0000
0000
0010
0000
0000
0000
0001
0000
0000
0000
,
1000
0100
0010
0001
1000
0010
1000
0100
,
0010
0000
0001
0000
1000
0000
0100
0000
0010
0001
0100
0001
0010
0100
1000
0001
,
1000
0100
0010
0001
1000
0001
0100
0001
0100
0010
1000
0100
0010
0001
1000
0001
,
1000
0010
0100
0001
0100
0001
0010
0100
1000
0010
1000
0100
0010
0001
1000
0001
,
0200
0000
0320
0000
,
2030
0000
3200
0000
,
0310
0001
1000
0001
0100
0001
0100
0010
1000
0100
1000
0100
0010
0001
1000
0010
,
1000
0010
0100
0001
1000
0001
1000
0100
0010
0001
1000
0010
0100
0001
1000
0001
,
0010
0000
0000
0000
,
0000
0000
0000
0000
0000
0000
0000
0000
0000
0000
0000
0000
0000
0000
0100
0010
,
1000
0000
0000
0100
0000
0000
0010
0000
0000
0001
0000
0000
1000
0000
0000
0000
0010
0000
0000
0000
0100
0000
0000
0000
0001
0000
0000
1000
0000
0000
0100
0000
0000
1000
0000
0000
0100
0000
0000
0000
0010
0000
0000
0000
0001
0000
0000
0000
,
1000
0000
0000
0010
0000
0000
0100
0000
0000
0001
0000
0000
1000
0000
0000
0000
0100
0000
0000
0000
1000
0000
0000
0000
0100
0000
0000
0010
0000
0000
0001
0000
0000
1000
0000
0000
0010
0000
0000
0000
0100
0000
0000
0000
0001
0000
0000
0000
,
2000
0000
0000
3200
0000
0320
0000
0000
,
0031
1000
0001
1000
0001
1000
0002
0003
,
0001
0000
0000
1000
0000
0000
0100
0000
0000
0010
0000
0000
0001
0000
0000
0000
1000
0000
0000
0000
0010
0000
0000
0000
1000
0000
0000
0100
0000
0000
0010
0000
0000
0001
0000
0000
1000
0000
0000
0000
0100
0000
0000
0000
1000
0000
0000
0000
,
0010
0000
0000
0100
0000
0000
0001
0000
0000
1000
0000
0000
0001
0000
0000
0000
0010
0000
0000
0000
0100
0000
0000
0000
1000
0000
0000
0010
0000
0000
0100
0000
0000
0001
0000
0000
1000
0000
0000
0100
0000
0000
0010
0000
0000
0001
0000
0000
,
1000
0000
0000
0010
0000
0000
0100
0000
0000
0001
0000
0000
1000
0000
0000
0000
0100
0000
0000
0000
0010
0000
0000
0000
0001
0000
0000
1000
0000
0000
0010
0000
0000
1000
0000
0000
0100
0000
0000
0000
0010
0000
0000
0000
0001
0000
0000
0000
,
1000
0010
0100
0000
0001
0010
0100
0000
1000
0010
0100
0000
0001
0010
0100
0000
,
1000
0001
0100
0001
0010
0100
1000
0010
1000
0100
1000
0001
,
0100
0001
0010
0100
1000
0010
0100
0001
0010
0100
1000
0001
,
0100
0001
1000
0100
0010
0001
1000
0010
1000
0100
0010
0001
,
2000
0000
0000
0000
0000
0000
0000
0000
0000
0000
0000
0000
3010
0000
0000
0100
0000
0000
0001
0000
0000
1000
0000
0000
0100
0000
0000
0000
0010
0000
0000
0000
0001
0000
0000
0000
1000
0000
0000
0000
0000
0000
0100
0000
0000
0000
0000
0000
,
0010
0001
1000
0001
0100
0001
0010
0100
1000
0001
1000
0100
,
1000
0010
0100
0001
1000
0001
0010
0001
0010
0100
1000
0001
,
0200
0000
0000
0310
1000
0100
0010
0001
1000
0001
0100
0001
,
0020
0230
2300
3002
0203
0320
2030
3200
,
0310
0001
0100
0001
0010
0100
1000
0001
1000
0010
1000
0100
,
0010
0001
0100
0001
0010
0100
1000
0001
0100
0001
1000
0100
,
0020
0000
0000
0031
1000
0100
1000
0010
0100
0001
0100
0001
,
0010
0010
0100
0100
1000
1000
0010
0010
,
0220
0000
0000
0330
,
0202
0000
0000
0303
,
0022
0000
0000
0033
,
0011
1100
0000
0011
0000
0011
0000
0011
,
1000
0100
0010
0001
0100
0001
0100
0010
1000
0100
1000
0010
0100
0010
0100
0001
,
0010
0100
1000
0001
0100
0001
0010
0001
0100
0010
1000
0100
1000
0010
0100
0001
,
1000
0001
1000
0100
1000
0010
0100
0001
0100
0001
0010
0100
1000
0001
1000
0010
,
0100
0010
1000
0100
0010
0001
1000
0001
2000
0000
3200
0000
0320
0000
0032
0000
,
1003
0000
0000
0100
0000
0000
0010
0000
0000
0001
0000
0000
1000
0000
0000
0000
0001
0000
0000
0000
0100
0000
0000
0000
0001
0000
0000
1000
0000
0000
0010
0000
0000
1000
0000
0000
0100
0000
0000
0000
0010
0000
0000
0000
0001
0000
0000
0000
,
1000
0000
0000
0100
0000
0000
1000
0000
0000
0100
0000
0000
1000
0000
0000
0000
0010
0000
0000
0000
0100
0000
0000
0000
0001
0000
0000
0010
0000
0000
0001
0000
0000
0010
0000
0000
0001
0000
0000
0000
0010
0000
0000
0000
0100
0000
0000
0000
,
1000
0001
1000
0000
0001
1000
0001
0000
1000
0001
1000
0000
0001
1000
0001
0000
,
1000
0100
1000
0010
1000
0100
1000
0010
0200
0000
0302
0000
0023
0000
0230
0000
,
1300
0000
0000
0001
0000
0000
0100
0000
0000
0001
0000
0000
0010
0000
0000
0000
0100
0000
0000
0000
1000
0000
0000
0000
0001
0000
0000
1000
0000
0000
0010
0000
0000
1000
0000
0000
0010
0000
0000
0000
0100
0000
0000
0000
0001
0000
0000
0000
,
1000
0000
0000
0100
0000
0000
0010
0000
0000
0001
0000
0000
0010
0000
0000
0000
0100
0000
0000
0000
1000
0000
0000
0000
0001
0000
0000
1000
0000
0000
0010
0000
0000
1000
0000
0000
0010
0000
0000
0000
0100
0000
0000
0000
0001
0000
0000
0000
,
0010
0000
0000
0100
0000
0000
1000
0000
0000
0100
0000
0000
1000
0000
0000
0000
0001
0000
0000
0000
0100
0000
0000
0000
0001
0000
0000
0010
0000
0000
0100
0000
0000
1000
0000
0000
0001
0000
0000
0000
1000
0000
0000
0000
0010
0000
0000
0000
,
0100
0000
0000
0001
0000
0000
0010
0000
0000
0100
0000
0000
1000
0000
0000
0000
0001
0000
0000
0000
0100
0000
0000
0000
0001
0000
0000
0000
0000
0000
1000
0000
0000
0000
0000
0000
0200
0000
0000
0000
0000
0000
0000
0000
0000
0000
0000
0000
,
0310
0000
0000
0001
0000
0000
1000
0000
0000
0001
0000
0000
0100
0000
0000
0000
0010
0000
0000
0000
1000
0000
0000
0000
0100
0000
0000
0010
0000
0000
0001
0000
0000
1000
0000
0000
0001
0000
0000
0000
0010
0000
0000
0000
0100
0000
0000
0000
,
1000
0000
0000
0001
0000
0000
0100
0000
0000
0001
0000
0000
1000
0000
0000
0000
0010
0000
0000
0000
0100
0000
0000
0000
0001
0000
0000
0010
0000
0000
0100
0000
0000
1000
0000
0000
0001
0000
0000
0000
1000
0000
0000
0000
0100
0000
0000
0000
,
0020
0032
2003
3002
0203
0302
0023
0230
,
2300
0000
0000
0000
3020
0000
0000
0000
0130
0001
1000
0100
1000
0001
0100
0001
,
1000
0000
0000
0100
0000
0000
0010
0000
0000
0001
0000
0000
1000
0000
0000
0000
0001
0000
0000
0000
0100
0000
0000
0000
0001
0000
0000
0010
0000
0000
0100
0000
0000
1000
0000
0000
0001
0000
0000
0000
1000
0000
0000
0000
0010
0000
0000
0000
,
1000
0000
0000
0100
0000
0000
0010
0000
0000
0001
0000
0000
1000
0000
0000
0000
0010
0000
0000
0000
0100
0000
0000
0000
0001
0000
0000
1000
0000
0000
0100
0000
0000
0010
0000
0000
0001
0000
0000
0000
1000
0000
0000
0000
0010
0000
0000
0000
,
1000
0000
0000
0100
0000
0000
0010
0000
0000
0001
0000
0000
1000
0000
0000
0000
0010
0000
0000
0000
0100
0000
0000
0000
0010
0000
0000
1000
0000
0000
0100
0000
0000
0010
0000
0000
0001
0000
0000
0000
0100
0000
0000
0000
0001
0000
0000
0000
,
0010
0010
0100
0100
1000
1000
0010
0010
,
0100
0000
0000
0001
0000
0000
1000
0000
0000
0100
0000
0000
1000
0000
0000
0000
0010
0000
0000
0000
0100
0000
0000
0000
0001
0000
0000
0010
0000
0000
0100
0000
0000
1000
0000
0000
0001
0000
0000
0000
1000
0000
0000
0000
0010
0000
0000
0000
,
1000
0000
0000
0100
0000
0000
0010
0000
0000
0100
0000
0000
1000
0000
0000
0000
0001
0000
0000
0000
0100
0000
0000
0000
0001
0000
0000
0010
0000
0000
0100
0000
0000
1000
0000
0000
0001
0000
0000
0100
0000
0000
0001
0000
0000
1000
0000
0000
,
0002
2003
3020
0230
,
0302
0000
0000
0000
0000
0000
0023
0000
0000
0030
0000
0000
0020
0000
0000
0030
0000
0000
0001
1000
0001
1000
0001
1000
,
0002
0203
0302
0023
,
0230
2300
3020
2030
,
3200
2300
3002
0203
,
0302
0023
0230
0320
,
0032
2003
3200
2300
,
3002
0000
0000
0000
0203
0000
0000
0000
0302
0000
0000
0000
0013
0100
1000
0001
,
1000
0000
0100
0000
1000
0000
0010
0000
0100
0001
0100
0001
0010
0100
1000
0100
,
1000
0010
0100
0001
0010
0100
1000
0010
,
0200
0000
0000
0000
,
0000
0000
0000
0000
,
M3MM
0000
0000
0000
,
0000
0000
0000
0000
0000
0000
0000
0000
0000
0000
0000
0000
0001
0010
0100
1000
,
0002
0203
0302
0023
,
0230
2300
3002
2003
,
3200
0320
0032
2003
,
3020
2030
3200
2300
,
3020
0230
0302
0023
,
0230
2300
3002
0203
,
0302
2003
3200
0320
,
0230
2300
3020
0230
,
0302
2003
3200
2300
,
3002
0203
0302
0023
,
0230
2300
3020
2030
,
3200
0320
0032
2003
,
3002
0203
0302
0023
,
0230
2300
3020
2030
,
3200
2300
3020
0230
,
0302
0023
0230
2300
,
3001
0000
0000
0000
,
2000
3000
0000
0000
,
0200
0300
0020
0000
0030
0000
0002
0003
,
0000
0000
0000
0000
0000
0000
0000
0000
0000
0000
0000
0000
0100
0010
1000
0100
,
0020
0032
2003
3020
,
0230
0302
2003
3200
2300
3020
0230
0302
,
0013
0000
0000
0000
,
0000
0000
0000
0200
,
2300
3002
2003
3002
,
2003
3200
0320
0230
2300
3200
0320
0230
,
1300
0001
0100
0001
0010
0100
1000
0010
0100
0001
1000
0100
1000
0010
0100
0001
,
0010
0000
MMMM
0000
,
0100
0000
0000
1000
0000
0000
0001
0000
0000
0100
0000
0000
0001
0000
0000
0000
0010
0000
0000
0000
0100
0000
0000
0000
1000
0000
0000
0001
0000
0000
0100
0000
0000
0001
0000
0000
1000
0000
0000
0000
0010
0000
0000
0000
0100
0000
0000
0000
,
0001
0000
0000
0010
0000
0000
0100
0000
0000
1000
0000
0000
0001
0000
0000
0000
1000
0000
0000
0000
0100
0000
0000
0000
1000
0000
0000
0010
0000
0000
0100
0000
0000
0001
0000
0000
1000
0000
0000
0000
0100
0000
0000
0000
0010
0000
0000
0000
,
0001
0000
0000
1000
0000
0000
0010
0000
0000
1000
0000
0000
0100
0000
0000
0000
0010
0000
0000
0000
0001
0000
0000
0000
1000
0000
0000
0010
0000
0000
0100
0000
0000
0001
0000
0000
0010
0000
0000
0000
0100
0000
0000
0000
1000
0000
0000
0000
,
0001
0000
0000
1000
0000
0000
0100
0000
0000
1000
0000
0000
0010
0000
0000
0000
0100
0000
0000
0000
0001
0000
0000
0000
1000
0000
0000
0001
0000
0000
0010
0000
0000
0100
0000
0000
1000
0000
0000
0000
0001
0000
0000
0000
0100
0000
0000
0000
,
0001
1000
0010
1000
0100
0010
0001
1000
0001
0100
0001
0010
0100
1000
0100
1000
,
0010
0100
0001
0010
0100
1000
0001
0100
0001
1000
0010
1000
0010
0100
0001
0010
,
0100
1000
0001
0100
0001
0010
0001
0100
0001
1000
0001
1000
0100
1000
0010
0100
,
0001
0100
0001
0010
0100
1000
0001
0100
0002
0000
0203
0000
0302
0000
0023
0000
,
0031
0000
0000
1000
0000
0000
0100
0000
0000
0010
0000
0000
0001
0000
0000
0000
1000
0000
0000
0000
0010
0000
0000
0000
1000
0000
0000
0100
0000
0000
0010
0000
0000
0001
0000
0000
0100
0000
0000
0000
0001
0000
0000
0000
1000
0000
0000
0000
,
0001
0000
0000
1000
0000
0000
0100
0000
0000
1000
0000
0000
0010
0000
0000
0000
0100
0000
0000
0000
0001
0000
0000
0000
1000
0000
0000
0100
0000
0000
1000
0000
0000
0100
0000
0000
1000
0000
0000
0000
0010
0000
0000
0000
0100
0000
0000
0000
,
0001
0000
0000
0010
0000
0000
0100
0000
0000
1000
0000
0000
0001
0000
0000
0000
1000
0000
0000
0000
0100
0000
0000
0000
1000
0000
0000
0010
0000
0000
0100
0000
0000
0001
0000
0000
0010
0000
0000
0000
0100
0000
0000
0000
1000
0000
0000
0000
,
0001
0000
0000
0100
0000
0000
0001
0000
0000
1000
0000
0000
0100
0000
0000
0000
0010
0000
0000
0000
0001
0000
0000
0000
2000
0000
0000
0000
0000
0000
3200
0000
0000
0000
0000
0000
0320
0000
0000
0000
0000
0000
0230
0000
0000
0000
0000
0000
,
1300
0100
0010
0001
1000
0100
0010
0001
1000
0010
0100
0001
1000
0010
0100
0001
,
0010
0100
1000
0001
0010
0100
1000
0001
0100
0010
1000
0001
0100
0010
1000
0100
,
0020
0032
0203
0302
,
0023
0000
0000
0000
0000
0000
0000
0000
0130
1000
0001
0100
0001
1000
0100
1000
,
0001
1000
0010
1000
0100
0010
0001
1000
0001
0100
0001
0010
0100
1000
0001
1000
,
0002
0203
0302
2003
3200
2300
3002
0203
,
0302
0000
2003
0000
,
3200
0320
0032
0203
0302
0023
0230
2300
,
3001
0100
0001
0100
0010
1000
0010
1000
0100
1000
0100
0010
0001
0010
0001
1000
,
0020
0000
0230
0000
0302
0000
0023
0000
0230
0000
2300
0000
3001
1000
0100
1000
,
0020
0230
0302
0023
,
0130
0000
0000
0000
,
1000
0000
0000
0010
0000
0000
0100
0000
0000
0001
0000
0000
1000
0000
0000
0000
0100
0000
0000
0000
0010
0000
0000
0000
0001
0000
0000
1000
0000
0000
0010
0000
0000
1000
0000
0000
0100
0000
0000
0000
0010
0000
0000
0000
0001
0000
0000
0000
,
1000
0000
0000
0001
0000
0000
0100
0000
0000
0001
0000
0000
0010
0000
0000
0000
0100
0000
0000
0000
1000
0000
0000
0000
0001
0000
0000
1000
0000
0000
0100
0000
0000
1000
0000
0000
0010
0000
0000
0000
0100
0000
0000
0000
0001
0000
0000
0000
,
1000
0000
0000
0100
0000
0000
0010
0000
0000
0001
0000
0000
0010
0000
0000
0000
0100
0000
0000
0000
1000
0000
0000
0000
0001
0000
0000
1000
0000
0000
0010
0000
0000
1000
0000
0000
0100
0000
0000
0000
0010
0000
0000
0000
0001
0000
0000
0000
,
1000
0000
0000
0001
0000
0000
0100
0000
0000
0001
0000
0000
0010
0000
0000
0000
0100
0000
0000
0000
1000
0000
0000
0000
0001
0000
0000
1000
0000
0000
0010
0000
0000
1000
0000
0000
0100
0000
0000
0000
0010
0000
0000
0000
0001
0000
0000
0000
,
1000
0000
0000
0001
0000
0000
0100
0000
0000
0001
0000
0000
0010
0000
0000
0000
0100
0000
0000
0000
1000
0000
0000
0000
0100
0000
0000
1000
0000
0000
0010
0000
0000
1000
0000
0000
0100
0000
0000
0000
0010
0000
0000
0000
0001
0000
0000
0000
,
1000
0000
0000
0001
0000
0000
0100
0000
0000
0001
0000
0000
0010
0000
0000
0000
0100
0000
0000
0000
1000
0000
0000
0000
0001
0000
0000
0100
0000
0000
0001
0000
0000
0100
0000
0000
0001
0000
0000
0000
0010
0000
0000
0000
0100
0000
0000
0000
,
2000
3020
0030
0000
,
0000
0000
0000
1111
,
0100
0001
0010
0100
1000
0001
0100
0001
1000
0100
1000
0010
0100
0001
0010
0100
,
1000
0001
0100
0001
1000
0010
1000
0100
0010
0001
1000
0001
0100
0001
0010
0100
,
1000
0001
0100
0001
1000
0100
0010
0001
1000
0010
1000
0100
0010
0100
1000
0010
,
0100
0001
0010
0100
1000
0001
0100
0001
2000
0000
3200
0000
0320
0000
0230
0000
,
2300
3002
0203
0302
,
0023
0230
2300
3020
,
2030
3200
0320
0032
,
2003
3002
0023
0000
,
0230
2300
3002
2003
,
3200
2300
3020
0230
,
0302
2003
3002
2003
,
3200
0000
0320
0000
0031
1000
0001
0010
,
0200
2300
3002
2003
,
3200
0320
0230
2300
,
3020
0230
0302
2003
,
3002
0000
0000
0000
0023
0000
0000
0000
0130
1000
0010
0100
0001
1000
0001
1000
,
0100
0010
0001
1000
0001
0100
0001
0010
,
0100
1000
0010
1000
0100
1000
0001
0100
,
0001
0010
0100
1000
0010
0100
0001
1000
,
0100
1000
0010
0100
0002
0000
0000
0000
,
0013
0100
1000
0001
0100
0001
1000
0100
,
0010
0000
0001
0000
1000
0000
0010
0000
0100
0000
0001
0000
0001
1000
0100
1000
,
0010
0000
0100
0000
0001
0000
0010
0000
0100
1000
0010
1000
0100
0010
0001
1000
,
0002
0000
0000
0000
0203
0000
0000
0000
0320
0000
0000
0000
1030
0100
0010
0001
,
1000
0010
1000
0100
0010
0001
1000
0001
,
0100
0001
0010
0100
1000
0001
1000
0100
,
1000
0001
0100
0001
0010
0100
1000
0010
,
1000
0100
1000
0001
0100
0001
0010
0100
,
1000
0010
0100
0001
1000
0100
1000
0010
,
0100
0000
0001
0000
0010
0000
0100
0000
1000
0000
0001
0000
1000
0100
0010
0001
,
1000
0010
0100
0001
0010
0100
1000
0001
,
0200
0000
0300
0000
0200
0300
0200
0300
,
0010
0000
0000
1000
0000
0000
0100
0000
0000
1000
0000
0000
0010
0000
0000
0000
0100
0000
0000
0000
0001
0000
0000
0000
1000
0000
0000
0100
0000
0000
1000
0000
0000
0010
0000
0000
0100
0000
0000
0000
0001
0000
0000
0000
0010
0000
0000
0000
,
0100
0000
0000
1000
0000
0000
0001
0000
0000
0100
0000
0000
0001
0000
0000
0000
0010
0000
0000
0000
0100
0000
0000
0000
1000
0000
0000
0000
0000
0000
1000
0000
0000
0000
0000
0000
0010
0000
0000
0000
0000
0000
0010
0000
0000
0000
0000
0000
,
0100
0000
0000
0001
0000
0000
1000
0000
0000
0100
0000
0000
1000
0000
0000
0000
0010
0000
0000
0000
0100
0000
0000
0000
0001
0000
0000
0010
0000
0000
0100
0000
0000
1000
0000
0000
0001
0000
0000
0000
1000
0000
0000
0000
0100
0000
0000
0000
,
1000
0000
0000
0010
0000
0000
0100
0000
0000
0001
0000
0000
1000
0000
0000
0000
0100
0000
0000
0000
0010
0000
0000
0000
0002
0000
0000
0000
0000
0000
0000
0000
0000
0000
0000
0000
1003
0000
0000
0000
0000
0000
0100
0000
0000
1000
0000
0000
,
0010
0100
0001
1000
0100
1000
0010
0100
,
0001
0010
0100
1000
0001
0100
0001
1000
,
0100
0010
0001
1000
0010
0100
0001
1000
,
0002
0023
0230
2300
3002
0203
0302
0023
,
0130
1000
0001
1000
0010
1000
0100
1000
0010
0100
0001
0100
0001
0010
0100
1000
,
0001
0100
0001
1000
0100
0010
0100
1000
0100
1000
0010
0100
0001
0000
0010
0100
,
1000
0001
0100
0001
1000
0010
0100
0001
,
0010
0100
1000
0001
1000
0200
0320
0032
,
1003
0010
0100
0001
1000
0100
1000
0010
,
0100
0001
0010
0100
1000
0001
1000
0200
,
0310
0000
0001
1000
0000
0000
0001
0100
0000
0000
0001
1000
0000
0000
0001
0100
,
0020
0000
2030
0000
,
3100
0010
0001
1000
0001
0100
0001
1000
,
0010
0100
0001
1000
0001
0010
0100
1000
,
0001
0100
0001
1000
0100
1000
0010
0100
,
0001
0010
0100
1000
0002
2003
3020
0230
,
0301
1000
0100
1000
0010
0100
0001
0100
,
0001
0010
0100
1000
0010
0100
0001
1000
,
0100
0000
0010
0001
0000
0000
1000
0010
0000
0000
0100
0001
0000
0000
0010
0100
,
1000
0000
0001
0000
0100
0000
0001
0000
0010
0000
0100
0000
1000
0010
1000
0100
,
0010
0001
1000
0010
1000
0100
0010
0001
,
1000
0100
1000
0010
0100
0001
0010
0100
,
1000
0001
0100
0001
1000
0100
0010
0001
,
1000
0010
0100
0001
1000
0001
0020
0000
,
0130
1000
0001
0100
0001
1000
0010
1000
,
0100
1000
0010
0100
0001
1000
0010
1000
,
0200
0320
0032
0203
0302
0023
0230
2300
,
3001
0100
0000
0000
0010
1000
0000
0000
0110
0000
0000
0000
0010
0000
0000
0000
,
0020
0000
0000
0000
,
0000
0000
0000
0000
,
0030
0000
0000
0000
,
MMMM
0000
0000
0000
;

//---------------dance-single - ----------------
#NOTES:
     dance-single:
     :
     Easy:
     16:
     1.000,1.000,0.041,1.000,1.000,2960.000,14.000,397.000,27.000,1.000:
0000
0000
0000
0000
,
2000
3020
0000
0230
,
0000
0302
0000
2003
,
0000
3200
0000
0320
,
0031
1000
0010
1000
0100
0010
0001
1000
,
0002
0203
0000
0320
,
0000
2030
0000
3200
,
0000
0320
0000
0032
,
0000
0000
2003
0000
0000
0000
3100
0010
,
0001
1000
0100
1000
0010
0100
0001
1000
0100
1000
0010
0100
0001
1000
0100
1000
,
0100
0010
0001
1000
0010
0100
0001
0100
0001
0010
0100
1000
0001
1000
0010
0100
,
0001
0100
0001
0010
0100
1000
0010
1000
0001
1000
0100
1000
0010
0100
0001
0100
,
0001
0010
0100
1000
0001
0000
0000
0000
0000
2000
0000
0000
0000
0000
0000
0000
,
3001
0010
0100
1000
0001
0000
0000
0000
1000
0010
1000
0100
0010
0000
0000
0000
,
0001
0100
0001
0010
0100
0000
0000
0000
1000
0001
1000
0100
1000
0000
0000
0000
,
0010
0100
0010
0100
0010
0000
0000
0000
0100
0001
0100
0001
0010
0000
0000
0000
,
0100
1000
0001
1000
0100
0000
0000
0000
0000
0020
0000
0000
0000
0000
0000
0000
,
0031
1000
0100
1000
0010
0100
0001
1000
0001
1000
0010
0100
0001
0100
0001
0010
,
0100
1000
0010
0100
0001
1000
0100
1000
0010
0100
0001
0010
0001
0010
0100
1000
,
0001
0010
0100
1000
0001
0100
0001
1000
0010
0100
0001
1000
0001
0010
0100
1000
,
0001
1000
0100
0010
0001
0000
0000
0000
0000
2000
0000
0000
0000
0000
0000
0000
,
3010
0100
0001
1000
0001
0000
0000
0000
1000
0100
1000
0100
1000
0000
0000
0000
,
0010
0100
0001
0100
0001
0000
0000
0000
0010
0100
1000
0001
1000
0000
0000
0000
,
0001
1000
0001
0100
0001
0000
0000
0000
0010
0100
1000
0100
1000
0000
0000
0000
,
1000
0010
0100
0001
0100
0000
0000
0000
0000
0020
0000
0000
0000
0000
0000
0000
,
1030
0100
1000
0010
0100
0010
1000
0100
0010
0001
0100
0001
0010
0100
1000
0001
,
1000
0010
0100
0001
0100
0001
0010
0100
1000
0010
1000
0100
1000
0100
0010
0001
,
0010
0001
1000
0010
0100
0001
1000
0001
0010
0100
1000
0001
0100
0001
1000
0100
,
0010
0001
1000
0010
0100
0000
0000
0000
0000
0002
0000
0000
0000
0000
0000
0000
,
0023
0230
2300
3002
0203
0302
2003
3200
,
0320
0230
2300
3020
0230
0302
0023
0230
,
1300
0001
1000
0010
0100
0001
1000
0100
1000
0010
0100
0001
0010
0100
1000
0001
,
1000
0100
0010
0001
0002
0000
2003
0000
,
3020
0230
0302
2003
,
3200
0000
0320
0000
0031
0001
1000
1000
,
0020
0230
0302
2003
,
3200
0000
0000
0000
2300
0000
0000
0000
3020
0000
0000
0000
0000
0000
0130
0001
,
2000
3200
2300
3020
,
0230
0320
2030
3200
,
0320
0032
2003
3002
,
0203
0320
2030
3200
0320
0032
2003
3020
,
0130
0001
0100
0001
0010
0100
1000
0100
2000
0000
0000
0000
3002
0000
0000
0000
,
1003
0100
1000
0100
0010
0001
1000
0010
2000
0000
0000
0000
3002
0000
0000
0000
,
1003
0100
0010
0001
0010
0001
1000
0010
2000
0000
0000
0000
3200
0000
0000
0000
,
0310
0001
0010
0001
1000
0010
1000
0010
0200
0000
0000
0000
0302
0000
0000
0000
,
0013
0100
1000
0100
1000
0010
0100
0010
2000
0000
0000
0000
3200
0000
0000
0000
,
0310
0001
1000
0001
0010
0001
1000
0001
0020
0000
0000
0000
0230
0000
0000
0000
,
1300
0001
0100
0001
1000
0100
1000
0010
2000
0000
0000
0000
3200
0000
0000
0000
,
0320
0000
0000
0000
0030
0000
0000
0000
0011
0000
0000
0000
0001
1000
0100
1000
,
0010
0100
0001
1000
0100
1000
0100
0010
0001
1000
0010
1000
0010
0100
0001
1000
,
0001
0010
0100
1000
0100
1000
0010
0100
0001
1000
0001
1000
0100
0010
0001
0010
,
0001
1000
0010
0100
0001
0100
0001
0010
0100
1000
0010
0100
0001
1000
0001
0010
,
0100
1000
0001
0100
0001
0010
0100
1000
0001
0000
0001
0000
1000
0000
0100
0000
,
0010
0001
1000
0001
0100
0001
0010
0100
1000
0010
0100
0001
1000
0001
1000
0100
,
1000
0010
0100
0001
0100
0001
0010
0100
1000
0001
1000
0010
1000
0100
1000
0100
,
0010
0001
0010
0001
1000
0010
0100
0001
0100
0001
0010
0100
1000
0010
1000
0010
,
0100
0001
1000
0001
0010
0100
1000
0001
0020
0000
0230
0000
2300
0000
3002
0000
,
0013
0000
0000
0100
0000
0000
1000
0000
0000
0010
0000
0000
0100
0000
0000
0000
0001
0000
0000
0000
1000
0000
0000
0000
0001
0000
0000
0010
0000
0000
0100
0000
0000
1000
0000
0000
0001
0000
0000
0000
1000
0000
0000
0000
0100
0000
0000
0000
,
1000
0000
0000
0010
0000
0000
0100
0000
0000
0001
0000
0000
1000
0000
0000
0000
0100
0000
0000
0000
0010
0000
0000
0000
0001
0000
0000
1000
0000
0000
0010
0000
0000
1000
0000
0000
0100
0000
0000
0000
0010
0000
0000
0000
0001
0000
0000
0000
,
1000
0000
0000
0010
0000
0000
0100
0000
0000
0001
0000
0000
0010
0000
0000
0000
0100
0000
0000
0000
1000
0000
0000
0000
0001
0000
0000
1000
0000
0000
0100
0000
0000
1000
0000
0000
0010
0000
0000
0000
0100
0000
0000
0000
0001
0000
0000
0000
,
0010
0000
0000
0100
0000
0000
1000
0000
0000
0001
0000
0000
1000
0000
0000
0000
0010
0000
0000
0000
0100
0000
0000
0000
0010
0000
0000
1000
0000
0000
0100
0000
0000
0010
0000
0000
0002
0000
0000
0000
0000
0000
0000
0000
0000
0000
0000
0000
,
1003
0100
0010
0001
1000
0001
0100
0001
0010
0100
1000
0001
1000
0010
0100
0001
,
0010
0100
1000
0010
1000
0100
0010
0001
1000
0001
0100
0001
0010
0100
1000
0001
,
2000
3200
0320
0032
0023
0230
2300
3200
,
0320
0032
0203
0000
,
0310
0000
0000
1000
0000
0000
0100
0000
0000
0010
0000
0000
0100
0000
0000
0000
1000
0000
0000
0000
0010
0000
0000
0000
1000
0000
0000
0100
0000
0000
0010
0000
0000
0001
0000
0000
1000
0000
0000
0000
0001
0000
0000
0000
0100
0000
0000
0000
,
0001
0000
0000
0010
0000
0000
0100
0000
0000
1000
0000
0000
0001
0000
0000
0000
1000
0000
0000
0000
0010
0000
0000
0000
0100
0000
0000
0001
0000
0000
0010
0000
0000
0001
0000
0000
1000
0000
0000
0000
0100
0000
0000
0000
0010
0000
0000
0000
,
0001
0000
0000
1000
0000
0000
0010
0000
0000
1000
0000
0000
0100
0000
0000
0000
0010
0000
0000
0000
0001
0000
0000
0000
1000
0000
0000
0001
0000
0000
0010
0000
0000
0001
0000
0000
1000
0000
0000
0000
0100
0000
0000
0000
0010
0000
0000
0000
,
0001
0000
0000
1000
0000
0000
0010
0000
0000
0100
0000
0000
0001
0000
0000
0000
1000
0000
0000
0000
0100
0000
0000
0000
1000
0000
0000
0000
0000
0000
0010
0000
0000
0000
0000
0000
0010
0000
0000
0000
0000
0000
0100
0000
0000
0000
0000
0000
,
0001
0010
0100
1000
0001
1000
0100
1000
0010
0100
0001
1000
0100
1000
0010
0100
,
0001
0000
0000
1000
0000
0000
0100
0000
0000
1000
0000
0000
0010
0000
0000
0000
0100
0000
0000
0000
0001
0000
0000
0000
1000
0000
0000
0100
0000
0000
0010
0000
0000
0001
0000
0000
0010
0000
0000
0000
0100
0000
0000
0000
1000
0000
0000
0000
,
0001
0000
0000
1000
0000
0000
0010
0000
0000
1000
0000
0000
0010
0000
0000
0000
0100
0000
0000
0000
0001
0000
0000
0000
1000
0000
0000
0100
0000
0000
0010
0000
0000
0100
0000
0000
0010
0000
0000
0000
0001
0000
0000
0000
1000
0000
0000
0000
,
0100
0010
0001
1000
0010
0000
0100
0000
0002
0000
2003
0000
3200
0000
2300
0000
,
3001
0000
0000
0100
0000
0000
0001
0000
0000
0100
0000
0000
0010
0000
0000
0000
1000
0000
0000
0000
0100
0000
0000
0000
0010
0000
0000
0001
0000
0000
1000
0000
0000
0001
0000
0000
1000
0000
0000
0000
0100
0000
0000
0000
0010
0000
0000
0000
,
0001
0000
0000
1000
0000
0000
0010
0000
0000
1000
0000
0000
0010
0000
0000
0000
0100
0000
0000
0000
0001
0000
0000
0000
1000
0000
0000
0100
0000
0000
0010
0000
0000
0001
0000
0000
1000
0000
0000
0000
0010
0000
0000
0000
1000
0000
0000
0000
,
0010
0000
0000
0100
0000
0000
0001
0000
0000
1000
0000
0000
0100
0000
0000
0000
0010
0000
0000
0000
0001
0000
0000
0000
0010
0000
0000
0100
0000
0000
1000
0000
0000
0001
0000
0000
1000
0000
0000
0000
0010
0000
0000
0000
0100
0000
0000
0000
,
0001
0000
0000
1000
0000
0000
0100
0000
0000
1000
0000
0000
0100
0000
0000
0000
0010
0000
0000
0000
0001
0000
0000
0000
1000
0000
0000
0010
0000
0000
0100
0000
0000
0001
0000
0000
0400
0000
0000
0000
0000
0000
0000
0000
0000
0000
0000
0000
,
0310
1000
0010
1000
0100
0010
0001
0010
0001
1000
0010
0100
0001
1000
0001
1000
,
0100
1000
0010
1000
0100
0010
0001
1000
0001
0100
0001
1000
0001
1000
0010
1000
,
0100
0010
0000
0000
0001
0100
0000
0000
0010
1000
0000
0000
0100
0010
0000
0000
,
0002
2003
3200
2300
3001
0100
0010
1000
,
0200
0320
0032
2003
,
3000
MMMM
0000
0000
0000
0000
0000
MMMM
,
0020
0230
0302
2003
,
3200
0300
0200
0300
0200
0300
0200
0300
,
0020
0032
2003
3020
,
0030
MMMM
0000
0000
0000
0000
0000
MMMM
,
0200
0302
2003
3200
,
0310
0001
1000
0001
0100
0001
0010
0100
1000
0010
0100
0001
,
2000
3200
0320
0032
,
2003
3020
0230
0302
,
2003
3200
2300
3002
,
0203
0302
2003
3200
,
0320
0032
2003
3200
2300
3020
0230
0302
,
2003
3200
2300
3020
0230
0302
0023
0230
,
1300
0001
0100
0001
0010
0100
1000
0001
1000
0100
1000
0010
1000
0100
0010
0001
,
1000
1000
0100
0100
0020
0000
0032
0000
,
1003
0100
0010
0100
1000
0010
1000
0010
0100
0001
1000
0001
1000
0010
0100
0001
,
0100
0001
0010
0100
1000
0010
0100
0001
1000
0100
1000
0010
0100
0001
1000
0001
,
0100
0001
0010
0100
1000
0010
1000
0001
1000
0100
1000
0100
0010
0001
0010
0001
,
1000
0010
1000
0010
0100
0001
1000
0100
0010
0000
0010
0000
0001
0000
0001
0000
,
1000
0100
0010
0001
1000
0001
1000
0010
1000
0010
0100
0001
1000
0001
0010
0100
,
1000
0001
0100
0001
1000
0010
1000
0010
0100
0001
1000
0001
1000
0100
0010
0001
,
0010
0001
1000
0010
0100
0001
1000
0001
1000
0010
0100
0001
0100
0001
0010
0100
,
2000
3020
0230
0000
,
0301
0000
0000
0010
0000
0000
0100
0000
0000
1000
0000
0000
0001
0000
0000
0000
1000
0000
0000
0000
0010
0000
0000
0000
1000
0000
0000
0100
0000
0000
0010
0000
0000
0001
0000
0000
1000
0000
0000
0000
0010
0000
0000
0000
0100
0000
0000
0000
,
0001
0000
0000
0010
0000
0000
0100
0000
0000
1000
0000
0000
0100
0000
0000
0000
0010
0000
0000
0000
0001
0000
0000
0000
1000
0000
0000
0010
0000
0000
0100
0000
0000
0001
0000
0000
1000
0000
0000
0000
0100
0000
0000
0000
1000
0000
0000
0000
,
0010
0000
0000
0100
0000
0000
0001
0000
0000
1000
0000
0000
0100
0000
0000
0000
1000
0000
0000
0000
0010
0000
0000
0000
1000
0000
0000
0100
0000
0000
0010
0000
0000
0001
0000
0000
1000
0000
0000
0000
0001
0000
0000
0000
0010
0000
0000
0000
,
0001
0000
0000
1000
0000
0000
0100
0000
0000
0010
0000
0000
0001
0000
0000
0000
1000
0000
0000
0000
0010
0000
0000
0000
1000
0000
0000
0000
0000
0000
1000
0000
0000
0000
0000
0000
0002
0000
0000
0000
0000
0000
0000
0000
0000
0000
0000
0000
,
0103
0000
0000
0010
0000
0000
1000
0000
0000
0100
0000
0000
0010
0000
0000
0000
0001
0000
0000
0000
1000
0000
0000
0000
0001
0000
0000
0100
0000
0000
0010
0000
0000
1000
0000
0000
0100
0000
0000
0000
0010
0000
0000
0000
0001
0000
0000
0000
,
0010
0000
0000
0100
0000
0000
1000
0000
0000
0001
0000
0000
1000
0000
0000
0000
0010
0000
0000
0000
0100
0000
0000
0000
0001
0000
0000
1000
0000
0000
0100
0000
0000
1000
0000
0000
0100
0000
0000
0000
0010
0000
0000
0000
0001
0000
0000
0000
,
1000
0100
0010
0001
1000
0010
1000
0100
,
0010
0000
0001
0000
1000
0000
0100
0000
0010
0001
0100
0001
0010
0100
1000
0001
,
1000
0100
0010
0001
1000
0001
0100
0001
0100
0010
1000
0100
0010
0001
1000
0001
,
1000
0010
0100
0001
0100
0001
0010
0100
1000
0010
1000
0100
0010
0001
1000
0001
,
0200
0000
0320
0000
,
2030
0000
3200
0000
,
0310
0001
1000
0001
0100
0001
0100
0010
1000
0100
1000
0100
0010
0001
1000
0010
,
1000
0010
0100
0001
1000
0001
1000
0100
0010
0001
1000
0010
0100
0001
1000
0001
,
0010
0000
0000
0000
,
0000
0000
0000
0000
0000
0000
0000
0000
0000
0000
0000
0000
0000
0000
0100
1000
,
0010
0100
0001
1000
0100
1000
0010
0100
0001
0010
0100
1000
0001
0100
0001
1000
,
0010
0100
0001
0010
0100
1000
0001
0100
0001
1000
0100
0010
0001
1000
0010
0100
,
0002
0000
0000
0203
0000
0320
0000
0000
,
1030
0100
0010
0001
0010
0100
2000
0000
,
3001
0000
0000
1000
0000
0000
0100
0000
0000
0010
0000
0000
0001
0000
0000
0000
1000
0000
0000
0000
0010
0000
0000
0000
1000
0000
0000
0100
0000
0000
0010
0000
0000
0001
0000
0000
1000
0000
0000
0000
0100
0000
0000
0000
1000
0000
0000
0000
,
0010
0000
0000
0100
0000
0000
0001
0000
0000
1000
0000
0000
0001
0000
0000
0000
0010
0000
0000
0000
0100
0000
0000
0000
1000
0000
0000
0010
0000
0000
0100
0000
0000
0001
0000
0000
1000
0000
0000
0100
0000
0000
0010
0000
0000
0001
0000
0000
,
1000
0000
0000
0010
0000
0000
0100
0000
0000
0001
0000
0000
1000
0000
0000
0000
0100
0000
0000
0000
0010
0000
0000
0000
0001
0000
0000
1000
0000
0000
0010
0000
0000
1000
0000
0000
0100
0000
0000
0000
0010
0000
0000
0000
0001
0000
0000
0000
,
1000
0010
0100
0000
0001
0010
0100
0000
1000
0010
0100
0000
0001
0010
0100
0000
,
1000
0000
0000
0010
0000
0000
0100
0000
0000
0001
0000
0000
1000
0000
0000
0000
0100
0000
0000
0000
0010
0000
0000
0000
1001
0000
0000
0100
0000
0000
1000
0000
0000
0010
0000
0000
0100
0000
0000
0000
0001
0000
0000
0000
0010
0000
0000
0000
,
0100
0000
0000
1000
0000
0000
0001
0000
0000
1000
0000
0000
0100
0000
0000
0000
0010
0000
0000
0000
0001
0000
0000
0000
1000
0000
0000
0010
0000
0000
0100
0000
0000
0001
0000
0000
1000
0000
0000
0000
0100
0000
0000
0000
0010
0000
0000
0000
,
0100
0000
0000
1000
0000
0000
0010
0000
0000
0100
0000
0000
0001
0000
0000
0000
0010
0000
0000
0000
0100
0000
0000
0000
1000
0000
0000
0001
0000
0000
0100
0000
0000
0001
0000
0000
0010
0000
0000
0000
0100
0000
0000
0000
1000
0000
0000
0000
,
2001
0000
0000
0000
0000
0000
0000
0000
0000
0000
0000
0000
3010
0000
0000
0100
0000
0000
0001
0000
0000
1000
0000
0000
0100
0000
0000
0000
0010
0000
0000
0000
0001
0000
0000
0000
1000
0000
0000
0000
0000
0000
0100
0000
0000
0000
0000
0000
,
0010
0000
0000
0001
0000
0000
1000
0000
0000
0001
0000
0000
0010
0000
0000
0000
0100
0000
0000
0000
1000
0000
0000
0000
0001
0000
0000
1000
0000
0000
0100
0000
0000
1000
0000
0000
0010
0000
0000
0000
0100
0000
0000
0000
0001
0000
0000
0000
,
1000
0000
0000
0100
0000
0000
0010
0000
0000
0001
0000
0000
1000
0000
0000
0000
0010
0000
0000
0000
1000
0000
0000
0000
0100
0000
0000
0010
0000
0000
0001
0000
0000
1000
0000
0000
0001
0000
0000
0000
0010
0000
0000
0000
0100
0000
0000
0000
,
2000
0000
0000
0000
3010
0100
0001
1000
0100
1000
0010
0100
0001
0010
0100
1000
,
0002
0203
0302
0023
0230
2300
3002
2003
,
3100
0010
0001
1000
0001
0100
0001
0010
0100
1000
0010
0100
0001
1000
0100
0010
,
0001
1000
0010
0100
0001
0010
0100
1000
0001
0100
0010
1000
0100
0010
0001
1000
,
0020
0000
0000
0000
0130
0001
0010
0100
1000
0010
0100
0001
1000
0100
0010
0001
,
1000
1000
0010
0010
0100
0100
0001
0001
,
0220
0000
0000
0330
,
2200
0000
0000
3300
,
0220
0000
0000
0330
,
1100
0011
0000
1100
0000
1100
0000
1100
,
1000
0100
0010
0001
0100
0001
0100
0010
1000
0100
1000
0010
0100
0010
0100
0001
,
0010
0100
1000
0001
0100
0001
0010
0001
0100
0010
1000
0100
1000
0010
0100
0001
,
1000
0001
1000
0100
1000
0010
0100
0001
0100
0001
0010
0100
1000
0001
1000
0010
,
0100
0010
1000
0100
0010
0001
1000
0001
2000
0000
3200
0000
0320
0000
0032
0000
,
1003
0000
0000
0100
0000
0000
0010
0000
0000
0001
0000
0000
1000
0000
0000
0000
0001
0000
0000
0000
0100
0000
0000
0000
0001
0000
0000
1000
0000
0000
0010
0000
0000
1000
0000
0000
0100
0000
0000
0000
0010
0000
0000
0000
0001
0000
0000
0000
,
1000
0000
0000
0100
0000
0000
1000
0000
0000
0100
0000
0000
1000
0000
0000
0000
0010
0000
0000
0000
0100
0000
0000
0000
0001
0000
0000
0010
0000
0000
0001
0000
0000
0010
0000
0000
0001
0000
0000
0000
0010
0000
0000
0000
0100
0000
0000
0000
,
1000
0001
1000
0000
0001
1000
0001
0000
1000
0001
1000
0000
0001
1000
0001
0000
,
1000
0100
1000
0010
1000
0100
1000
0010
0200
0000
0302
0000
0023
0000
0230
0000
,
1300
0001
0100
0001
0010
0100
1000
0010
0100
0001
1000
0100
1000
0010
0100
0001
,
0010
0100
1000
0001
0100
0001
1000
0100
0010
0001
1000
0010
1000
0100
1000
0010
,
0100
0001
0100
0001
0010
0100
1000
0001
0100
0001
1000
0010
0100
0001
1000
0001
,
1000
0100
1000
0100
0010
0001
0010
0001
1000
0000
1000
0000
0200
0000
0000
0000
,
0310
0000
0000
0001
0000
0000
1000
0000
0000
0001
0000
0000
0100
0000
0000
0000
0010
0000
0000
0000
1000
0000
0000
0000
0100
0000
0000
0010
0000
0000
0001
0000
0000
1000
0000
0000
0001
0000
0000
0000
0010
0000
0000
0000
0100
0000
0000
0000
,
1000
0000
0000
0001
0000
0000
0100
0000
0000
0001
0000
0000
1000
0000
0000
0000
0010
0000
0000
0000
0100
0000
0000
0000
0001
0000
0000
0010
0000
0000
0100
0000
0000
1000
0000
0000
0001
0000
0000
0000
1000
0000
0000
0000
0100
0000
0000
0000
,
0020
0032
2003
3002
0203
0302
0023
0230
,
2300
0000
0000
0000
3020
0000
0000
0000
0130
0001
1000
0100
1000
0001
0100
0001
,
1000
0000
0000
0100
0000
0000
0010
0000
0000
0001
0000
0000
1000
0000
0000
0000
0001
0000
0000
0000
0100
0000
0000
0000
0001
0000
0000
0010
0000
0000
0100
0000
0000
1000
0000
0000
0001
0000
0000
0000
1000
0000
0000
0000
0010
0000
0000
0000
,
1000
0000
0000
0100
0000
0000
0010
0000
0000
0001
0000
0000
1000
0000
0000
0000
0010
0000
0000
0000
0100
0000
0000
0000
0001
0000
0000
1000
0000
0000
0100
0000
0000
0010
0000
0000
0001
0000
0000
0000
1000
0000
0000
0000
0010
0000
0000
0000
,
1000
0000
0000
0100
0000
0000
0010
0000
0000
0001
0000
0000
1000
0000
0000
0000
0010
0000
0000
0000
0100
0000
0000
0000
0010
0000
0000
1000
0000
0000
0100
0000
0000
0010
0000
0000
0001
0000
0000
0000
0100
0000
0000
0000
0001
0000
0000
0000
,
0010
0010
0100
0100
1000
1000
0010
0010
,
0100
0000
0000
0001
0000
0000
1000
0000
0000
0100
0000
0000
1000
0000
0000
0000
0010
0000
0000
0000
0100
0000
0000
0000
0001
0000
0000
0010
0000
0000
0100
0000
0000
1000
0000
0000
0001
0000
0000
0000
1000
0000
0000
0000
0010
0000
0000
0000
,
1000
0000
0000
0100
0000
0000
0010
0000
0000
0100
0000
0000
1000
0000
0000
0000
0001
0000
0000
0000
0100
0000
0000
0000
0001
0000
0000
0010
0000
0000
0100
0000
0000
1000
0000
0000
0001
0000
0000
0100
0000
0000
0001
0000
0000
1000
0000
0000
,
0002
2003
3020
0230
,
0302
0000
0000
0000
0000
0000
0023
0000
0000
0030
0000
0000
0020
0000
0000
0030
0000
0000
0001
1000
0001
1000
0001
1000
,
0001
0100
0001
0010
0100
1000
0010
1000
,
0100
1000
0010
0100
0001
0010
0100
1000
,
0001
0100
0001
1000
0100
0010
0001
1000
,
0010
0100
0001
1000
0001
0010
0001
1000
,
0100
0010
0001
1000
0010
0100
0001
1000
,
0100
0000
1000
0000
0010
0000
0100
0000
0001
0000
0010
0000
0010
0100
1000
0001
,
1000
0000
0100
0000
1000
0000
0010
0000
0100
0001
0100
0001
0010
0100
1000
0100
,
1000
0010
0100
0001
0010
0100
1000
0010
,
0200
0000
0000
0000
,
0000
0000
0000
0000
,
M3MM
0000
0000
0000
,
0000
0000
0000
0000
0000
0000
0000
0000
0000
0000
0000
0000
0001
0010
0100
1000
,
0002
0203
0302
0023
,
0230
2300
3002
2003
,
3200
0320
0032
2003
,
3020
2030
3200
2300
,
3020
0230
0302
0023
,
0230
2300
3002
0203
,
0302
2003
3200
0320
,
0230
2300
3020
0230
,
0302
2003
3200
2300
,
3002
0203
0302
0023
,
0230
2300
3020
2030
,
3200
0320
0032
2003
,
3002
0203
0302
0023
,
0230
2300
3020
2030
,
3200
2300
3020
0230
,
0302
0023
0230
2300
,
3001
0000
0000
0000
,
2000
3000
0000
0000
,
0200
0300
0020
0000
0030
0000
0002
0003
,
0000
0000
0000
0000
0000
0000
0000
0000
0000
0000
0000
0000
0100
0010
1000
0100
,
0020
0032
2003
3020
,
0230
0302
2003
3200
2300
3020
0230
0302
,
0013
0000
0000
0000
,
0000
0000
0000
0200
,
2300
3002
2003
3002
,
2003
3200
0320
0230
2300
3200
0320
0230
,
1300
0001
0100
0001
0010
0100
1000
0010
0100
0001
1000
0100
1000
0010
0100
0001
,
0010
0000
MMMM
0000
,
0100
0000
0000
1000
0000
0000
0001
0000
0000
0100
0000
0000
0001
0000
0000
0000
0010
0000
0000
0000
0100
0000
0000
0000
1000
0000
0000
0001
0000
0000
0100
0000
0000
0001
0000
0000
1000
0000
0000
0000
0010
0000
0000
0000
0100
0000
0000
0000
,
0001
0000
0000
0010
0000
0000
0100
0000
0000
1000
0000
0000
0001
0000
0000
0000
1000
0000
0000
0000
0100
0000
0000
0000
1000
0000
0000
0010
0000
0000
0100
0000
0000
0001
0000
0000
1000
0000
0000
0000
0100
0000
0000
0000
0010
0000
0000
0000
,
0001
0000
0000
1000
0000
0000
0010
0000
0000
1000
0000
0000
0100
0000
0000
0000
0010
0000
0000
0000
0001
0000
0000
0000
1000
0000
0000
0010
0000
0000
0100
0000
0000
0001
0000
0000
0010
0000
0000
0000
0100
0000
0000
0000
1000
0000
0000
0000
,
0001
0000
0000
1000
0000
0000
0100
0000
0000
1000
0000
0000
0010
0000
0000
0000
0100
0000
0000
0000
0001
0000
0000
0000
1000
0000
0000
0001
0000
0000
0010
0000
0000
0100
0000
0000
1000
0000
0000
0000
0001
0000
0000
0000
0100
0000
0000
0000
,
0001
1000
0010
1000
0100
0010
0001
1000
0001
0100
0001
0010
0100
1000
0100
1000
,
0010
0100
0001
0010
0100
1000
0001
0100
0001
1000
0010
1000
0010
0100
0001
0010
,
0100
1000
0001
0100
0001
0010
0001
0100
0001
1000
0001
1000
0100
1000
0010
0100
,
0001
0100
0001
0010
0100
1000
0001
0100
0002
0000
0203
0000
0302
0000
0023
0000
,
0031
0000
0000
1000
0000
0000
0100
0000
0000
0010
0000
0000
0001
0000
0000
0000
1000
0000
0000
0000
0010
0000
0000
0000
1000
0000
0000
0100
0000
0000
0010
0000
0000
0001
0000
0000
0100
0000
0000
0000
0001
0000
0000
0000
1000
0000
0000
0000
,
0001
0000
0000
1000
0000
0000
0100
0000
0000
1000
0000
0000
0010
0000
0000
0000
0100
0000
0000
0000
0001
0000
0000
0000
1000
0000
0000
0100
0000
0000
1000
0000
0000
0100
0000
0000
1000
0000
0000
0000
0010
0000
0000
0000
0100
0000
0000
0000
,
0001
0000
0000
0010
0000
0000
0100
0000
0000
1000
0000
0000
0001
0000
0000
0000
1000
0000
0000
0000
0100
0000
0000
0000
1000
0000
0000
0010
0000
0000
0100
0000
0000
0001
0000
0000
0010
0000
0000
0000
0100
0000
0000
0000
1000
0000
0000
0000
,
0001
0000
0000
0100
0000
0000
0001
0000
0000
1000
0000
0000
0100
0000
0000
0000
0010
0000
0000
0000
0001
0000
0000
0000
2000
0000
0000
0000
0000
0000
3200
0000
0000
0000
0000
0000
0320
0000
0000
0000
0000
0000
0230
0000
0000
0000
0000
0000
,
1300
0100
0010
0001
1000
0100
0010
0001
1000
0010
0100
0001
1000
0010
0100
0001
,
0010
0100
1000
0001
0010
0100
1000
0001
0100
0010
1000
0001
0100
0010
1000
0100
,
0020
0032
0203
0302
,
0023
0000
0000
0000
0000
0000
0000
0000
0130
1000
0001
0100
0001
1000
0100
1000
,
0001
1000
0010
1000
0100
0010
0001
1000
0001
0100
0001
0010
0100
1000
0001
1000
,
0002
0203
0302
2003
3200
2300
3002
0203
,
0302
0000
2003
0000
,
3200
0320
0032
0203
0302
0023
0230
2300
,
3001
0100
0001
0100
0010
1000
0010
1000
0100
1000
0100
0010
0001
0010
0001
1000
,
0020
0000
0230
0000
0302
0000
0023
0000
0230
0000
2300
0000
3001
1000
0100
1000
,
0020
0230
0302
0023
,
0130
0000
0000
0000
,
1000
0000
0000
0010
0000
0000
0100
0000
0000
0001
0000
0000
1000
0000
0000
0000
0100
0000
0000
0000
0010
0000
0000
0000
0001
0000
0000
1000
0000
0000
0010
0000
0000
1000
0000
0000
0100
0000
0000
0000
0010
0000
0000
0000
0001
0000
0000
0000
,
1000
0000
0000
0001
0000
0000
0100
0000
0000
0001
0000
0000
0010
0000
0000
0000
0100
0000
0000
0000
1000
0000
0000
0000
0001
0000
0000
1000
0000
0000
0100
0000
0000
1000
0000
0000
0010
0000
0000
0000
0100
0000
0000
0000
0001
0000
0000
0000
,
1000
0000
0000
0100
0000
0000
0010
0000
0000
0001
0000
0000
0010
0000
0000
0000
0100
0000
0000
0000
1000
0000
0000
0000
0001
0000
0000
1000
0000
0000
0010
0000
0000
1000
0000
0000
0100
0000
0000
0000
0010
0000
0000
0000
0001
0000
0000
0000
,
1000
0000
0000
0001
0000
0000
0100
0000
0000
0001
0000
0000
0010
0000
0000
0000
0100
0000
0000
0000
1000
0000
0000
0000
0001
0000
0000
1000
0000
0000
0010
0000
0000
1000
0000
0000
0100
0000
0000
0000
0010
0000
0000
0000
0001
0000
0000
0000
,
1000
0000
0000
0001
0000
0000
0100
0000
0000
0001
0000
0000
0010
0000
0000
0000
0100
0000
0000
0000
1000
0000
0000
0000
0100
0000
0000
1000
0000
0000
0010
0000
0000
1000
0000
0000
0100
0000
0000
0000
0010
0000
0000
0000
0001
0000
0000
0000
,
1000
0000
0000
0001
0000
0000
0100
0000
0000
0001
0000
0000
0010
0000
0000
0000
0100
0000
0000
0000
1000
0000
0000
0000
0001
0000
0000
0100
0000
0000
0001
0000
0000
0100
0000
0000
0001
0000
0000
0000
0010
0000
0000
0000
0100
0000
0000
0000
,
2000
3020
0030
0000
,
0000
0000
0000
1111
,
0100
0001
0010
0100
1000
0001
0100
0001
1000
0100
1000
0010
0100
0001
0010
0100
,
1000
0001
0100
0001
1000
0010
1000
0100
0010
0001
1000
0001
0100
0001
0010
0100
,
1000
0001
0100
0001
1000
0100
0010
0001
1000
0010
1000
0100
0010
0100
1000
0010
,
0100
0001
0010
0100
1000
0001
0100
0001
2000
0000
3200
0000
0320
0000
0230
0000
,
1300
0010
1000
0100
0010
0001
1000
0001
,
0100
0001
0010
0100
1000
0010
0100
0001
,
1000
0100
1000
0010
0100
0001
0010
0100
,
1000
0001
0100
0001
2000
3010
0100
0001
,
1000
0100
0010
0001
1000
0001
0100
0001
,
0010
0100
1000
0010
1000
0001
0100
0001
,
0010
0100
1000
0001
0100
0001
0010
0100
,
1000
0010
0100
0001
0010
0001
1000
0100
,
0010
0001
1000
0100
1000
0010
0100
0001
,
1000
0001
0010
0001
1000
0100
0010
0001
,
1000
0010
0100
0001
1000
0001
0010
0001
,
1000
0000
0100
0000
0010
0000
0001
0000
1000
0100
1000
0010
0100
0001
1000
0100
,
0010
0010
0001
1000
0001
0100
0001
0010
,
0100
1000
0010
1000
0100
1000
0001
0100
,
0001
0010
0100
1000
0010
0100
0001
1000
,
0100
1000
0010
0100
0002
0000
0000
0000
,
0013
0100
1000
0001
0100
0001
1000
0100
,
0010
0000
0001
0000
1000
0000
0010
0000
0100
0000
0001
0000
0001
1000
0100
1000
,
0010
0000
0100
0000
0001
0000
0010
0000
0100
1000
0010
1000
0100
0010
0001
1000
,
0002
0000
0000
0000
0203
0000
0000
0000
0320
0000
0000
0000
1030
0100
0010
0001
,
1000
0010
1000
0100
0010
0001
1000
0001
,
0100
0001
0010
0100
1000
0001
1000
0100
,
1000
0001
0100
0001
0010
0100
1000
0010
,
1000
0100
1000
0001
0100
0001
0010
0100
,
1000
0010
0100
0001
1000
0100
1000
0010
,
0100
0000
0001
0000
0010
0000
0100
0000
1000
0000
0001
0000
1000
0100
0010
0001
,
1000
0010
0100
0001
0010
0100
1000
0001
,
0200
0000
0300
0000
0200
0300
0200
0300
,
0010
0000
0000
1000
0000
0000
0100
0000
0000
1000
0000
0000
0010
0000
0000
0000
0100
0000
0000
0000
0001
0000
0000
0000
1000
0000
0000
0100
0000
0000
1000
0000
0000
0010
0000
0000
0100
0000
0000
0000
0001
0000
0000
0000
0010
0000
0000
0000
,
0100
0000
0000
1000
0000
0000
0001
0000
0000
0100
0000
0000
0001
0000
0000
0000
0010
0000
0000
0000
0100
0000
0000
0000
1000
0000
0000
0000
0000
0000
1000
0000
0000
0000
0000
0000
0010
0000
0000
0000
0000
0000
0010
0000
0000
0000
0000
0000
,
0100
0000
0000
0001
0000
0000
1000
0000
0000
0100
0000
0000
1000
0000
0000
0000
0010
0000
0000
0000
0100
0000
0000
0000
0001
0000
0000
0010
0000
0000
0100
0000
0000
1000
0000
0000
0001
0000
0000
0000
1000
0000
0000
0000
0100
0000
0000
0000
,
1000
0000
0000
0010
0000
0000
0100
0000
0000
0001
0000
0000
1000
0000
0000
0000
0100
0000
0000
0000
0010
0000
0000
0000
0002
0000
0000
0000
0000
0000
0000
0000
0000
0000
0000
0000
1003
0000
0000
0000
0000
0000
0100
0000
0000
1000
0000
0000
,
0010
0100
0001
1000
0100
1000
0010
0100
,
0001
0010
0100
1000
0001
0100
0001
1000
,
0100
0010
0001
1000
0010
0100
0001
1000
,
0002
0023
0230
2300
3002
0203
0302
0023
,
0130
1000
0001
1000
0010
1000
0100
1000
0010
0100
0001
0100
0001
0010
0100
1000
,
0001
0100
0001
1000
0100
0010
0100
1000
0100
1000
0010
0100
0001
0000
0010
0100
,
1000
0001
0100
0001
1000
0010
0100
0001
,
0010
0100
1000
0001
1000
0200
0320
0032
,
1003
0010
0100
0001
1000
0100
1000
0010
,
0100
0001
0010
0100
1000
0001
1000
0200
,
0310
0000
0001
1000
0000
0000
0001
0100
0000
0000
0001
1000
0000
0000
0001
0100
,
0020
0000
2030
0000
,
3100
0010
0001
1000
0010
1000
0100
0010
0001
0010
0001
1000
0010
0100
0001
1000
,
0001
0010
0100
1000
0001
0100
0001
0100
0010
1000
0100
1000
0100
0010
0001
1000
,
0010
0100
0001
1000
0001
0010
0100
1000
0001
0100
0001
1000
0100
1000
0010
0100
,
0001
1000
0001
1000
0010
0100
0001
1000
0002
0000
2003
0000
3020
0000
0230
0000
,
0301
1000
0100
1000
0010
0100
0001
0100
,
0001
0010
0100
1000
0010
0100
0001
1000
,
0100
0000
0010
0001
0000
0000
1000
0010
0000
0000
0100
0001
0000
0000
0010
0100
,
1000
0000
0001
0000
0100
0000
0001
0000
0010
0000
0100
0000
1000
0010
1000
0100
,
0010
0001
1000
0010
1000
0100
1000
0100
0010
0001
0010
0001
1000
0010
0100
0001
,
1000
0001
1000
0100
1000
0010
0100
0001
0100
0001
0010
0100
1000
0001
1000
0010
,
1000
0100
1000
0100
0010
0001
0010
0001
1000
0010
0100
0001
1000
0001
1000
0010
,
0100
0001
0100
0001
0010
0100
1000
0010
0100
0001
1000
0100
0020
0000
0000
0000
,
0130
1000
0001
0100
0001
1000
0010
1000
,
0100
1000
0010
0100
0001
1000
0010
1000
,
0200
0320
0032
0203
0302
0023
0230
2300
,
3001
0100
0000
0000
0010
1000
0000
0000
0110
0000
0000
0000
0010
0000
0000
0000
,
0020
0000
0000
0000
,
0000
0000
0000
0000
,
0030
0000
0000
0000
,
MMMM
0000
0000
0000
;

//---------------dance-single - ----------------
#NOTES:
     dance-single:
     :
     Medium:
     17:
     1.000,1.000,0.041,1.000,1.000,3212.000,14.000,390.000,27.000,1.000:
0000
0000
0000
0000
,
2000
3020
0000
0230
,
0000
0302
0000
2003
,
0000
3200
0000
0320
,
0031
1000
0010
1000
0100
0010
0001
1000
,
0002
0203
0000
0320
,
0000
2030
0000
3200
,
0000
0320
0000
0032
,
0000
0000
2003
0000
0000
0000
3100
0010
,
0001
1000
0010
1000
0100
0010
0001
1000
0001
0100
0001
0010
0100
1000
0001
1000
,
0100
1000
0010
0100
0001
0010
0001
1000
0100
0010
0001
1000
0010
1000
0100
1000
,
0010
0100
0001
0010
0100
1000
0001
0100
0001
1000
0100
0010
0001
1000
0010
0100
,
0001
1000
0001
0010
0100
1000
0001
0100
0001
2000
0000
0000
0000
0000
0000
0000
,
3100
0010
0001
1000
0001
0100
0001
0010
0100
1000
0010
1000
0100
1000
0010
0100
,
0001
0010
0100
1000
0001
0100
0001
1000
0100
0010
0001
1000
0010
0100
0001
1000
,
0001
0010
0001
1000
0100
0010
0001
1000
0010
1000
0100
1000
0010
0100
0001
0010
,
0100
1000
0001
0100
0001
1000
0100
0010
0001
2000
0000
0000
0000
0000
0000
0000
,
3100
0010
0001
1000
0010
1000
0100
1000
0010
0100
0001
0010
0100
1000
0001
0100
,
0001
1000
0100
1000
0010
0100
0001
0010
0100
1000
0001
1000
0100
1000
0010
0100
,
0001
0010
0001
1000
0100
0010
0001
1000
0010
1000
0100
1000
0010
0100
0001
0010
,
0100
1000
0001
0100
0001
0010
0100
1000
0001
2000
0000
0000
0000
0000
0000
0000
,
3010
0100
0001
1000
0001
0010
0100
1000
0001
0100
0001
1000
0010
1000
0100
1000
,
0010
0100
0001
0010
0100
1000
0001
0100
0001
1000
0010
0100
0010
1000
0010
0100
,
0010
1000
0100
0010
0001
1000
0001
0100
0001
0010
0100
1000
0001
0100
0001
1000
,
0100
0010
0001
1000
0010
0100
0001
1000
0001
0020
0000
0000
0000
0000
0000
0000
,
0130
1000
0001
0100
0001
1000
0010
0100
0001
1000
0001
0010
0001
1000
0100
0010
,
0001
1000
0010
0100
0001
1000
0100
1000
0010
0100
0001
0010
0001
1000
0100
0010
,
0001
1000
0100
1000
0010
0100
0001
0010
0001
1000
0100
0010
0001
1000
0010
0100
,
0001
1000
0100
1000
0010
0100
0001
0010
0100
2000
0000
0000
0000
0000
0000
0000
,
3020
0230
0302
2003
3200
2300
3020
0230
,
0302
2003
3002
0023
0032
2003
3200
0320
,
0031
1000
0010
1000
0100
0010
0001
1000
0001
0100
0001
0010
0100
1000
0001
1000
,
0010
0110
0101
0011
0002
0000
2003
0000
,
3020
0230
0302
2003
,
3200
0000
0320
0000
0031
0001
1000
1000
,
0020
0230
0302
2003
,
3200
0000
0000
0000
2300
0000
0000
0000
3020
0000
0000
0000
0000
0000
0130
0001
,
2000
3200
2300
3020
,
0230
0320
2030
3200
,
0320
0032
2003
3002
,
0203
0320
2030
3200
0320
0032
2003
3020
,
0130
0001
1000
0100
1000
0010
0100
0001
0010
0100
1000
0001
1000
0100
0010
0001
,
1000
0010
1000
0100
1000
0010
0100
0001
0010
0100
1000
0001
0100
0001
1000
0100
,
0010
0001
1000
0001
0010
0001
1000
0100
0010
0001
1000
0010
0100
0001
1000
0100
,
1000
0010
0100
0001
0010
0100
1000
0001
0100
0001
1000
0100
0010
0001
1000
0010
,
1000
0100
1000
0010
0100
0001
0010
0100
1000
0001
0100
0001
1000
0100
0010
0001
,
1000
0001
1000
0001
0010
0001
1000
0001
0020
0000
0000
0000
0230
0000
0000
0000
,
1300
0001
0100
0001
1000
0100
1000
0010
2000
0000
0000
0000
3200
0000
0000
0000
,
0320
0000
0000
0000
0030
0000
0000
0000
0011
0000
0000
0000
0001
1000
0100
1000
,
0010
0100
0001
1000
0100
1000
0100
0010
0001
1000
0010
1000
0010
0100
0001
1000
,
0001
0010
0100
1000
0100
1000
0010
0100
0001
1000
0001
1000
0100
0010
0001
0010
,
0001
1000
0010
0100
0001
0100
0001
0010
0100
1000
0010
0100
0001
1000
0001
0010
,
0100
1000
0001
0100
0001
0010
0100
1000
0001
0000
0001
0000
1000
0000
0100
0000
,
0010
0001
1000
0001
0100
0001
0010
0100
1000
0010
0100
0001
1000
0001
1000
0100
,
1000
0010
0100
0001
0100
0001
0010
0100
1000
0001
1000
0010
1000
0100
1000
0100
,
0010
0001
0010
0001
1000
0010
0100
0001
0100
0001
0010
0100
1000
0010
1000
0010
,
0100
0001
1000
0001
0010
0100
1000
0001
0020
0000
0230
0000
2300
0000
3002
0000
,
0013
0000
0000
0100
0000
0000
1000
0000
0000
0010
0000
0000
0100
0000
0000
0000
0001
0000
0000
0000
1000
0000
0000
0000
0001
0000
0000
0010
0000
0000
0100
0000
0000
1000
0000
0000
0001
0000
0000
0000
1000
0000
0000
0000
0100
0000
0000
0000
,
1000
0000
0000
0010
0000
0000
0100
0000
0000
0001
0000
0000
1000
0000
0000
0000
0100
0000
0000
0000
0010
0000
0000
0000
0001
0000
0000
1000
0000
0000
0010
0000
0000
1000
0000
0000
0100
0000
0000
0000
0010
0000
0000
0000
0001
0000
0000
0000
,
1000
0000
0000
0010
0000
0000
0100
0000
0000
0001
0000
0000
0010
0000
0000
0000
0100
0000
0000
0000
1000
0000
0000
0000
0001
0000
0000
1000
0000
0000
0100
0000
0000
1000
0000
0000
0010
0000
0000
0000
0100
0000
0000
0000
0001
0000
0000
0000
,
0010
0000
0000
0100
0000
0000
1000
0000
0000
0001
0000
0000
1000
0000
0000
0000
0010
0000
0000
0000
0100
0000
0000
0000
0010
0000
0000
1000
0000
0000
0100
0000
0000
0010
0000
0000
0002
0000
0000
0000
0000
0000
0000
0000
0000
0000
0000
0000
,
1003
0100
0010
0001
1000
0001
0100
0001
0010
0100
1000
0001
1000
0010
0100
0001
,
0010
0100
1000
0010
1000
0100
0010
0001
1000
0001
0100
0001
0010
0100
1000
0001
,
2000
3200
0320
0032
0023
0230
2300
3200
,
0320
0032
0203
0000
,
0310
0000
0000
1000
0000
0000
0100
0000
0000
0010
0000
0000
0100
0000
0000
0000
1000
0000
0000
0000
0010
0000
0000
0000
1000
0000
0000
0100
0000
0000
0010
0000
0000
0001
0000
0000
1000
0000
0000
0000
0001
0000
0000
0000
0100
0000
0000
0000
,
0001
0000
0000
0010
0000
0000
0100
0000
0000
1000
0000
0000
0001
0000
0000
0000
1000
0000
0000
0000
0010
0000
0000
0000
0100
0000
0000
0001
0000
0000
0010
0000
0000
0001
0000
0000
1000
0000
0000
0000
0100
0000
0000
0000
0010
0000
0000
0000
,
0001
0000
0000
1000
0000
0000
0010
0000
0000
1000
0000
0000
0100
0000
0000
0000
0010
0000
0000
0000
0001
0000
0000
0000
1000
0000
0000
0001
0000
0000
0010
0000
0000
0001
0000
0000
1000
0000
0000
0000
0100
0000
0000
0000
0010
0000
0000
0000
,
0001
0000
0000
1000
0000
0000
0010
0000
0000
0100
0000
0000
0001
0000
0000
0000
1000
0000
0000
0000
0100
0000
0000
0000
1000
0000
0000
0000
0000
0000
0010
0000
0000
0000
0000
0000
0010
0000
0000
0000
0000
0000
0100
0000
0000
0000
0000
0000
,
0001
0010
0100
1000
0001
1000
0100
1000
0010
0100
0001
1000
0100
1000
0010
0100
,
0001
0000
0000
1000
0000
0000
0100
0000
0000
1000
0000
0000
0010
0000
0000
0000
0100
0000
0000
0000
0001
0000
0000
0000
1000
0000
0000
0100
0000
0000
0010
0000
0000
0001
0000
0000
0010
0000
0000
0000
0100
0000
0000
0000
1000
0000
0000
0000
,
0001
0000
0000
1000
0000
0000
0010
0000
0000
1000
0000
0000
0010
0000
0000
0000
0100
0000
0000
0000
0001
0000
0000
0000
1000
0000
0000
0100
0000
0000
0010
0000
0000
0100
0000
0000
0010
0000
0000
0000
0001
0000
0000
0000
1000
0000
0000
0000
,
0100
0010
0001
1000
0010
0000
0100
0000
0002
0000
2003
0000
3200
0000
2300
0000
,
3010
0100
0001
1000
0100
1000
0010
0100
0001
0010
0001
1000
0100
0010
0001
1000
,
0010
0100
0001
1000
0001
0010
0001
1000
0100
0010
0001
1000
0010
0100
0001
1000
,
0100
1000
0010
0100
0001
0010
0100
1000
0001
0100
0001
1000
0100
0010
0001
1000
,
0010
0100
0001
1000
0001
0010
0001
1000
0100
0010
0001
1000
0200
2300
3020
0230
,
0301
1000
0100
1000
0010
0100
0001
0010
0001
1000
0100
0010
0100
1000
0010
0100
,
0001
1000
0100
1000
0010
0100
0001
0010
0001
1000
0100
0010
0001
1000
0010
1000
,
0100
0010
0000
0000
0001
0100
0000
0000
0010
1000
0000
0000
0100
0010
0000
0000
,
0002
2003
3200
2300
3001
0100
0010
1000
,
0200
0320
0032
2003
,
3000
MMMM
0000
0000
0000
0000
0000
MMMM
,
0020
0230
0302
2003
,
3200
0300
0200
0300
0200
0300
0200
0300
,
0020
0032
2003
3020
,
0030
MMMM
0000
0000
0000
0000
0000
MMMM
,
0200
0302
2003
3200
,
0310
0001
1000
0001
0100
0001
0010
0100
1000
0010
0100
0001
,
2000
3200
0320
0032
,
2003
3020
0230
0302
,
2003
3200
2300
3002
,
0203
0302
2003
3200
,
0320
0032
2003
3200
2300
3020
0230
0302
,
2003
3200
2300
3020
0230
0302
0023
0230
,
1300
0001
0100
0001
0010
0100
1000
0001
1000
0100
1000
0010
1000
0100
0010
0001
,
1000
1000
0100
0100
0020
0000
0032
0000
,
1003
0100
0010
0100
1000
0010
1000
0010
0100
0001
1000
0001
1000
0010
0100
0001
,
0100
0001
0010
0100
1000
0010
0100
0001
1000
0100
1000
0010
0100
0001
1000
0001
,
0100
0001
0010
0100
1000
0010
1000
0001
1000
0100
1000
0100
0010
0001
0010
0001
,
1000
0010
1000
0010
0100
0001
1000
0100
0010
0000
0010
0000
0001
0000
0001
0000
,
1000
0100
0010
0001
1000
0001
1000
0010
1000
0010
0100
0001
1000
0001
0010
0100
,
1000
0001
0100
0001
1000
0010
1000
0010
0100
0001
1000
0001
1000
0100
0010
0001
,
0010
0001
1000
0010
0100
0001
1000
0001
1000
0010
0100
0001
0100
0001
0010
0100
,
2000
3020
0230
0000
,
0301
0000
0000
0010
0000
0000
0100
0000
0000
1000
0000
0000
0001
0000
0000
0000
1000
0000
0000
0000
0010
0000
0000
0000
1000
0000
0000
0100
0000
0000
0010
0000
0000
0001
0000
0000
1000
0000
0000
0000
0010
0000
0000
0000
0100
0000
0000
0000
,
0001
0000
0000
0010
0000
0000
0100
0000
0000
1000
0000
0000
0100
0000
0000
0000
0010
0000
0000
0000
0001
0000
0000
0000
1000
0000
0000
0010
0000
0000
0100
0000
0000
0001
0000
0000
1000
0000
0000
0000
0100
0000
0000
0000
1000
0000
0000
0000
,
0010
0000
0000
0100
0000
0000
0001
0000
0000
1000
0000
0000
0100
0000
0000
0000
1000
0000
0000
0000
0010
0000
0000
0000
1000
0000
0000
0100
0000
0000
0010
0000
0000
0001
0000
0000
1000
0000
0000
0000
0001
0000
0000
0000
0010
0000
0000
0000
,
0001
0000
0000
1000
0000
0000
0100
0000
0000
0010
0000
0000
0001
0000
0000
0000
1000
0000
0000
0000
0010
0000
0000
0000
1000
0000
0000
0000
0000
0000
1000
0000
0000
0000
0000
0000
0002
0000
0000
0000
0000
0000
0000
0000
0000
0000
0000
0000
,
1003
0100
0010
0100
1000
0010
0100
0001
1000
0001
0010
0001
1000
0100
0010
0001
,
1000
0010
0100
0001
1000
0100
1000
0010
0100
0001
0010
0100
1000
0001
0100
0001
,
1000
0100
0010
0001
1000
0010
1000
0100
,
0010
0000
0001
0000
1000
0000
0100
0000
0010
0001
0100
0001
0010
0100
1000
0001
,
1000
0100
0010
0001
1000
0001
0100
0001
0100
0010
1000
0100
0010
0001
1000
0001
,
1000
0010
0100
0001
0100
0001
0010
0100
1000
0010
1000
0100
0010
0001
1000
0001
,
0200
0000
0320
0000
,
2030
0000
3200
0000
,
0310
0001
1000
0001
0100
0001
0100
0010
1000
0100
1000
0100
0010
0001
1000
0010
,
1000
0010
0100
0001
1000
0001
1000
0100
0010
0001
1000
0010
0100
0001
1000
0001
,
0010
0000
0000
0000
,
0000
0000
0000
0000
0000
0000
0000
0000
0000
0000
0000
0000
0000
0000
0100
1000
,
0010
0100
0001
1000
0100
1000
0010
0100
0001
0010
0100
1000
0001
0100
0001
1000
,
0010
0100
0001
0010
0100
1000
0001
0100
0001
1000
0100
0010
0001
1000
0010
0100
,
0002
0000
0000
0203
0000
0320
0000
0000
,
1030
0100
0010
0001
0010
0100
2000
0000
,
3001
1000
0100
1000
0010
0100
0001
0010
0100
1000
0001
0100
0001
1000
0100
0010
,
0001
1000
0010
0100
0001
1000
0001
0010
0001
1000
0100
0010
0100
1000
0010
0100
,
0001
1000
0100
1000
0010
0100
0001
0010
0100
1000
0001
0100
0001
1000
0001
0010
,
0100
1000
0010
0000
0100
0001
0010
0000
0100
1000
0010
0000
0100
0001
0010
0000
,
0100
1000
0100
1000
0100
1000
0100
1000
0100
1000
0100
1000
0100
1000
0100
1000
,
0100
0010
0100
0010
0100
0010
0100
0010
0100
0010
0100
0010
0100
0010
0100
0010
,
0100
1000
0100
1000
0100
1000
0100
1000
0100
1000
0100
1000
0100
1000
0100
1000
,
0020
0000
0000
0000
0030
0100
0010
0100
0010
0100
0010
0100
0010
0100
0010
0100
,
0010
1000
0010
1000
0010
1000
0010
1000
0010
1000
0010
1000
0010
1000
0010
1000
,
0100
0010
0100
0010
0100
0010
0100
0010
0100
0010
0100
0010
0100
0010
0100
0010
,
0002
0000
0000
0000
1003
0100
1000
0100
1000
0100
1000
0100
1000
0100
1000
0100
,
0020
0032
2003
3200
2300
3020
0230
0302
,
1003
0100
0010
0001
1000
0100
0010
0001
1000
0010
0100
0001
1000
0010
0100
0001
,
1000
0100
0010
0001
1000
0100
0010
0001
1000
0010
0100
0001
1000
0010
0100
0001
,
2000
0000
0000
0000
3100
0010
0001
1000
0001
0100
0001
0010
0100
1000
0001
1000
,
0100
0100
0010
0010
0001
0001
1000
1000
,
0220
0000
0000
0330
,
2200
0000
0000
3300
,
0220
0000
0000
0330
,
1100
0011
0000
1100
0000
1100
0000
1100
,
1000
0100
0010
0001
0100
0001
0100
0010
1000
0100
1000
0010
0100
0010
0100
0001
,
0010
0100
1000
0001
0100
0001
0010
0001
0100
0010
1000
0100
1000
0010
0100
0001
,
1000
0001
1000
0100
1000
0010
0100
0001
0100
0001
0010
0100
1000
0001
1000
0010
,
0100
0010
1000
0100
0010
0001
1000
0001
2000
0000
3200
0000
0320
0000
0032
0000
,
1003
0000
0000
0100
0000
0000
0010
0000
0000
0001
0000
0000
1000
0000
0000
0000
0001
0000
0000
0000
0100
0000
0000
0000
0001
0000
0000
1000
0000
0000
0010
0000
0000
1000
0000
0000
0100
0000
0000
0000
0010
0000
0000
0000
0001
0000
0000
0000
,
1000
0000
0000
0100
0000
0000
1000
0000
0000
0100
0000
0000
1000
0000
0000
0000
0010
0000
0000
0000
0100
0000
0000
0000
0001
0000
0000
0010
0000
0000
0001
0000
0000
0010
0000
0000
0001
0000
0000
0000
0010
0000
0000
0000
0100
0000
0000
0000
,
1000
0001
1000
0000
0001
1000
0001
0000
1000
0001
1000
0000
0001
1000
0001
0000
,
1000
0100
1000
0010
1000
0100
1000
0010
0200
0000
0302
0000
0023
0000
0230
0000
,
1300
0001
0100
0001
0010
0100
1000
0010
0100
0001
1000
0100
1000
0010
0100
0001
,
0010
0100
1000
0001
0100
0001
1000
0100
0010
0001
1000
0010
1000
0100
1000
0010
,
0100
0001
0100
0001
0010
0100
1000
0001
0100
0001
1000
0010
0100
0001
1000
0001
,
1000
0100
1000
0100
0010
0001
0010
0001
1000
0000
1000
0000
0200
0000
0000
0000
,
0310
0001
1000
0001
0100
0001
0010
0100
1000
0010
0100
0001
1000
0100
1000
0010
,
0100
0001
0010
0100
1000
0001
0100
0001
1000
0100
0010
0001
1000
0010
0100
0001
,
2000
3002
2003
3002
0203
0302
0023
0230
,
2300
0000
0000
0000
3020
0000
0000
0000
0130
0001
1000
0100
1000
0001
0100
0001
,
1000
0100
0010
0100
1000
0010
0100
0001
0010
0001
1000
0100
0010
0001
1000
0010
,
0100
0001
1000
0100
1000
0010
0100
0001
0010
0100
1000
0001
0100
0001
1000
0100
,
0010
0001
1000
0010
0100
0001
1000
0100
1000
0010
0100
0001
0010
0100
1000
0001
,
1000
1000
0100
0100
0010
0010
0001
0001
,
1000
0100
0010
0100
1000
0010
0100
0010
1000
0100
0010
0100
1000
0010
0100
0001
,
0010
0100
0010
0001
0100
0001
0010
0100
0010
0001
1000
0100
1000
0010
0100
0001
,
1000
2000
3020
0230
,
0302
0000
0000
0000
0000
0000
0023
0000
0000
0030
0000
0000
0020
0000
0000
0030
0000
0000
0001
1000
0001
1000
0001
1000
,
0001
1000
0100
1000
0010
0100
0001
0010
0001
1000
0100
1000
0010
0100
0001
0010
,
0001
1000
0100
0010
0100
1000
0010
0100
0001
1000
0001
0010
0001
1000
0100
0010
,
0001
1000
0010
0100
0001
1000
0001
0010
0001
1000
0100
0010
0100
1000
0010
0100
,
0001
1000
0001
0010
0001
1000
0100
0010
0100
1000
0010
0100
0001
1000
0001
0010
,
0001
1000
0100
0010
0100
1000
0010
0100
0001
1000
0001
0010
0100
1000
0001
0100
,
0001
1000
0100
1000
0010
0100
0001
1000
0100
0010
0100
1000
0010
0100
0001
0010
,
0100
0000
0100
0000
1000
0000
0010
0000
0100
0001
0100
0001
0010
0100
1000
0100
,
1000
0010
0100
0001
0010
0100
1000
0010
,
0200
0000
0000
0000
,
0000
0000
0000
0000
,
M3MM
0000
0000
0000
,
0000
0000
0000
0000
0000
0000
0000
0000
0000
0000
0000
0000
0001
0010
0100
1000
,
0002
0203
0302
0023
,
0230
2300
3002
2003
,
3200
0320
0032
2003
,
3020
2030
3200
2300
,
3020
0230
0302
0023
,
0230
2300
3002
0203
,
0302
2003
3200
0320
,
0230
2300
3020
0230
,
0302
2003
3200
2300
,
3002
0203
0302
0023
,
0230
2300
3020
2030
,
3200
0320
0032
2003
,
3002
0203
0302
0023
,
0230
2300
3020
2030
,
3200
2300
3020
0230
,
0302
0023
0230
2300
,
3001
0000
0000
0000
,
2000
3000
0000
0000
,
0200
0300
0020
0000
0030
0000
0002
0003
,
0000
0000
0000
0000
0000
0000
0000
0000
0000
0000
0000
0000
0100
0010
1000
0100
,
0020
0032
2003
3020
,
0230
0302
2003
3200
2300
3020
0230
0302
,
0013
0000
0000
0000
,
0000
0000
0000
0200
,
2300
3002
2003
3002
,
2003
3200
0320
0230
2300
3200
0320
0230
,
1300
0001
0100
0001
0010
0100
1000
0010
0100
0001
1000
0100
1000
0010
0100
0001
,
0010
0000
MMMM
0000
,
0100
0000
0000
1000
0000
0000
0001
0000
0000
0100
0000
0000
0001
0000
0000
0000
0010
0000
0000
0000
0100
0000
0000
0000
1000
0000
0000
0001
0000
0000
0100
0000
0000
0001
0000
0000
1000
0000
0000
0000
0010
0000
0000
0000
0100
0000
0000
0000
,
0001
0000
0000
0010
0000
0000
0100
0000
0000
1000
0000
0000
0001
0000
0000
0000
1000
0000
0000
0000
0100
0000
0000
0000
1000
0000
0000
0010
0000
0000
0100
0000
0000
0001
0000
0000
1000
0000
0000
0000
0100
0000
0000
0000
0010
0000
0000
0000
,
0001
0000
0000
1000
0000
0000
0010
0000
0000
1000
0000
0000
0100
0000
0000
0000
0010
0000
0000
0000
0001
0000
0000
0000
1000
0000
0000
0010
0000
0000
0100
0000
0000
0001
0000
0000
0010
0000
0000
0000
0100
0000
0000
0000
1000
0000
0000
0000
,
0001
0000
0000
1000
0000
0000
0100
0000
0000
1000
0000
0000
0010
0000
0000
0000
0100
0000
0000
0000
0001
0000
0000
0000
1000
0000
0000
0001
0000
0000
0010
0000
0000
0100
0000
0000
1000
0000
0000
0000
0001
0000
0000
0000
0100
0000
0000
0000
,
0001
1000
0010
1000
0100
0010
0001
1000
0001
0100
0001
0010
0100
1000
0100
1000
,
0010
0100
0001
0010
0100
1000
0001
0100
0001
1000
0010
1000
0010
0100
0001
0010
,
0100
1000
0001
0100
0001
0010
0001
0100
0001
1000
0001
1000
0100
1000
0010
0100
,
0001
0100
0001
0010
0100
1000
0001
0100
0002
0000
0203
0000
0302
0000
0023
0000
,
0031
1000
0100
0010
0100
1000
0010
0100
0001
1000
0001
0010
0001
1000
0100
0010
,
0100
1000
0010
0100
0001
1000
0001
0010
0001
1000
0100
0010
0001
1000
0010
0100
,
0001
1000
0100
1000
0010
0100
0001
0010
0100
0010
0001
1000
0100
1000
0010
0100
,
0001
1000
0001
0010
0001
1000
0100
0010
0002
0000
0203
0000
0320
0000
2030
0000
,
3100
0010
0001
1000
0010
0100
0001
1000
0100
0010
0001
1000
0010
0100
0001
1000
,
0100
0010
0001
1000
0010
0100
0001
1000
0100
0010
0001
1000
0010
0100
0001
1000
,
0200
0320
0032
2003
,
3200
0000
0000
0000
0000
0000
0000
0000
0310
0001
1000
0001
0100
0001
0010
0100
,
1000
0010
0100
0001
1000
0100
1000
0010
0100
0001
0010
0100
1000
0001
0100
0001
,
2000
3200
0320
0230
2300
3200
0320
0230
,
2300
0000
0000
3000
2000
0000
0000
0000
,
3200
0320
0032
0203
0302
0023
0230
2300
,
3001
0100
0001
0100
0010
1000
0010
1000
0100
1000
0100
0010
0001
0010
0001
1000
,
0020
0000
0230
0000
0302
0000
0023
0000
0230
0000
2300
0000
3001
1000
0100
1000
,
0020
0230
0302
0023
,
0130
0000
0000
0000
,
1000
0000
0000
0010
0000
0000
0100
0000
0000
0001
0000
0000
1000
0000
0000
0000
0100
0000
0000
0000
0010
0000
0000
0000
0001
0000
0000
1000
0000
0000
0010
0000
0000
1000
0000
0000
0100
0000
0000
0000
0010
0000
0000
0000
0001
0000
0000
0000
,
1000
0000
0000
0001
0000
0000
0100
0000
0000
0001
0000
0000
0010
0000
0000
0000
0100
0000
0000
0000
1000
0000
0000
0000
0001
0000
0000
1000
0000
0000
0100
0000
0000
1000
0000
0000
0010
0000
0000
0000
0100
0000
0000
0000
0001
0000
0000
0000
,
1000
0000
0000
0100
0000
0000
0010
0000
0000
0001
0000
0000
0010
0000
0000
0000
0100
0000
0000
0000
1000
0000
0000
0000
0001
0000
0000
1000
0000
0000
0010
0000
0000
1000
0000
0000
0100
0000
0000
0000
0010
0000
0000
0000
0001
0000
0000
0000
,
1000
0000
0000
0001
0000
0000
0100
0000
0000
0001
0000
0000
0010
0000
0000
0000
0100
0000
0000
0000
1000
0000
0000
0000
0001
0000
0000
1000
0000
0000
0010
0000
0000
1000
0000
0000
0100
0000
0000
0000
0010
0000
0000
0000
0001
0000
0000
0000
,
1000
0100
1000
0010
0100
0001
0010
0100
1000
0001
0100
0001
1000
0100
0010
0001
,
1000
0010
0100
0001
1000
0001
0010
0001
1000
0100
0010
0001
1000
0010
0100
0001
,
2000
3020
0030
0000
,
0000
0000
0000
1111
,
0100
0001
0010
0100
1000
0001
0100
0001
1000
0100
1000
0010
0100
0001
0010
0100
,
1000
0001
0100
0001
1000
0010
1000
0100
0010
0001
1000
0001
0100
0001
0010
0100
,
1000
0001
0100
0001
1000
0100
0010
0001
1000
0010
1000
0100
0010
0100
1000
0010
,
0100
0001
0010
0100
1000
0001
0100
0001
2000
0000
3200
0000
0320
0000
0230
0000
,
1300
0010
1000
0100
0010
0001
1000
0001
,
0100
0001
0010
0100
1000
0010
0100
0001
,
1000
0100
1000
0010
0100
0001
0010
0100
,
1000
0001
0100
0001
2000
3010
0100
0001
,
1000
0100
0010
0001
1000
0001
0100
0001
,
0010
0100
1000
0010
1000
0001
0100
0001
,
0010
0100
1000
0001
0100
0001
0010
0100
,
1000
0010
0100
0001
0010
0001
1000
0100
,
0010
0001
1000
0001
0100
0001
0010
0100
1000
0001
0100
0001
1000
0100
1000
0010
,
0100
0001
0010
0100
1000
0001
1000
0100
1000
0010
0100
0001
0010
0100
1000
0001
,
1000
0010
0100
0001
1000
0001
0010
0001
,
1000
0000
0100
0000
0010
0000
0001
0000
1000
0100
1000
0010
0100
0001
1000
0100
,
0010
0010
0001
1000
0001
0100
0001
0010
,
0100
1000
0010
1000
0100
1000
0001
0100
,
0001
0010
0100
1000
0010
0100
0001
1000
,
0100
1000
0010
0100
0002
0000
0000
0000
,
0013
0100
1000
0001
0100
0001
1000
0100
,
0010
0000
0001
0000
1000
0000
0010
0000
0100
0000
0001
0000
0001
1000
0100
1000
,
0010
0000
0100
0000
0001
0000
0010
0000
0100
1000
0010
1000
0100
0010
0001
1000
,
0002
0000
0000
0000
0203
0000
0000
0000
0320
0000
0000
0000
1030
0100
0010
0001
,
1000
0100
1000
0010
0100
0001
1000
0001
0010
0001
1000
0100
0010
0001
1000
0010
,
0100
0001
1000
0100
1000
0010
0100
0001
0010
0100
1000
0001
0100
0001
1000
0100
,
0010
0001
1000
0010
1000
0100
1000
0010
0100
0001
0010
0100
1000
0001
0100
0001
,
1000
0100
0010
0001
1000
0010
0100
0001
1000
0001
0010
0001
1000
0100
0010
0001
,
1000
0010
0100
0001
1000
0100
1000
0010
,
0100
0000
0001
0000
0010
0000
0100
0000
1000
0000
0001
0000
1000
0100
0010
0001
,
1000
0010
0100
0001
0010
0100
1000
0001
,
0200
0000
0300
0000
0200
0300
0200
0300
,
0010
0000
0000
1000
0000
0000
0100
0000
0000
1000
0000
0000
0010
0000
0000
0000
0100
0000
0000
0000
0001
0000
0000
0000
1000
0000
0000
0100
0000
0000
1000
0000
0000
0010
0000
0000
0100
0000
0000
0000
0001
0000
0000
0000
0010
0000
0000
0000
,
0100
0000
0000
1000
0000
0000
0001
0000
0000
0100
0000
0000
0001
0000
0000
0000
0010
0000
0000
0000
0100
0000
0000
0000
1000
0000
0000
0000
0000
0000
1000
0000
0000
0000
0000
0000
0010
0000
0000
0000
0000
0000
0010
0000
0000
0000
0000
0000
,
0100
0000
0000
0001
0000
0000
1000
0000
0000
0100
0000
0000
1000
0000
0000
0000
0010
0000
0000
0000
0100
0000
0000
0000
0001
0000
0000
0010
0000
0000
0100
0000
0000
1000
0000
0000
0001
0000
0000
0000
1000
0000
0000
0000
0100
0000
0000
0000
,
1000
0000
0000
0010
0000
0000
0100
0000
0000
0001
0000
0000
1000
0000
0000
0000
0100
0000
0000
0000
0010
0000
0000
0000
0002
0000
0000
0000
0000
0000
0000
0000
0000
0000
0000
0000
1003
0000
0000
0000
0000
0000
0100
0000
0000
1000
0000
0000
,
0010
0100
0001
1000
0100
1000
0010
0100
,
0001
0010
0100
1000
0001
0100
0001
1000
,
0100
0010
0001
1000
0010
0100
0001
1000
,
0002
0023
0230
2300
3002
0203
0302
0023
,
0130
1000
0001
1000
0010
1000
0100
1000
0010
0100
0001
0100
0001
0010
0100
1000
,
0001
0100
0001
1000
0100
0010
0100
1000
0100
1000
0010
0100
0001
0000
0010
0100
,
1000
0001
0100
0001
1000
0010
0100
0001
,
0010
0100
1000
0001
1000
0200
0320
0032
,
1003
0010
0100
0001
1000
0100
1000
0010
,
0100
0001
0010
0100
1000
0001
1000
0200
,
0310
0000
0001
1000
0000
0000
0001
0100
0000
0000
0001
1000
0000
0000
0001
0100
,
0020
0000
2030
0000
,
3100
0010
0001
1000
0010
1000
0100
0010
0001
0010
0001
1000
0010
0100
0001
1000
,
0001
0010
0100
1000
0001
0100
0001
0100
0010
1000
0100
1000
0100
0010
0001
1000
,
0010
0100
0001
1000
0001
0010
0100
1000
0001
0100
0001
1000
0100
1000
0010
0100
,
0001
1000
0001
1000
0010
0100
0001
1000
0002
0000
2003
0000
3020
0000
0230
0000
,
0301
1000
0100
1000
0010
0100
0001
0100
,
0001
0010
0100
1000
0010
0100
0001
1000
,
0100
0000
0010
0001
0000
0000
1000
0010
0000
0000
0100
0001
0000
0000
0010
0100
,
1000
0000
0001
0000
0100
0000
0001
0000
0010
0000
0100
0000
1000
0010
1000
0100
,
0010
0001
1000
0010
1000
0100
1000
0100
0010
0001
0010
0001
1000
0010
0100
0001
,
1000
0001
1000
0100
1000
0010
0100
0001
0100
0001
0010
0100
1000
0001
1000
0010
,
1000
0100
1000
0100
0010
0001
0010
0001
1000
0010
0100
0001
1000
0001
1000
0010
,
0100
0001
0100
0001
0010
0100
1000
0010
0100
0001
1000
0100
0020
0000
0000
0000
,
0130
1000
0001
0100
0001
1000
0100
1000
0010
0100
0001
0010
0100
1000
0010
0100
,
0001
1000
0100
1000
0010
0100
0001
0010
0100
1000
0001
1000
0100
0010
0100
1000
,
0200
0320
0032
0203
0302
0023
0230
2300
,
3001
0100
0000
0000
0010
1000
0000
0000
0110
0000
0000
0000
0010
0000
0000
0000
,
0020
0000
0000
0000
,
0000
0000
0000
0000
,
0030
0000
0000
0000
,
MMMM
0000
0000
0000
;

//---------------dance-single - ----------------
#NOTES:
     dance-single:
     :
     Hard:
     18:
     1.000,1.000,0.041,1.000,1.000,3425.000,14.000,391.000,27.000,1.000:
0000
0000
0000
0000
,
2000
3020
0000
0230
,
0000
0302
0000
2003
,
0000
3200
0000
0320
,
0031
1000
0010
1000
0100
0010
0001
1000
,
0002
0203
0000
0320
,
0000
2030
0000
3200
,
0000
0320
0000
0032
,
0000
0000
2003
0000
0000
0000
3100
0010
,
0001
1000
0010
1000
0100
0010
0001
1000
0001
0100
0001
0010
0100
1000
0001
1000
,
0100
1000
0010
0100
0001
0010
0001
1000
0100
0010
0001
1000
0010
1000
0100
1000
,
0010
0100
0001
0010
0100
1000
0001
0100
0001
1000
0100
0010
0001
1000
0010
0100
,
0001
1000
0001
0010
0100
1000
0001
0100
0001
1000
0100
0010
0100
1000
0001
1000
,
0100
0010
0001
1000
0001
0100
0001
0010
0100
1000
0010
1000
0100
1000
0010
0100
,
0001
0010
0100
1000
0001
0100
0001
1000
0100
0010
0001
1000
0010
0100
0001
1000
,
0001
0010
0001
1000
0100
0010
0001
1000
0010
1000
0100
1000
0010
0100
0001
0010
,
0100
1000
0001
0100
0001
1000
0100
0010
0001
1000
0100
0010
0100
1000
0001
1000
,
0100
0010
0001
1000
0010
1000
0100
1000
0010
0100
0001
0010
0100
1000
0001
0100
,
0001
1000
0100
1000
0010
0100
0001
0010
0100
1000
0001
1000
0100
1000
0010
0100
,
0001
0010
0001
1000
0100
0010
0001
1000
0010
1000
0100
1000
0010
0100
0001
0010
,
0100
1000
0001
0100
0001
0010
0100
1000
0001
1000
0010
0100
0001
1000
0100
1000
,
0010
0100
0001
1000
0001
0010
0100
1000
0001
0100
0001
1000
0010
1000
0100
1000
,
0010
0100
0001
0010
0100
1000
0001
0100
0001
1000
0010
0100
0010
1000
0010
0100
,
0010
1000
0100
0010
0001
1000
0001
0100
0001
0010
0100
1000
0001
0100
0001
1000
,
0100
0010
0001
1000
0010
0100
0001
1000
0001
0010
0100
1000
0001
0100
0001
0010
,
0100
1000
0001
0100
0001
1000
0010
0100
0001
1000
0001
0010
0001
1000
0100
0010
,
0001
1000
0010
0100
0001
1000
0100
1000
0010
0100
0001
0010
0001
1000
0100
0010
,
0001
1000
0100
1000
0010
0100
0001
0010
0001
1000
0100
0010
0001
1000
0010
0100
,
0001
1000
0100
1000
0010
0100
0001
0010
0100
1000
0001
0100
0001
1000
0100
0010
,
0002
0203
0302
2003
3200
2300
3020
0230
,
0302
2003
3002
0023
0032
2003
3200
0320
,
0031
1000
0010
1000
0100
0010
0001
1000
0001
0100
0001
0010
0100
1000
0001
1000
,
0010
0110
0101
0011
0002
0000
2003
0000
,
3020
0230
0302
2003
,
3200
0000
0320
0000
0031
0001
1000
1000
,
0020
0230
0302
2003
,
3200
0000
0000
0000
2300
0000
0000
0000
3020
0000
0000
0000
0000
0000
0130
0001
,
2000
3200
2300
3020
,
0230
0320
2030
3200
,
0320
0032
2003
3002
,
0203
0320
2030
3200
0320
0032
2003
3020
,
0130
0001
1000
0100
1000
0010
0100
0001
0010
0100
1000
0001
1000
0100
0010
0001
,
1000
0010
1000
0100
1000
0010
0100
0001
0010
0100
1000
0001
0100
0001
1000
0100
,
0010
0001
1000
0001
0010
0001
1000
0100
0010
0001
1000
0010
0100
0001
1000
0100
,
1000
0010
0100
0001
0010
0100
1000
0001
0100
0001
1000
0100
0010
0001
1000
0010
,
1000
0100
1000
0010
0100
0001
0010
0100
1000
0001
0100
0001
1000
0100
0010
0001
,
1000
0001
1000
0001
0010
0001
1000
0001
0010
0100
1000
0001
0100
0001
1000
0001
,
1000
0001
0100
0001
1000
0100
1000
0010
2000
0000
0000
0000
3200
0000
0000
0000
,
0320
0000
0000
0000
0030
0000
0000
0000
0011
0000
0000
0000
0001
1000
0100
1000
,
0010
0100
0001
1000
0100
1000
0100
0010
0001
1000
0010
1000
0010
0100
0001
1000
,
0001
0010
0100
1000
0100
1000
0010
0100
0001
1000
0001
1000
0100
0010
0001
0010
,
0001
1000
0010
0100
0001
0100
0001
0010
0100
1000
0010
0100
0001
1000
0001
0010
,
0100
1000
0001
0100
0001
0010
0100
1000
0001
1000
0100
1000
0010
0100
0001
1000
,
0100
0010
0001
1000
0001
0100
0001
0010
0100
1000
0010
1000
0100
0010
0001
1000
,
0001
0100
0001
0010
0100
1000
0010
0100
0001
1000
0100
0010
0001
1000
0010
0100
,
0001
1000
0001
0010
0001
1000
0100
0010
0001
1000
0010
0100
0001
1000
0100
1000
,
0010
0100
0001
0010
0100
1000
0001
0100
0002
0000
0023
0000
0230
0000
2300
0000
,
3001
0100
0001
0010
0100
1000
0010
0100
0001
1000
0100
1000
0010
0100
0001
0010
,
0100
1000
0001
0100
0001
1000
0100
0010
0100
1000
0010
0100
0001
1000
0001
0010
,
0001
1000
0100
0010
0001
1000
0010
0100
0001
1000
0100
1000
0010
0100
0001
0010
,
0100
1000
0001
0100
0001
1000
0100
0010
0001
1000
0010
0100
0001
1000
0001
0010
,
0001
1000
0100
0010
0100
1000
0010
0100
0001
0010
0100
0010
0001
1000
0100
0010
,
0100
1000
0010
0100
0001
0010
0100
0010
0001
1000
0001
0010
0100
1000
0001
0010
,
0200
2300
3002
0203
0302
2003
3200
0320
,
0032
2003
3200
0000
,
0310
0001
1000
0010
0100
0001
1000
0001
1000
0100
1000
0010
0100
0001
0100
0001
,
0010
0100
1000
0001
0100
0001
0100
0010
1000
0100
1000
0100
0010
0001
1000
0010
,
0100
0001
1000
0100
1000
0010
0100
0001
0010
0001
0010
0100
1000
0100
1000
0010
,
0100
0001
1000
0001
1000
0010
0100
0001
0010
0100
1000
0001
0100
0001
1000
0100
,
0010
0001
1000
0001
0100
0001
0010
0100
1000
0100
1000
0010
0100
0001
1000
0001
,
1000
0100
0010
0001
0010
0001
1000
0010
0100
0001
1000
0001
0010
0001
1000
0100
,
0010
0100
1000
0010
0100
0001
0100
0001
0010
0100
1000
0010
0100
0001
1000
0001
,
1000
0100
1000
0010
1000
0000
0100
0000
0020
0000
0032
0000
0203
0000
0302
0000
,
0013
0100
1000
0001
0010
0100
1000
0010
0100
0001
1000
0010
0100
0001
0010
0100
,
1000
0001
0010
0100
1000
0010
0100
0001
1000
0010
0100
0001
0010
0100
1000
0001
,
0010
0100
1000
0010
0100
0001
1000
0100
1000
0010
0100
0001
0010
0001
1000
0100
,
0010
0100
1000
0010
0100
0001
0010
0001
1000
0100
0010
0001
2000
3200
2300
3020
,
0130
0001
0010
0100
1000
0001
0100
0001
1000
0100
0010
0001
1000
0010
0100
0001
,
1000
0001
0010
0100
1000
0001
0100
0001
1000
0100
0010
0001
1000
0010
1000
0100
,
0010
0001
0000
0000
1000
0100
0000
0000
0010
0001
0000
0000
1000
0100
0000
0000
,
0020
0032
2003
3200
0310
0001
1000
0001
,
0020
0230
2300
3002
,
0003
MMMM
0000
0000
0000
0000
0000
MMMM
,
0020
0230
0302
2003
,
3200
0300
0200
0300
0200
0300
0200
0300
,
0020
0032
2003
3020
,
0030
MMMM
0000
0000
0000
0000
0000
MMMM
,
0200
0302
2003
3200
,
0310
0001
1000
0001
0100
0001
0010
0100
1000
0010
0100
0001
,
2000
3200
0320
0032
,
2003
3020
0230
0302
,
2003
3200
2300
3002
,
0203
0302
2003
3200
,
0320
0032
2003
3200
2300
3020
0230
0302
,
2003
3200
2300
3020
0230
0302
0023
0230
,
1300
0001
0100
0001
0010
0100
1000
0001
1000
0100
1000
0010
1000
0100
0010
0001
,
1000
1000
0100
0100
0020
0000
0032
0000
,
1003
0100
0010
0100
1000
0010
1000
0010
0100
0001
1000
0001
1000
0010
0100
0001
,
0100
0001
0010
0100
1000
0010
0100
0001
1000
0100
1000
0010
0100
0001
1000
0001
,
0100
0001
0010
0100
1000
0010
1000
0001
1000
0100
1000
0100
0010
0001
0010
0001
,
1000
0010
1000
0010
0100
0001
1000
0100
0010
0001
1000
0001
0100
0001
0010
0100
,
1000
0100
0010
0001
1000
0001
1000
0010
1000
0010
0100
0001
1000
0001
0010
0100
,
1000
0001
0100
0001
1000
0010
1000
0010
0100
0001
1000
0001
1000
0100
0010
0001
,
0010
0001
1000
0010
0100
0001
1000
0001
1000
0010
0100
0001
0100
0001
0010
0100
,
2000
3020
0230
0000
,
0301
1000
0100
1000
0010
0100
0001
0010
0001
1000
0100
0010
0001
1000
0010
0100
,
0001
1000
0001
0010
0001
1000
0100
0010
0100
1000
0010
0100
0001
1000
0001
0010
,
0001
1000
0010
0100
0001
1000
0100
1000
0010
0100
0001
0010
0100
1000
0001
0100
,
0001
1000
0100
0010
0001
1000
0010
0100
0001
1000
0001
0010
0001
1000
0100
0010
,
0001
1000
0100
1000
0010
0100
0001
0010
0001
1000
0010
0100
0001
1000
0100
1000
,
0010
0100
0001
0010
0100
1000
0001
0100
0001
1000
0100
0010
0001
1000
0001
0000
,
1000
0100
0010
0001
1000
0010
1000
0100
,
0010
0000
0001
0000
1000
0000
0100
0000
0010
0001
0100
0001
0010
0100
1000
0001
,
1000
0100
0010
0001
1000
0001
0100
0001
0100
0010
1000
0100
0010
0001
1000
0001
,
1000
0010
0100
0001
0100
0001
0010
0100
1000
0010
1000
0100
0010
0001
1000
0001
,
0200
0000
0320
0000
,
2030
0000
3200
0000
,
0310
0001
1000
0001
0100
0001
0100
0010
1000
0100
1000
0100
0010
0001
1000
0010
,
1000
0010
0100
0001
1000
0001
1000
0100
0010
0001
1000
0010
0100
0001
1000
0001
,
0010
0000
0000
0000
,
0000
0000
0000
0000
0000
0000
0000
0000
0000
0000
0000
0000
0000
0000
0100
1000
,
0010
0100
0001
1000
0100
1000
0010
0100
0001
0010
0100
1000
0001
0100
0001
1000
,
0010
0100
0001
0010
0100
1000
0001
0100
0001
1000
0100
0010
0001
1000
0010
0100
,
0001
0100
0010
1000
0100
0010
0001
1000
0100
1000
0010
0100
0001
1000
0001
0010
,
0100
0100
0010
0001
0010
0100
2000
0000
,
3001
1000
0100
1000
0010
0100
0001
0010
0100
1000
0001
0100
0001
1000
0100
0010
,
0001
1000
0010
0100
0001
1000
0001
0010
0001
1000
0100
0010
0100
1000
0010
0100
,
0001
1000
0100
1000
0010
0100
0001
0010
0100
1000
0001
0100
0001
1000
0001
0010
,
0100
1000
0010
0000
0100
0001
0010
0000
0100
1000
0010
0000
0100
0001
0010
0000
,
0100
1000
0100
1000
0100
1000
0100
1000
0100
1000
0100
1000
0100
1000
0100
1000
,
0100
0010
0100
0010
0100
0010
0100
0010
0100
0010
0100
0010
0100
0010
0100
0010
,
0100
1000
0100
1000
0100
1000
0100
1000
0100
1000
0100
1000
0100
1000
0100
1000
,
0020
0000
0000
0000
0030
0100
0010
0100
0010
0100
0010
0100
0010
0100
0010
0100
,
0010
1000
0010
1000
0010
1000
0010
1000
0010
1000
0010
1000
0010
1000
0010
1000
,
0100
0010
0100
0010
0100
0010
0100
0010
0100
0010
0100
0010
0100
0010
0100
0010
,
0002
0000
0000
0000
1003
0100
1000
0100
1000
0100
1000
0100
1000
0100
1000
0100
,
0020
0032
2003
3200
2300
3020
0230
0302
,
1003
0100
0010
0001
1000
0100
0010
0001
1000
0010
0100
0001
1000
0010
0100
0001
,
1000
0100
0010
0001
1000
0100
0010
0001
1000
0010
0100
0001
1000
0010
0100
0001
,
2000
0000
0000
0000
3100
0010
0001
1000
0001
0100
0001
0010
0100
1000
0001
1000
,
0100
0100
0010
0010
0001
0001
1000
1000
,
0220
0000
0000
0330
,
2200
0000
0000
3300
,
0220
0000
0000
0330
,
1100
0011
0000
1100
0000
1100
0000
1100
,
1000
0100
0010
0001
0100
0001
0100
0010
1000
0100
1000
0010
0100
0010
0100
0001
,
0010
0100
1000
0001
0100
0001
0010
0001
0100
0010
1000
0100
1000
0010
0100
0001
,
1000
0001
1000
0100
1000
0010
0100
0001
0100
0001
0010
0100
1000
0001
1000
0010
,
0100
0010
1000
0100
0010
0001
1000
0001
1000
0100
0010
0001
1000
0010
0100
0001
,
1000
0100
0010
0100
1000
0010
0100
0001
1000
0001
0010
0001
1000
0100
0010
0001
,
1000
0010
0100
0001
1000
0100
1000
0010
0100
0001
0010
0100
1000
0001
0100
0001
,
1000
0001
0010
0100
1000
0001
0100
0001
1000
0100
0010
0001
1000
0010
0100
0001
,
1000
0100
1000
0010
1000
0100
1000
0010
0200
0000
0302
0000
0023
0000
0230
0000
,
1300
0001
0100
0001
0010
0100
1000
0010
0100
0001
1000
0100
1000
0010
0100
0001
,
0010
0100
1000
0001
0100
0001
1000
0100
0010
0001
1000
0010
1000
0100
1000
0010
,
0100
0001
0100
0001
0010
0100
1000
0001
0100
0001
1000
0010
0100
0001
1000
0001
,
1000
0100
1000
0100
0010
0001
0010
0001
1000
0100
0010
0001
0010
0100
1000
0001
,
0010
0001
1000
0001
0100
0001
0010
0100
1000
0010
0100
0001
1000
0100
1000
0010
,
0100
0001
0010
0100
1000
0001
0100
0001
1000
0100
0010
0001
1000
0010
0100
0001
,
2000
3002
2003
3002
0203
0302
0023
0230
,
2300
0000
0000
0000
3020
0000
0000
0000
0130
0001
1000
0100
1000
0001
0100
0001
,
1000
0100
0010
0100
1000
0010
0100
0001
0010
0001
1000
0100
0010
0001
1000
0010
,
0100
0001
1000
0100
1000
0010
0100
0001
0010
0100
1000
0001
0100
0001
1000
0100
,
0010
0001
1000
0010
0100
0001
1000
0100
1000
0010
0100
0001
0010
0100
1000
0001
,
1000
0100
0010
0100
1000
0010
0100
0001
1000
0100
0010
0001
1000
0010
0100
0001
,
1000
0100
0010
0100
1000
0010
0100
0010
1000
0100
0010
0100
1000
0010
0100
0001
,
0010
0100
0010
0001
0100
0001
0010
0100
0010
0001
1000
0100
1000
0010
0100
0001
,
1000
2000
3020
0230
,
0302
0000
0000
0000
0000
0000
0023
0000
0000
0030
0000
0000
0020
0000
0000
0030
0000
0000
0001
1000
0001
1000
0001
1000
,
0001
1000
0100
1000
0010
0100
0001
0010
0001
1000
0100
1000
0010
0100
0001
0010
,
0001
1000
0100
0010
0100
1000
0010
0100
0001
1000
0001
0010
0001
1000
0100
0010
,
0001
1000
0010
0100
0001
1000
0001
0010
0001
1000
0100
0010
0100
1000
0010
0100
,
0001
1000
0001
0010
0001
1000
0100
0010
0100
1000
0010
0100
0001
1000
0001
0010
,
0001
1000
0100
0010
0100
1000
0010
0100
0001
1000
0001
0010
0100
1000
0001
0100
,
0001
1000
0100
1000
0010
0100
0001
1000
0100
0010
0100
1000
0010
0100
0001
0010
,
0100
0000
0100
0000
1000
0000
0010
0000
0100
0001
0100
0001
0010
0100
1000
0100
,
1000
0010
0100
0001
0010
0100
1000
0010
,
0200
0000
0000
0000
,
0000
0000
0000
0000
,
M3MM
0000
0000
0000
,
0000
0000
0000
0000
0000
0000
0000
0000
0000
0000
0000
0000
0001
0010
0100
1000
,
0002
1003
0020
0130
0002
1003
0200
0310
,
0002
1003
0020
0130
0002
0013
0200
1300
,
0002
1003
0200
0310
0002
1003
0020
0130
,
0002
1003
0200
1300
0020
0130
0002
0013
,
0002
1003
0200
0310
0002
1003
0020
0130
,
0002
1003
0200
1300
0020
0130
0002
0013
,
0200
1300
0002
0103
0002
1003
0200
0310
,
0002
1003
0020
0130
0002
1003
0002
0013
,
0002
1003
0200
0310
0002
1003
0020
0130
,
0002
1003
0200
1300
0020
0130
0002
0013
,
0200
1300
0002
0103
0002
1003
0200
0310
,
0002
1003
0020
0130
0002
1003
0002
0013
,
0002
1003
0002
0103
0002
1003
0200
1300
,
0002
1003
0020
1030
0002
1003
0200
1300
,
0002
1003
0020
1030
0200
0310
0002
1003
,
0002
0103
0002
0013
0200
1300
0002
0103
,
0002
0003
0000
0000
0000
0000
0000
0000
,
2000
3000
0000
0000
,
0200
0300
0020
0000
0030
0000
0002
0003
,
0000
0000
0000
0000
0000
0000
0000
0000
0000
0000
0000
0000
0100
0010
1000
0100
,
0020
0032
2003
3020
,
0230
0302
2003
3200
2300
3020
0230
0302
,
0013
0000
0000
0000
,
0000
0000
0000
0200
,
2300
3002
2003
3002
,
2003
3200
0320
0230
2300
3200
0320
0230
,
1300
0001
0100
0001
0010
0100
1000
0010
0100
0001
1000
0100
1000
0010
0100
0001
,
0010
0000
MMMM
0000
,
0100
1000
0001
0100
0001
1000
0010
0100
0001
0010
0100
1000
0001
1000
0010
1000
,
0100
0010
0001
1000
0001
0100
0001
0010
0100
1000
0010
0100
0001
1000
0100
1000
,
0010
0100
0001
0010
0100
1000
0001
0100
0001
1000
0100
0010
0001
1000
0010
0100
,
0001
1000
0001
0010
0001
1000
0100
0010
0001
1000
0010
0100
0001
1000
0001
0010
,
0100
1000
0010
1000
0100
0010
0001
1000
0001
0100
0001
0010
0100
1000
0100
1000
,
0010
0100
0001
0010
0100
1000
0001
0100
0001
1000
0010
1000
0010
0100
0001
0010
,
0100
1000
0001
0100
0001
0010
0001
0100
0001
1000
0001
1000
0100
1000
0010
0100
,
0001
0100
0001
0010
0100
1000
0001
0100
0002
0000
0203
0000
0302
0000
0023
0000
,
0031
1000
0100
0010
0100
1000
0010
0100
0001
1000
0001
0010
0001
1000
0100
0010
,
0100
1000
0010
0100
0001
1000
0001
0010
0001
1000
0100
0010
0001
1000
0010
0100
,
0001
1000
0100
1000
0010
0100
0001
0010
0100
0010
0001
1000
0100
1000
0010
0100
,
0001
1000
0001
0010
0001
1000
0100
0010
0002
0000
0203
0000
0320
0000
2030
0000
,
3100
0010
0001
1000
0010
0100
0001
1000
0100
0010
0001
1000
0010
0100
0001
1000
,
0100
0010
0001
1000
0010
0100
0001
1000
0100
0010
0001
1000
0010
0100
0001
1000
,
0200
0320
0032
2003
,
3200
0000
0000
0000
0000
0000
0000
0000
0310
0001
1000
0001
0100
0001
0010
0100
,
1000
0010
0100
0001
1000
0100
1000
0010
0100
0001
0010
0100
1000
0001
0100
0001
,
2000
3200
0320
0230
2300
3200
0320
0230
,
2300
0000
0000
3000
2000
0000
0000
0000
,
3200
0320
0032
0203
0302
0023
0230
2300
,
3001
0100
0001
0100
0010
1000
0010
1000
0100
1000
0100
0010
0001
0010
0001
1000
,
0020
0000
0230
0000
0302
0000
0023
0000
0230
0000
2300
0000
3001
1000
0100
1000
,
0020
0230
0302
0023
,
0230
0300
2000
3000
0002
0003
0200
0300
0002
0003
2000
3000
0200
0300
0020
0030
0002
0003
2000
3000
0020
0030
0200
0300
0002
0003
2000
3000
0002
0003
0020
0030
,
0200
0300
1000
0000
0001
0000
0100
0000
0001
0000
1000
0000
0010
0000
0100
0000
0001
0000
0010
0000
0100
0000
1000
0000
0010
0000
1000
0000
0100
0000
0010
0000
,
0001
0100
0001
1000
0001
0010
0001
1000
0100
0010
0001
1000
0010
0100
0001
1000
,
0100
1000
0010
0100
0001
0010
0100
1000
0001
0100
0001
1000
0100
0010
0001
1000
,
0010
0100
0001
1000
0001
0010
0001
1000
0100
0010
0001
0100
0001
0010
0100
1000
,
0001
0100
0001
0010
0100
1000
0010
0100
0001
1000
0100
1000
0010
0100
0001
0010
,
0100
1000
0001
0100
0001
1000
0100
0010
0001
1000
0010
0100
0001
1000
0001
0010
,
0200
2300
3000
0000
,
0000
0000
0000
1111
,
0100
0001
0010
0100
1000
0001
0100
0001
1000
0100
1000
0010
0100
0001
0010
0100
,
1000
0001
0100
0001
1000
0010
1000
0100
0010
0001
1000
0001
0100
0001
0010
0100
,
1000
0001
0100
0001
1000
0100
0010
0001
1000
0010
1000
0100
0010
0100
1000
0010
,
0100
0001
0010
0100
1000
0001
0100
0001
2000
0000
3200
0000
0320
0000
0230
0000
,
1300
0010
1000
0100
0010
0001
1000
0001
,
0100
0001
0010
0100
1000
0010
0100
0001
,
1000
0100
1000
0010
0100
0001
0010
0100
,
1000
0001
0100
0001
2000
3010
0100
0001
,
1000
0100
0010
0001
1000
0001
0100
0001
,
0010
0100
1000
0010
1000
0001
0100
0001
,
0010
0100
1000
0001
0100
0001
0010
0100
,
1000
0010
0100
0001
0010
0001
1000
0100
,
0010
0001
1000
0001
0100
0001
0010
0100
1000
0001
0100
0001
1000
0100
1000
0010
,
0100
0001
0010
0100
1000
0001
1000
0100
1000
0010
0100
0001
0010
0100
1000
0001
,
1000
0010
0100
0001
1000
0001
0010
0001
,
1000
0000
0100
0000
0010
0000
0001
0000
1000
0100
1000
0010
0100
0001
1000
0100
,
0010
0010
0001
1000
0001
0100
0001
0010
,
0100
1000
0010
1000
0100
1000
0001
0100
,
0001
0010
0100
1000
0010
0100
0001
1000
,
0100
1000
0010
0100
0002
0000
0000
0000
,
0013
0100
1000
0001
0100
0001
1000
0100
,
0010
0000
0001
0000
1000
0000
0010
0000
0100
0000
0001
0000
0001
1000
0100
1000
,
0010
0000
0100
0000
0001
0000
0010
0000
0100
1000
0010
1000
0100
0010
0001
1000
,
0002
0000
0000
0000
0203
0000
0000
0000
0320
0000
0000
0000
1030
0100
0010
0001
,
1000
0100
1000
0010
0100
0001
1000
0001
0010
0001
1000
0100
0010
0001
1000
0010
,
0100
0001
1000
0100
1000
0010
0100
0001
0010
0100
1000
0001
0100
0001
1000
0100
,
0010
0001
1000
0010
1000
0100
1000
0010
0100
0001
0010
0100
1000
0001
0100
0001
,
1000
0100
0010
0001
1000
0010
0100
0001
1000
0001
0010
0001
1000
0100
0010
0001
,
1000
0010
0100
0001
1000
0100
1000
0010
,
0100
0000
0001
0000
0010
0000
0100
0000
1000
0000
0001
0000
1000
0100
0010
0001
,
1000
0010
0100
0001
0010
0100
1000
0001
,
0200
0000
0300
0000
0200
0300
0200
0300
,
0010
0000
0000
1000
0000
0000
0100
0000
0000
1000
0000
0000
0010
0000
0000
0000
0100
0000
0000
0000
0001
0000
0000
0000
1000
0000
0000
0100
0000
0000
1000
0000
0000
0010
0000
0000
0100
0000
0000
0000
0001
0000
0000
0000
0010
0000
0000
0000
,
0100
0000
0000
1000
0000
0000
0001
0000
0000
0100
0000
0000
0001
0000
0000
0000
0010
0000
0000
0000
0100
0000
0000
0000
1000
0000
0000
0000
0000
0000
1000
0000
0000
0000
0000
0000
0010
0000
0000
0000
0000
0000
0010
0000
0000
0000
0000
0000
,
0100
0000
0000
0001
0000
0000
1000
0000
0000
0100
0000
0000
1000
0000
0000
0000
0010
0000
0000
0000
0100
0000
0000
0000
0001
0000
0000
0010
0000
0000
0100
0000
0000
1000
0000
0000
0001
0000
0000
0000
1000
0000
0000
0000
0100
0000
0000
0000
,
1000
0000
0000
0010
0000
0000
0100
0000
0000
0001
0000
0000
1000
0000
0000
0000
0100
0000
0000
0000
0010
0000
0000
0000
0002
0000
0000
0000
0000
0000
0000
0000
0000
0000
0000
0000
1003
0000
0000
0000
0000
0000
0100
0000
0000
1000
0000
0000
,
0010
0100
0001
1000
0100
1000
0010
0100
,
0001
0010
0100
1000
0001
0100
0001
1000
,
0100
0010
0001
1000
0010
0100
0001
1000
,
0002
0023
0230
2300
3002
0203
0302
0023
,
0130
1000
0001
1000
0010
1000
0100
1000
0010
0100
0001
0100
0001
0010
0100
1000
,
0001
0100
0001
1000
0100
0010
0100
1000
0100
1000
0010
0100
0001
0000
0010
0100
,
1000
0001
0100
0001
1000
0010
0100
0001
,
0010
0100
1000
0001
1000
0200
0320
0032
,
1003
0010
0100
0001
1000
0100
1000
0010
,
0100
0001
0010
0100
1000
0001
1000
0200
,
0310
0000
0001
1000
0000
0000
0001
0100
0000
0000
0001
1000
0000
0000
0001
0100
,
0020
0000
2030
0000
,
3100
0010
0001
1000
0010
1000
0100
0010
0001
0010
0001
1000
0010
0100
0001
1000
,
0001
0010
0100
1000
0001
0100
0001
0100
0010
1000
0100
1000
0100
0010
0001
1000
,
0010
0100
0001
1000
0001
0010
0100
1000
0001
0100
0001
1000
0100
1000
0010
0100
,
0001
1000
0001
1000
0010
0100
0001
1000
0002
0000
2003
0000
3020
0000
0230
0000
,
0301
1000
0100
1000
0010
0100
0001
0100
,
0001
0010
0100
1000
0010
0100
0001
1000
,
0100
0000
0010
0001
0000
0000
1000
0010
0000
0000
0100
0001
0000
0000
0010
0100
,
1000
0000
0001
0000
0100
0000
0001
0000
0010
0000
0100
0000
1000
0010
1000
0100
,
0010
0001
1000
0010
1000
0100
1000
0100
0010
0001
0010
0001
1000
0010
0100
0001
,
1000
0001
1000
0100
1000
0010
0100
0001
0100
0001
0010
0100
1000
0001
1000
0010
,
1000
0100
1000
0100
0010
0001
0010
0001
1000
0010
0100
0001
1000
0001
1000
0010
,
0100
0001
0100
0001
0010
0100
1000
0010
0100
0001
1000
0100
0020
0000
0000
0000
,
0130
1000
0001
0100
0001
1000
0100
1000
0010
0100
0001
0010
0100
1000
0010
0100
,
0001
1000
0100
1000
0010
0100
0001
0010
0100
1000
0001
1000
0100
0010
0100
1000
,
0200
0320
0032
0203
0302
0023
0230
2300
,
3001
0100
0000
0000
0010
1000
0000
0000
0110
0000
0000
0000
0010
0000
0000
0000
,
0020
0000
0000
0000
,
0000
0000
0000
0000
,
0030
0000
0000
0000
,
MMMM
0000
0000
0000
;

//---------------dance-single - ----------------
#NOTES:
     dance-single:
     :
     Challenge:
     18:
     1.000,1.000,0.044,0.925,1.000,3823.000,15.000,314.000,27.000,2.000:

0000
0000
0000
0000
,
2000
3020
0000
0230
,
0000
0302
0000
2003
,
0000
3200
0000
0320
,
0031
1000
0010
1000
0100
0010
0001
1000
,
0002
0203
0000
0320
,
0000
2030
0000
3200
,
0000
0320
0000
0032
,
0000
0000
2003
0000
0000
0000
3100
0010
,
0001
1000
0010
1000
0100
0010
0001
1000
0001
0100
0001
0010
0100
1000
0001
1000
,
0100
1000
0010
0100
0001
0010
0001
1000
0100
0010
0001
1000
0010
1000
0100
1000
,
0010
0100
0001
0010
0100
1000
0001
0100
0001
1000
0100
0010
0001
1000
0010
0100
,
0001
1000
0001
0010
0100
1000
0001
0100
0001
1000
0100
0010
0100
1000
0001
1000
,
0100
0010
0001
1000
0001
0100
0001
0010
0100
1000
0010
1000
0100
1000
0010
0100
,
0001
0010
0100
1000
0001
0100
0001
1000
0100
0010
0001
1000
0010
0100
0001
1000
,
0001
0010
0001
1000
0100
0010
0001
1000
0010
1000
0100
1000
0010
0100
0001
0010
,
0100
1000
0001
0100
0001
1000
0100
0010
0001
1000
0100
0010
0100
1000
0001
1000
,
0100
0010
0001
1000
0010
1000
0100
1000
0010
0100
0001
0010
0100
1000
0001
0100
,
0001
1000
0100
1000
0010
0100
0001
0010
0100
1000
0001
1000
0100
1000
0010
0100
,
0001
0010
0001
1000
0100
0010
0001
1000
0010
1000
0100
1000
0010
0100
0001
0010
,
0100
1000
0001
0100
0001
0010
0100
1000
0001
1000
0010
0100
0001
1000
0100
1000
,
0010
0100
0001
1000
0001
0010
0100
1000
0001
0100
0001
1000
0010
1000
0100
1000
,
0010
0100
0001
0010
0100
1000
0001
0100
0001
1000
0010
0100
0010
1000
0010
0100
,
0010
1000
0100
0010
0001
1000
0001
0100
0001
0010
0100
1000
0001
0100
0001
1000
,
0100
0010
0001
1000
0010
0100
0001
1000
0001
0010
0100
1000
0001
0100
0001
0010
,
0100
1000
0001
0100
0001
1000
0010
0100
0001
1000
0001
0010
0001
1000
0100
0010
,
0001
1000
0010
0100
0001
1000
0100
1000
0010
0100
0001
0010
0001
1000
0100
0010
,
0001
1000
0100
1000
0010
0100
0001
0010
0001
1000
0100
0010
0001
1000
0010
0100
,
0001
1000
0100
1000
0010
0100
0001
0010
0100
1000
0001
0100
0001
1000
0100
0010
,
0002
0203
0302
2003
3200
2300
3020
0230
,
0302
2003
3002
0023
0032
2003
3200
0320
,
0031
1000
0010
1000
0100
0010
0001
1000
0001
0100
0001
0010
0100
1000
0001
1000
,
0010
0110
0101
0011
0002
0000
2003
0000
,
3020
0230
0302
2003
,
3200
0000
0320
0000
0031
0001
1000
1000
,
0020
0230
0302
2003
,
3200
0000
0000
0000
2300
0000
0000
0000
3020
0000
0000
0000
0000
0000
0130
0001
,
2000
3200
2300
3020
,
0230
0320
2030
3200
,
0320
0032
2003
3002
,
0203
0320
2030
3200
0320
0032
2003
3020
,
0130
0001
1000
0100
1000
0010
0100
0001
0010
0100
1000
0001
1000
0100
0010
0001
,
1000
0010
1000
0100
1000
0010
0100
0001
0010
0100
1000
0001
0100
0001
1000
0100
,
0010
0001
1000
0001
0010
0001
1000
0100
0010
0001
1000
0010
0100
0001
1000
0100
,
1000
0010
0100
0001
0010
0100
1000
0001
0100
0001
1000
0100
0010
0001
1000
0010
,
1000
0100
1000
0010
0100
0001
0010
0100
1000
0001
0100
0001
1000
0100
0010
0001
,
1000
0010
0100
0001
1000
0100
1000
0010
0100
0001
0010
0100
1000
0001
0100
0001
,
1000
0100
0010
0001
1000
0010
0100
0001
0020
0000
0000
0000
0230
0000
0000
0000
,
2300
0000
0000
0000
3000
0000
0000
0000
1111
0000
0000
0000
0001
1000
0100
1000
,
0010
0100
0001
1000
0100
1000
0010
0100
0001
0010
0100
1000
0001
0100
0001
1000
,
0100
0010
0001
1000
0010
0100
0001
1000
0001
0010
0001
1000
0100
0010
0001
1000
,
0010
0100
0001
1000
0100
1000
0001
0100
0001
1000
0010
0100
0001
0010
0001
1000
,
0010
1000
0001
0100
0001
0010
0100
1000
0010
0100
0001
1000
0100
1000
0001
0010
,
0001
1000
0100
1000
0010
0100
0001
0010
0100
1000
0001
0100
0001
1000
0010
0100
,
0001
0010
0001
1000
0100
1000
0010
0100
0001
1000
0100
1000
0001
0010
0001
1000
,
0010
0100
0001
1000
0100
1000
0001
0010
0001
1000
0010
0100
0001
1000
0010
1000
,
0001
0100
0001
1000
0010
0100
0001
1000
0200
0000
0320
0000
0032
0000
2003
0000
,
3001
0100
0001
0010
0100
1000
0010
0100
0001
1000
0100
1000
0010
0100
0001
0010
,
0100
1000
0001
0100
0001
1000
0100
0010
0100
1000
0010
0100
0001
1000
0001
0010
,
0001
1000
0100
0010
0001
1000
0010
0100
0001
1000
0100
1000
0010
0100
0001
0010
,
0100
1000
0001
0100
0001
1000
0100
0010
0001
1000
0010
0100
0001
1000
0001
0010
,
0001
1000
0100
0010
0100
1000
0010
0100
0001
0010
0100
0010
0001
1000
0100
0010
,
0100
1000
0010
0100
0001
0010
0100
0010
0001
1000
0001
0010
0100
1000
0001
0010
,
0200
2300
3002
0203
0302
2003
3200
0320
,
0032
2003
3200
0000
,
0310
0001
1000
0010
0100
0001
1000
0100
1000
0010
0100
0001
0010
0001
1000
0100
,
0010
0001
1000
0010
0100
0001
1000
0001
0010
0001
1000
0010
0100
0001
1000
0100
,
1000
0001
0100
0001
0010
0100
1000
0010
0100
0001
1000
0010
0100
0001
1000
0100
,
0010
0001
1000
0010
1000
0100
0010
0001
1000
0001
0100
0001
0010
0100
1000
0010
,
0100
0001
0010
0001
1000
0100
0010
0001
1000
0010
0100
0001
1000
0100
1000
0010
,
0100
0001
0010
0001
1000
0100
0010
0001
1000
0010
0100
0001
1000
0100
1000
0010
,
0100
0001
0010
0001
1000
0100
0010
0001
1000
0010
0100
0001
1000
0001
0010
0001
,
1000
0100
0010
0001
1000
0010
0100
0001
2000
0000
3002
0000
0203
0000
0302
0000
,
0013
0100
1000
0001
0010
0100
1000
0010
0100
0001
1000
0010
0100
0001
0010
0100
,
1000
0001
0010
0100
1000
0010
0100
0001
1000
0010
0100
0001
0010
0100
1000
0001
,
0010
0100
1000
0010
0100
0001
1000
0100
1000
0010
0100
0001
0010
0001
1000
0100
,
0010
0100
1000
0010
0100
0001
0010
0001
1000
0100
0010
0001
2000
3200
2300
3020
,
0130
0001
0010
0100
1000
0001
0100
0001
1000
0100
0010
0001
1000
0010
0100
0001
,
1000
0001
0010
0100
1000
0001
0100
0001
1000
0100
0010
0001
1000
0010
1000
0100
,
0010
0001
0000
0000
1000
0100
0000
0000
0010
0001
0000
0000
1000
0100
0000
0000
,
0020
0032
2003
3200
0310
0001
1000
0001
,
0020
0230
2300
3002
,
0003
MMMM
0000
0000
0000
0000
0000
MMMM
,
0020
0230
0302
2003
,
3200
0300
0200
0300
0200
0300
0200
0300
,
0020
0032
2003
3020
,
0030
MMMM
0000
0000
0000
0000
0000
MMMM
,
0200
0302
2003
3200
,
0310
0001
1000
0001
0100
0001
0010
0100
1000
0010
0100
0001
,
2000
3200
0320
0032
,
2003
3020
0230
0302
,
2003
3200
2300
3002
,
0203
0302
2003
3200
,
0320
0032
2003
3200
2300
3020
0230
0302
,
2003
3200
2300
3020
0230
0302
0023
0230
,
1300
0001
0100
0001
0010
0100
1000
0001
1000
0100
1000
0010
1000
0100
0010
0001
,
1000
1000
0100
0100
0020
0000
0032
0000
,
1003
0100
0010
0100
1000
0010
0100
0001
1000
0100
1000
0010
0100
0001
0010
0100
,
0010
0001
1000
0010
0100
0001
1000
0100
1000
0001
0100
0001
0010
0100
1000
0010
,
1000
0001
0010
0001
1000
0010
0100
0001
1000
0100
1000
0010
0100
0001
0010
0100
,
0010
0001
1000
0010
0100
0001
1000
0100
1000
0010
0100
0001
0010
0100
1000
0001
,
0010
0100
1000
0010
0100
0001
1000
0100
1000
0010
0100
0001
1000
0001
0010
0001
,
1000
0100
0010
0001
1000
0100
0010
0001
1000
0010
0100
0001
1000
0001
0010
0001
,
1000
0010
0100
0001
1000
0010
0100
0001
1000
0100
1000
0010
0100
0001
0010
0100
,
1000
0001
0100
0001
1000
0010
0100
0001
1000
0100
0010
0001
1000
0010
0100
0001
,
1000
0100
0010
0001
1000
0010
0100
0001
1000
0001
0010
0001
1000
0010
0100
0001
,
1000
0100
0010
0100
1000
0001
1000
0100
1000
0001
1000
0010
1000
0100
0010
0100
,
1000
0010
0100
0001
0010
0100
1000
0001
0100
0001
1000
0010
0100
0001
1000
0001
,
0010
0001
1000
0010
0100
0001
1000
0100
1000
0010
0100
0001
0010
0100
1000
0010
,
0100
0001
1000
0100
1000
0010
0100
0001
0010
0001
1000
0010
0100
0001
1000
0100
,
0010
0100
1000
0010
0100
0001
1000
0001
0010
0001
1000
0100
0010
0001
1000
0001
,
0010
0100
0010
0001
1000
0010
1000
0100
,
0010
0000
0001
0000
1000
0000
0100
0000
0010
0001
0100
0001
0010
0100
1000
0001
,
1000
0010
0100
0001
1000
0100
1000
0010
0100
0001
0010
0100
1000
0001
0100
0001
,
1000
0100
0010
0001
1000
0010
0100
0001
1000
0100
1000
0010
0100
0001
0010
0100
,
1000
0001
0100
0001
1000
0010
0100
0001
1000
0100
1000
0010
0100
0001
0010
0001
,
1000
0010
0100
0001
1000
0100
1000
0010
0100
0001
0010
0100
1000
0001
0100
0001
,
1000
0100
1000
0010
0100
0001
0010
0100
1000
0001
0100
0001
1000
0010
0100
0001
,
0010
0100
1000
0010
0100
0001
1000
0100
1000
0010
0100
0001
1000
0100
0010
0001
,
0010
0000
0000
0000
,
0000
0000
0000
0000
0000
0000
0000
0000
0000
0000
0000
0000
0000
0000
0100
1000
,
0010
0100
0001
1000
0100
1000
0010
0100
0001
0010
0100
1000
0001
0100
0001
1000
,
0010
0100
0001
0010
0100
1000
0001
0100
0001
1000
0100
0010
0001
1000
0010
0100
,
0001
0100
0010
1000
0100
0010
0001
1000
0100
1000
0010
0100
0001
1000
0001
0010
,
0100
0100
0010
0001
0010
0100
2000
0000
,
3001
1000
0100
1000
0010
0100
0001
0010
0100
1000
0001
0100
0001
1000
0100
0010
,
0001
1000
0010
0100
0001
1000
0001
0010
0001
1000
0100
0010
0100
1000
0010
0100
,
0001
1000
0100
1000
0010
0100
0001
0010
0100
1000
0001
0100
0001
1000
0001
0010
,
0100
1000
0001
0100
0001
1000
0010
0100
0001
0010
0100
1000
0001
0010
0001
1000
,
0001
0100
0010
1000
0001
0100
0010
1000
0100
0010
0001
1000
0100
0010
0001
1000
,
0010
0100
0001
1000
0010
0100
0001
1000
0100
0010
0001
1000
0100
0010
0001
1000
,
0010
0100
0001
1000
0010
0100
0001
1000
0100
0010
0001
1000
0100
0010
0001
1000
,
0010
0100
0001
1000
0010
0100
0001
1000
0100
0010
0001
1000
0100
0010
0001
1000
,
0010
0100
0001
1000
0010
0100
0001
1000
0100
0010
0001
1000
0100
0010
0001
1000
,
0010
0100
0001
1000
0010
0100
0001
1000
0100
0010
0001
1000
0100
0010
0001
1000
,
0010
0100
0001
1000
0010
0100
0001
1000
0100
0010
0001
1000
0100
0010
0001
1000
,
0002
2003
3020
0230
0302
2003
3200
0320
,
0031
1000
0010
0100
0001
1000
0100
1000
0010
0100
0001
0010
0001
1000
0100
0010
,
0001
1000
0010
0100
0001
1000
0100
1000
0010
0100
0001
0010
0001
1000
0100
0010
,
0001
1000
0100
1000
0001
0010
0100
1000
0001
0100
0001
1000
0100
0010
0001
1000
,
0100
0100
0010
0010
0001
0001
1000
1000
,
0220
0000
0000
0330
,
2200
0000
0000
3300
,
0220
0000
0000
0330
,
1100
0011
0000
1100
0000
1100
0000
1100
,
0010
0001
1000
0001
0100
0001
0010
0100
1000
0010
0100
0001
1000
0100
1000
0010
,
0100
0001
1000
0100
1000
0010
0100
0001
0010
0001
1000
0010
0100
0001
1000
0100
,
1000
0001
0100
0001
1000
0010
1000
0001
1000
0010
0100
0001
1000
0100
0010
0100
,
1000
0010
0100
0001
1000
0100
1000
0010
0100
0001
0010
0100
1000
0001
0100
0001
,
0010
0100
0010
0001
1000
0010
0100
0001
1000
0100
1000
0010
0100
0001
1000
0100
,
0010
0001
1000
0010
0100
0001
0010
0001
1000
0010
0100
0001
1000
0100
0010
0100
,
1000
0010
0100
0001
1000
0001
0010
0001
1000
0010
0100
0001
1000
0100
1000
0010
,
0100
0001
0010
0100
1000
0001
1000
0100
0010
0001
0100
0001
0010
0100
1000
0001
,
0010
0001
0100
0001
0010
0100
1000
0010
0100
0001
1000
0100
1000
0010
0100
0001
,
0010
0100
1000
0001
0100
0001
1000
0100
0010
0001
1000
0010
1000
0100
1000
0010
,
0100
0001
1000
0100
1000
0010
0100
0001
0010
0100
1000
0010
0100
0001
1000
0100
,
1000
0010
0100
0001
0010
0100
1000
0001
0100
0001
1000
0100
0010
0001
1000
0010
,
0100
0001
1000
0001
0010
0001
1000
0100
0010
0001
1000
0010
0100
0001
1000
0100
,
1000
0010
0100
0001
0010
0001
1000
0100
0010
0001
0100
0001
0010
0100
1000
0001
,
2000
3002
2003
3002
0203
0302
0023
0230
,
2300
0000
0000
0000
3020
0000
0000
0000
0130
0001
1000
0100
1000
0001
0100
0001
,
1000
0100
0010
0100
1000
0010
0100
0001
0010
0001
1000
0100
0010
0001
1000
0010
,
0100
0001
1000
0100
1000
0010
0100
0001
0010
0100
1000
0001
0100
0001
1000
0100
,
0010
0001
1000
0010
0100
0001
1000
0100
1000
0010
0100
0001
0010
0100
1000
0001
,
1000
0100
0010
0100
1000
0010
0100
0001
1000
0100
0010
0001
1000
0010
0100
0001
,
1000
0100
0010
0100
1000
0010
0100
0010
1000
0100
0010
0100
1000
0010
0100
0001
,
0010
0100
0010
0001
0100
0001
0010
0100
0010
0001
1000
0100
1000
0010
0100
0001
,
1000
0010
0100
0001
1000
0100
0010
0001
1000
0100
0010
0001
1000
0010
0100
0001
,
2000
0000
0000
3000
0000
0000
2000
0000
0000
3000
0000
0000
2000
0000
0000
3000
0000
0000
0001
1000
0001
1000
0001
1000
,
0001
1000
0100
1000
0010
0100
0001
0010
0001
1000
0100
1000
0010
0100
0001
0010
,
0001
1000
0100
0010
0100
1000
0010
0100
0001
1000
0001
0010
0001
1000
0100
0010
,
0001
1000
0010
0100
0001
1000
0001
0010
0001
1000
0100
0010
0100
1000
0010
0100
,
0001
1000
0001
0010
0001
1000
0100
0010
0100
1000
0010
0100
0001
1000
0001
0010
,
0001
1000
0100
0010
0100
1000
0010
0100
0001
1000
0001
0010
0100
1000
0001
0100
,
0001
1000
0100
1000
0010
0100
0001
1000
0100
0010
0100
1000
0010
0100
0001
0010
,
0100
0000
0100
0000
1000
0000
0010
0000
0100
0001
0010
0100
1000
0010
0100
0001
,
1000
0010
0100
0001
0010
0100
1000
0010
,
0200
0000
0000
0000
,
0000
0000
0000
0000
,
M3MM
0000
0000
0000
,
0000
0000
0000
0000
0000
0000
0000
0000
0000
0000
0000
0000
0001
0010
0100
1000
,
0002
1003
0020
0130
0002
1003
0200
0310
,
0002
1003
0020
0130
0002
0013
0200
1300
,
0002
1003
0200
0310
0002
1003
0020
0130
,
0002
1003
0200
1300
0020
0130
0002
0013
,
0002
1003
0200
0310
0002
1003
0020
0130
,
0002
1003
0200
1300
0020
0130
0002
0013
,
0200
1300
0002
0103
0002
1003
0200
0310
,
0002
1003
0020
0130
0002
1003
0002
0013
,
0002
1003
0200
0310
0002
1003
0020
0130
,
0002
1003
0200
1300
0020
0130
0002
0013
,
0200
1300
0002
0103
0002
1003
0200
0310
,
0002
1003
0020
0130
0002
1003
0002
0013
,
0002
1003
0002
0103
0002
1003
0200
1300
,
0002
1003
0020
1030
0002
1003
0200
1300
,
0002
1003
0020
1030
0200
0310
0002
1003
,
0002
0103
0002
0013
0200
1300
0002
0103
,
0002
0003
0000
0000
0000
0000
0000
0000
,
2000
3000
0000
0000
,
0200
0300
0020
0000
0030
0000
0002
0003
,
0000
0000
0000
0000
0000
0000
0000
0000
0000
0000
0000
0000
0100
0010
1000
0100
,
0020
0032
2003
3020
,
0230
0302
2003
3200
2300
3020
0230
0302
,
0013
0000
0000
0000
,
0000
0000
0000
0200
,
2300
3002
2003
3002
,
2003
3200
0320
0230
2300
3200
0320
0230
,
1300
0001
0100
0001
0010
0100
1000
0010
0100
0001
1000
0100
1000
0010
0100
0001
,
0010
0000
MMMM
0000
,
0100
1000
0001
0100
0001
1000
0010
0100
0001
0010
0100
1000
0001
1000
0010
1000
,
0100
0010
0001
1000
0001
0100
0001
0010
0100
1000
0010
0100
0001
1000
0100
1000
,
0010
0100
0001
0010
0100
1000
0001
0100
0001
1000
0100
0010
0001
1000
0010
0100
,
0001
1000
0001
0010
0001
1000
0100
0010
0001
1000
0010
0100
0001
1000
0001
0010
,
0100
1000
0010
1000
0100
0010
0001
1000
0001
0100
0010
1000
0100
0010
0001
1000
,
0010
0100
0001
1000
0001
0010
0001
1000
0100
0010
0001
1000
0010
0100
0001
1000
,
0100
1000
0010
0100
0001
0010
0100
1000
0001
0100
0001
1000
0100
0010
0001
1000
,
0010
0100
0001
1000
0001
0010
0001
1000
0100
0010
0001
1000
0010
0100
0001
1000
,
0010
1000
0100
0010
0100
1000
0010
0100
0001
1000
0001
0010
0001
1000
0100
0010
,
0100
1000
0010
0100
0001
1000
0001
0010
0001
1000
0100
0010
0001
1000
0010
0100
,
0001
1000
0100
1000
0010
0100
0001
0010
0100
0010
0001
1000
0100
1000
0010
0100
,
0001
1000
0001
0010
0001
1000
0100
0010
0001
1000
0100
0010
0001
1000
0010
0100
,
0001
1000
0100
1000
0010
0100
0001
0010
0001
1000
0100
1000
0001
0010
0001
1000
,
0010
0100
0001
1000
0100
1000
0010
0100
0001
0010
0100
1000
0001
0100
0001
1000
,
0100
0010
0001
1000
0001
0100
0001
0010
0100
1000
0001
0100
0001
1000
0010
1000
,
0400
0000
0000
0000
0000
0000
0000
0000
0310
0001
1000
0001
0100
0001
0010
0100
,
1000
0010
0100
0001
1000
0100
1000
0010
0100
0001
0010
0100
1000
0001
0100
0001
,
1000
0100
0010
0100
1000
0100
0010
0100
1000
0010
0100
0001
0010
0100
0010
0001
,
1000
0001
0010
0100
1000
0001
0100
0001
1000
0100
0010
0001
1000
0010
0100
0001
,
1000
0001
0100
0001
1000
0010
0100
0001
0010
0100
1000
0001
0100
0001
1000
0100
,
0010
0001
1000
0010
1000
0100
0010
0001
1000
0001
0100
0001
0010
0100
1000
0010
,
0100
0001
0010
0001
1000
0100
0010
0001
1000
0010
0100
0001
1000
0001
0010
0100
,
1000
0001
0100
0001
1000
0010
0100
0001
0010
0100
1000
0001
0100
0001
0010
0100
,
2000
3000
0002
0003
0200
0300
0002
0003
2000
3000
0020
0030
0200
0300
0002
0003
0020
0030
0200
0300
2000
3000
0002
0003
0200
0300
0020
0030
2000
3000
0200
0300
,
0020
0030
0001
0000
1000
0000
0100
0000
1000
0000
0010
0000
0100
0000
0001
0000
0010
0000
0100
0000
1000
0000
0001
0000
0100
0000
0001
0000
1000
0000
0010
0000
,
0100
0001
1000
0100
0010
0100
1000
0010
0100
0001
0010
0100
0010
0001
1000
0010
,
0100
0001
1000
0100
1000
0001
0010
0100
1000
0010
0100
0001
1000
0100
1000
0010
,
0100
0001
0010
0001
1000
0010
0100
0001
1000
0100
1000
0010
0100
0001
1000
0100
,
1000
0010
0100
0001
0010
0001
1000
0010
0100
0001
1000
0100
1000
0001
0010
0100
,
1000
0010
0100
0001
1000
0100
1000
0010
0100
0001
0010
0001
1000
0100
0010
0001
,
2000
3020
0030
0000
,
0000
0000
0000
1111
,
0100
0001
0010
0100
1000
0001
0100
0001
1000
0100
1000
0010
0100
0001
0010
0100
,
1000
0001
0100
0001
1000
0010
1000
0100
0010
0001
1000
0001
0100
0001
0010
0100
,
1000
0001
0100
0001
1000
0100
0010
0001
1000
0010
1000
0100
0010
0100
1000
0010
,
0100
0001
0010
0100
1000
0001
0100
0001
2000
0000
3200
0000
0320
0000
0230
0000
,
1300
0001
0100
0001
1000
0010
0100
0001
0010
0001
1000
0010
0100
0001
1000
0100
,
0010
0100
1000
0010
0100
0001
0010
0001
1000
0010
0100
0001
1000
0100
1000
0010
,
0100
0001
0010
0100
0010
0001
1000
0010
0100
0001
1000
0100
1000
0010
0100
0001
,
0010
0100
1000
0001
0100
0001
1000
0100
0010
0001
0100
0001
0010
0100
1000
0010
,
0100
0001
1000
0100
1000
0010
0100
0001
0010
0100
1000
0001
0100
0001
1000
0100
,
0010
0001
1000
0010
0100
0001
1000
0010
0100
0001
1000
0100
1000
0010
0100
0001
,
0010
0100
1000
0001
0100
0001
1000
0010
0100
0001
1000
0100
0010
0001
1000
0010
,
0100
0001
1000
0100
1000
0010
0100
0001
0010
0100
1000
0010
0100
0001
1000
0100
,
0010
0001
1000
0001
0100
0001
0010
0100
1000
0001
0100
0001
1000
0100
1000
0010
,
0100
0001
0010
0100
1000
0001
1000
0100
1000
0010
0100
0001
0010
0100
1000
0001
,
1000
0100
1000
0010
0100
0001
0010
0100
1000
0001
0100
0001
1000
0100
0010
0001
,
1000
0010
0100
0001
1000
0100
1000
0010
1000
0100
1000
0010
0100
0001
1000
0100
,
0010
0001
1000
0001
0100
0001
0010
0100
1000
0010
0100
0001
1000
0100
1000
0010
,
0100
0001
1000
0001
0010
0001
1000
0100
0010
0001
1000
0010
0100
0001
1000
0100
,
1000
0010
0100
0001
0010
0001
1000
0010
0100
0001
1000
0100
1000
0010
0100
0001
,
1000
0100
1000
0010
0100
0001
0010
0100
1000
0001
0100
0001
1000
0010
0100
0001
,
1000
0100
0010
0001
1000
0010
0100
0001
1000
0100
1000
0010
0100
0001
0010
0100
,
0010
0001
1000
0010
0100
0001
1000
0100
1000
0010
0100
0001
1000
0010
0100
0001
,
1000
0100
0010
0001
1000
0010
0100
0001
1000
0100
1000
0010
0100
0001
0010
0100
,
2000
0000
0000
0000
3200
0000
0000
0000
0320
0000
0000
0000
0031
1000
0100
1000
,
0010
0100
0001
0010
0100
1000
0001
0100
0001
1000
0010
0100
0001
1000
0100
0010
,
0100
1000
0010
0100
0001
0010
0001
1000
0010
0100
0001
1000
0100
1000
0010
0100
,
0001
0010
0001
1000
0010
0100
0001
1000
0100
1000
0010
0100
0001
1000
0001
0010
,
0001
1000
0010
0100
0001
1000
0100
1000
0010
0100
0001
0010
0100
1000
0001
0100
,
0001
1000
0100
0010
0001
1000
0100
0010
0001
1000
0010
0100
0001
1000
0001
0010
,
0100
1000
0001
0100
0001
1000
0100
0010
0001
1000
0010
0100
0001
1000
0100
1000
,
0010
0100
0001
0010
0100
1000
0010
0100
0001
1000
0100
0010
0100
1000
0001
0010
,
0200
0000
0300
0000
0200
0300
0200
0300
,
1000
0001
0100
0001
1000
0010
0100
0001
0010
0100
1000
0001
0100
0001
1000
0100
,
0010
0001
1000
0010
0100
0001
1000
0001
0010
0100
1000
0001
0100
0001
1000
0100
,
0010
0001
1000
0100
0010
0001
1000
0001
0100
0001
0010
0100
1000
0010
0100
0001
,
1000
0100
1000
0010
0100
0001
0010
0100
1000
0001
0100
0001
1000
0010
0100
0001
,
0010
0100
1000
0001
0100
0001
1000
0100
0010
0001
1000
0010
1000
0100
0010
0001
,
1000
0001
0100
0001
0010
0100
1000
0010
0100
0001
1000
0001
0010
0001
1000
0100
,
0010
0001
1000
0010
0100
0001
1000
0100
1000
0001
0100
0001
0010
0100
1000
0001
,
2000
3020
0230
0302
2003
3200
0320
0032
,
1003
0100
0010
0100
1000
0010
0100
0001
1000
0001
0010
0001
1000
0010
0100
0001
,
1000
0100
1000
0010
0100
0001
0010
0100
1000
0001
0100
0001
1000
0100
0010
0001
,
1000
0010
0100
0010
1000
0100
0010
0001
1000
0001
0100
0001
0010
0100
1000
0001
,
1000
0010
1000
0100
0010
0001
0100
0001
0010
0100
1000
0010
0100
0001
0010
0001
,
1000
0100
0010
0001
1000
0010
0100
0001
1000
0100
1000
0010
0100
0001
0010
0001
,
1000
0010
0100
0001
1000
0100
0010
0100
1000
0010
0100
0001
1000
0001
0010
0100
,
1000
0100
0010
0001
0000
0000
1000
0100
0000
0000
0010
0001
0000
0000
1000
0100
,
0020
0000
0032
0000
,
1003
0010
0100
0001
1000
0100
1000
0010
0100
0001
0010
0100
1000
0001
0100
0001
,
1000
0100
0010
0001
1000
0010
0100
0001
1000
0001
0010
0001
1000
0100
0010
0001
,
1000
0010
0100
0001
1000
0100
1000
0010
0100
0001
0010
0100
1000
0001
0100
0001
,
1000
0100
0010
0001
1000
0010
0100
0001
1000
0010
0100
0010
1000
0100
0010
0001
,
1000
0001
0100
0001
0010
0100
1000
0010
0100
0001
1000
0100
1000
0010
0100
0001
,
0010
0100
1000
0001
0100
0001
1000
0100
0010
0001
1000
0010
0100
0001
1000
0001
,
0010
0000
0100
1000
0000
0000
0001
0010
0000
0000
0100
1000
0000
0000
0001
0010
,
0100
1000
0001
0100
0001
1000
0010
0100
0001
0010
0100
1000
0001
0100
0001
1000
,
0100
0010
0001
1000
0010
1000
0100
0010
0001
1000
0001
0100
0010
1000
0100
0010
,
0100
1000
0010
0100
0001
0010
0001
1000
0010
0100
0001
1000
0100
1000
0010
0100
,
0001
0010
0001
1000
0100
0010
0001
1000
0010
0100
0001
1000
0100
1000
0010
0100
,
0001
0010
0100
1000
0001
0100
0001
1000
0100
0010
0001
1000
0002
0000
0000
0000
,
0013
0100
1000
0001
0100
0001
1000
0100
0010
0001
1000
0010
0100
0001
1000
0100
,
1000
0010
0100
0001
0010
0100
1000
0001
0100
0001
1000
0100
0010
0001
1000
0001
,
0010
0100
1000
0001
0100
0001
1000
0100
0010
0001
1000
0010
0100
0001
1000
0100
,
0010
0001
0000
0000
1000
0100
0000
0000
1001
0000
0000
0000
1000
0000
0000
0000
,
0020
0000
0000
0000
,
0000
0000
0000
0000
,
0030
0000
0000
0000
,
MMMM
0000
0000
0000
;
