#TITLE:Internet Dream;
#SUBTITLE:;
#ARTIST:Tay Zonday;
#TITLETRANSLIT:;
#SUBTITLETRANSLIT:;
#ARTISTTRANSLIT:;
#CREDIT:Arch0wl;
#BANNER:internetdream-bn.png;
#BACKGROUND:internetdream-bg.png;
#LYRICSPATH:;
#CDTITLE:!Arch0wlTitle.png;
#MUSIC:internetdream.ogg;
#OFFSET:-0.045;
#SAMPLESTART:23.876;
#SAMPLELENGTH:23.802;
#SELECTABLE:YES;
#BPMS:0.000=160.000;
#STOPS:;
#BGCHANGES:0.000=internetdream-bg.png=1.000=0=0=1,
99999=-nosongbg-=1.000=0=0=0 // don't automatically add -songbackground-
;
// cache tags:
#FIRSTBEAT:0.000;
#LASTBEAT:287.000;
#SONGFILENAME:Songs/Archmage and Dark0wl Hammer of Thor UltraHyperMegaPack/Internet Dream/internetdream.sm;
#HASMUSIC:1;
#HASBANNER:1;
#MUSICLENGTH:105.000;
// end cache tags

//---------------dance-single - Arch0wl----------------
#NOTES:
     dance-single:
     Arch0wl:
     Hard:
     8:
     0.396,0.477,0.286,0.000,0.000,261.000,30.000,0.000,0.000,0.000:
0000
0000
0000
0000
,
0000
0000
0000
0000
,
0000
0000
0000
0000
,
0000
0000
0000
0000
,
1000
1000
0001
0010
0000
0010
0000
0010
,
0001
0001
0101
0000
0110
0000
0000
0000
,
0010
1000
0001
0010
0000
0010
0000
0010
,
0001
0100
0010
0000
1010
0000
0000
0000
,
1000
0100
1000
1001
0000
0010
0000
0100
,
0001
0001
0001
0000
0110
0000
0000
0000
,
1000
0010
0100
0010
0000
0010
1000
0100
,
0010
0010
0010
0000
1100
0000
0000
0000
,
1000
1000
0001
0100
0000
0100
0000
0100
,
0001
1000
0100
0000
0011
0000
0000
0000
,
0010
0001
1000
1100
0000
1100
0000
0010
,
0100
1000
0001
0000
1010
0000
0000
0000
,
1000
0100
0010
0001
0000
0001
0000
0001
,
1000
0100
0010
0000
1100
0000
0000
0000
,
1000
0010
0100
0001
0000
0001
0000
0001
,
1000
0010
0100
0000
1010
0000
0000
0000
,
1000
0100
0010
0001
0000
0001
0000
0001
,
1000
0100
0010
0000
1100
0000
0000
0000
,
1000
0010
0100
0001
0000
0001
0000
0001
,
1000
0010
0100
0000
1010
0000
0000
0000
,
0001
0010
0100
1000
0000
1000
0000
1000
,
0001
0010
0100
0000
0011
0000
0000
0000
,
0001
0100
0010
1000
0000
1000
0000
1000
,
0001
0100
0010
0000
0101
0000
0000
0000
,
0001
0010
0100
1000
0000
1000
0000
1000
,
0001
0010
0100
0000
0011
0000
0000
0000
,
0001
0100
0010
1000
0000
1000
0000
1000
,
0001
0100
0010
0000
0101
0000
0000
0000
,
0000
0000
0000
0000
,
0000
0000
0000
0000
,
0000
0000
0000
0000
,
0000
0000
0000
0000
,
0000
0000
0000
0000
,
0000
0000
0000
0000
,
0000
0000
0000
0000
,
0000
0000
0000
0000
,
0000
0000
0000
0000
,
0000
0000
0000
0000
,
0000
0000
0000
0000
,
0000
0000
0000
0000
,
0000
0000
0000
0000
,
0000
0000
0000
0000
,
0000
0000
0000
0000
,
0000
0000
0000
0000
,
0010
1000
0001
0100
0000
0100
0000
0100
,
0010
1000
0001
0000
1100
0000
0000
0000
,
0010
0001
1000
0100
0000
0100
0000
0100
,
0010
0001
1000
0000
0011
0000
0000
0000
,
0010
1000
0001
0100
0000
0100
0000
0100
,
0010
1000
0001
0000
1100
0000
0000
0000
,
0010
0001
1000
0100
0000
0100
0000
0100
,
0010
0001
1000
0000
0011
0000
0000
0000
,
0100
0001
1000
0010
0000
0010
0000
0010
,
0100
0001
1000
0000
0011
0000
0000
0000
,
0100
1000
0001
0010
0000
0010
0000
0010
,
0100
1000
0001
0000
1100
0000
0000
0000
,
0100
0001
1000
0010
0000
0010
0000
0010
,
0100
0001
1000
0000
0011
0000
0000
0000
,
0100
1000
0001
0010
0000
0010
0000
0010
,
0100
1000
0001
0000
1100
0000
0000
0000
,
0010
1000
0001
0100
0000
0100
0000
0100
,
0010
1000
0001
0000
1100
0000
0000
0000
,
0010
0001
1000
0100
0000
0100
0000
0100
,
0010
0001
1000
0000
0101
0000
0000
0000
,
0010
1000
0001
0100
0000
0100
0000
0100
,
0010
1000
0001
0000
1100
0000
0000
0000
,
0010
0001
1000
0100
0000
0100
0000
0100
,
0010
0001
1000
0000
0101
0000
0000
0000
;

//---------------dance-single - Arch0wl----------------
#NOTES:
     dance-single:
     Arch0wl:
     Challenge:
     12:
     1.000,1.000,1.000,0.000,0.267,469.000,317.000,0.000,0.000,0.000:
0001
0000
0001
1000
0010
1000
0100
0000
,
0100
0010
0001
0100
0010
0001
0010
0100
,
0001
0000
0001
1000
0100
1000
0010
0100
,
0010
0100
0001
0010
0100
0010
0001
0000
,
1001
0010
0101
1010
0100
0010
0100
0010
,
0101
0011
0110
0000
0110
0000
0000
0000
,
0110
0001
0110
0011
0100
0010
0100
0010
,
0101
1100
0110
0000
1001
0000
0000
0000
,
1010
0100
1010
1001
0100
1000
0100
1000
,
0101
0011
0110
0000
0110
0000
0000
0000
,
1001
0010
0101
0110
0001
0010
0001
0010
,
1100
0110
0011
0000
1100
0000
0000
0000
,
1010
0100
0011
1100
0010
0100
0010
0100
,
0011
1100
0110
0000
0011
0000
0000
0000
,
1010
0001
1010
0101
0010
0100
0010
0100
,
0110
1100
1001
0000
1010
0000
0000
0000
,
1100
0110
0011
1001
0010
1001
0010
1001
,
1100
0110
0011
0010
1100
0010
0001
0000
,
1010
0110
0101
1001
0010
1001
0010
1001
,
1010
0110
0101
0010
1010
0100
0001
0000
,
1100
0110
0011
1001
0010
1001
0010
1001
,
1100
0110
0011
0100
1100
0010
0001
0000
,
1010
0110
0101
0011
0100
0011
0100
0011
,
1010
0011
0101
0010
1010
0001
0100
0000
,
1001
1010
1100
1010
0100
1010
0100
1010
,
0101
1010
1100
0010
0011
0100
1000
0000
,
1001
1100
0110
1001
0010
1001
0010
1001
,
0101
0110
1010
0010
0101
0010
1000
0000
,
0011
0110
1100
1001
0100
1001
0100
1001
,
0101
1010
1100
0010
0011
0100
1000
0000
,
1001
1100
0110
1001
0010
1001
0010
1001
,
0101
0110
1010
0010
0101
0010
1000
0000
,
0000
0000
0000
0000
0000
0000
0000
0000
0000
0000
0000
0000
0000
0000
0000
0000
0000
0000
0000
0000
0000
0000
0000
0000
0000
0000
0000
0000
0000
0000
0000
0000
0000
0000
0000
0000
0000
0000
0000
0000
0000
0000
0000
0000
0000
0000
0000
0000
0001
0000
0000
0000
0000
0000
0000
0000
0000
0000
0000
0000
0000
0000
0000
0000
0000
0000
0000
0000
0000
0000
0000
0000
0000
0000
0000
0000
0000
0000
1000
0000
0000
0000
0000
0000
0000
0000
0000
0000
0000
0000
0000
0000
0000
0000
0000
0000
0000
0000
0000
0000
0000
0000
0010
0000
0000
0000
0000
0000
0000
0000
0000
0000
0000
0000
0000
0000
0000
0000
0000
0000
0000
0000
0000
0000
1000
0000
0000
0000
0000
0000
0000
0000
0000
0000
0000
0000
0000
0000
0000
0000
0000
0000
0000
0000
0000
0000
0000
0000
0000
0000
0000
0000
0000
0000
0000
0000
0000
0000
0000
0000
0000
0000
0000
0000
0000
0000
0000
0000
0000
0000
0000
0000
0000
0000
0000
0000
0000
0000
0000
0000
0000
0000
0000
0000
0000
0000
0000
0000
0000
0000
0000
0000
,
0000
0000
0000
0101
0000
0000
1010
0000
0000
0000
0000
0000
0000
0000
0000
0000
,
0010
0000
0000
0000
0100
0000
0001
0000
0010
0000
0100
0000
0000
1000
0000
0000
0000
0000
0000
1000
0000
0000
0000
0000
0000
0001
0000
0000
0000
0000
0000
0000
,
0000
0000
0000
0000
0000
0000
0000
0000
0000
0010
0000
0000
0000
0000
0000
0000
0000
0000
0000
0000
0000
0000
0000
0000
0000
0000
0000
0000
0000
0000
0000
0000
0010
0000
0000
0000
0000
0000
0000
0000
0000
0000
0000
0000
0000
0000
0000
0000
0000
0000
0000
0010
0000
0000
0000
0000
0000
0000
0000
0000
0000
0000
0000
0000
0000
0000
0000
0000
0000
0000
0000
0000
0000
0000
0000
0000
0000
0000
0000
0000
0000
0000
0000
0000
0000
0000
0000
0000
0000
0000
0000
0000
0000
0000
0000
0000
0000
0000
0000
0000
0000
0000
0000
0000
0000
0000
0000
0000
0000
0000
0000
0000
0000
0000
0000
0000
0000
0000
0000
0000
0000
0000
0000
0000
0000
0000
0000
0000
0000
0000
0000
0000
0000
0000
0000
0000
0000
0000
0000
0000
0000
0000
0000
0000
0000
0000
0000
0000
0000
0000
0000
0000
0000
0000
0000
0000
0000
0000
0000
0000
0000
0000
0000
0000
0000
0000
0000
0000
0000
0000
0000
0000
0000
0000
0000
0000
0000
0000
0000
0000
0000
0000
0000
0000
0000
0000
0000
0000
0100
0000
0000
0000
,
0000
0000
0000
0000
0000
0000
0000
0000
0000
0000
0000
0000
0000
0000
0000
0000
0000
0000
0000
0000
0000
0000
0000
0000
0000
0000
0000
0000
0000
0000
0000
0000
0000
0000
0000
0000
0000
0000
0000
0000
0000
0000
0000
0000
0000
1000
0000
0000
0000
0000
0000
0000
0000
0000
0000
0000
0000
0000
0000
0000
0000
0000
0000
0000
0000
0000
0000
0000
0000
0000
0000
0000
0000
0000
0000
0010
0000
0000
0000
0000
0000
0000
0000
0000
0000
0000
0000
0000
0000
0000
1000
0000
0000
0000
0000
0000
0000
0000
0000
0000
0000
0000
0000
0000
0000
0000
0000
0000
0100
0000
0000
0000
0000
0000
0000
0000
0000
0000
0000
0000
0000
0000
0000
0010
0000
0000
0000
0000
0000
0000
0000
0000
0000
0000
0000
0000
0000
0000
0000
0000
0000
0000
0000
0000
0000
0000
0000
0000
0000
0000
0000
0000
0000
0000
0000
0000
0000
0000
0000
0000
0001
0000
0000
0000
0000
0000
0000
0000
0000
0000
0000
0000
0000
0000
0000
0000
0000
0000
0000
0000
0000
0000
0000
0000
0000
0000
0000
0000
0000
0000
0000
0000
,
0000
0000
0000
0000
0000
0000
0000
0000
0000
0000
0000
0000
0000
0000
0000
0000
0011
0000
0000
0000
0000
0000
0000
0000
0000
0000
0000
0000
0000
0000
0000
0000
0000
0000
0000
0000
0000
0000
0000
0000
0000
0000
1001
0000
0000
0000
0000
0000
0000
0000
0000
0000
0000
0000
0000
0000
0000
0000
0000
0000
0000
0000
0000
0000
0000
0000
0000
0000
1100
0000
0000
0000
0000
0000
0000
0000
0000
0000
0000
0000
0000
0000
0000
0000
0000
0000
0000
0000
0000
0000
0000
0000
0000
0000
0000
0000
0000
0000
0000
0000
0000
0000
0000
0000
0000
0000
0000
0000
0000
0000
0000
0000
0000
0000
0000
0000
0000
0000
0000
0000
0000
0000
0000
0000
0000
0000
0000
0000
0000
0000
0000
0000
0000
0000
0000
0000
0000
0000
0000
0000
0000
0000
0000
0000
0000
0000
0000
0000
0000
0000
0000
0000
0000
0000
0000
0000
0000
0000
0000
0000
0000
0000
1000
0000
0000
0000
0000
0000
0000
0000
0000
0000
0000
0000
0000
0000
0000
0000
0000
0000
0000
0000
0000
0000
0000
0000
0000
0000
0000
0000
0000
0000
,
0000
0000
0000
0000
0000
0000
1000
0000
0000
0000
0000
0000
0000
0000
0001
0000
0000
0000
0000
0000
0000
1000
0000
0000
0000
0000
0000
0000
0000
0000
0000
0000
0100
0000
0000
0000
0000
0000
0000
0010
0000
0000
0000
0000
0000
0000
0000
0000
0001
0000
0000
0000
0000
0000
0000
0000
0000
0000
0000
0000
0001
0000
0000
0000
,
0000
0000
0000
0000
0000
0000
0000
0000
0000
0000
0000
0000
0100
0000
0000
0000
0000
0000
0000
0000
0000
0000
0010
0000
0000
0000
1000
0000
0000
0000
0000
0000
0000
0100
0000
0000
0000
0000
0000
0000
0010
0000
0000
0000
0000
0000
0001
0000
0000
0000
0000
0000
0000
0001
0000
0000
0000
0000
0000
0100
0000
0000
0000
0000
,
0000
0000
0000
0010
0000
0000
0000
0000
0000
0000
0000
0000
0000
0000
0000
0000
0000
0000
0000
0000
0000
0000
0000
0000
1010
0000
0000
0000
0000
0000
0000
0000
0000
0000
0000
0101
0000
0000
0000
0000
0000
0000
0000
0000
0000
0000
0000
0000
0000
0000
0000
0000
0000
0000
0000
0000
0000
0000
0000
0000
0000
0000
0000
0000
,
0000
0000
0000
0000
0000
0000
0000
0000
0000
0000
0000
0000
0000
0000
0000
0000
0000
1000
0000
0000
0000
0000
0010
0000
0000
0000
0000
0000
0000
0000
0000
0000
0000
0000
0000
0000
0000
0000
0000
0000
0000
0000
0000
0000
1001
0000
0000
0000
0000
0000
0000
0000
0000
0000
0000
0000
0000
0000
0000
0000
0000
0000
0000
0000
,
0000
0000
0000
0000
0000
0000
0000
0000
0000
0000
0000
0000
0000
0000
0000
0000
0000
0000
0000
0000
0000
0000
1000
0000
0000
0000
0000
0000
0000
0000
0000
0000
0100
0000
0000
0000
0000
0000
0000
0000
0000
0000
0000
0000
0010
0000
0000
0000
0000
0001
0000
0000
0000
0000
0100
0000
0000
0000
0000
0000
0000
0000
0000
0000
,
0000
0000
0000
0000
0000
0000
0100
0000
0000
0000
0000
0000
0000
0000
0000
0000
0000
0000
0000
0000
0000
0000
0000
0000
0000
0000
0000
0000
0000
0000
0000
0000
0000
0000
0000
0000
0000
0000
0000
0000
0000
0000
0000
0000
0000
0000
0000
0000
0000
0000
0000
0000
0000
0000
0000
0000
0000
0000
0000
0000
0000
0000
0000
0000
0000
0000
0000
0000
0000
0000
0000
0000
0000
0000
0000
0000
0000
0000
0000
0000
0000
0000
0000
0000
0000
0000
0000
0000
0000
0000
0000
0000
0000
0000
0000
0000
0000
0000
0000
0000
0000
0000
0000
0000
0000
0000
0000
0000
0000
0000
0000
0001
0000
0000
0000
0000
0000
0000
0000
0000
0000
0000
0000
0000
0000
0000
0000
0000
0000
0000
0000
0000
0000
0000
0000
0000
0000
0000
0000
0000
0000
0000
0000
0000
0000
0000
0000
1100
0000
0000
0000
0000
0000
0000
0000
0000
0000
0000
0000
0000
0000
0000
0000
0000
0000
0000
0000
0000
0000
0000
0000
0000
0000
0000
0000
0000
0000
0000
0000
0000
0000
0000
0000
0000
0010
0000
0000
0000
0000
0000
0000
0000
,
0000
0000
0000
0000
0000
0000
0000
0000
0000
0000
0000
0000
0000
0000
0000
0000
0000
0000
0000
0000
0001
0000
0000
0000
0000
0000
0000
0000
0000
0000
0000
0000
0000
0000
0000
0000
0000
0000
0000
0000
0000
0000
0000
0000
0000
0000
0000
0000
1001
0000
0000
0000
0000
0000
0000
0000
0000
0000
0000
0000
0000
0000
0000
0000
0000
0000
0000
0000
0000
0000
0000
0000
1010
0000
0000
0000
0000
0000
0000
0000
0000
0000
0000
0000
0000
0000
0000
0000
0000
0000
0000
0000
0000
0000
0000
0000
0000
0000
0000
0000
0000
0000
0000
0000
0000
0110
0000
0000
0000
0000
0000
0000
0000
0000
0000
0000
0000
0000
0000
0000
0000
0000
0000
0000
0000
0000
0000
0000
0000
0000
0000
0000
0000
0000
0000
0000
0000
0000
0000
0000
0000
0000
0000
0000
1001
0000
0000
0000
0000
0000
0000
0000
0000
0000
0000
0000
0000
0000
0000
0000
0000
0000
0000
0000
0000
0000
0000
0000
0000
0000
0000
0000
0000
0000
0000
0000
0000
0000
0000
0000
0000
0000
0000
0000
0100
0000
0000
0000
0000
0000
0000
0000
,
0000
0000
0000
0000
0000
0010
0000
0000
0000
0000
0000
0000
0000
0000
1001
0000
0000
0000
0000
0000
0000
0000
0000
0000
0000
0000
0000
0110
0000
0000
0000
0000
0000
0000
0000
0000
0000
0000
0000
0000
0000
0000
0000
0000
0000
0000
0000
0000
0000
0000
0000
0000
0000
0000
0000
0000
0000
0000
0000
0000
0000
0000
0000
0000
,
0000
0000
0000
0000
0000
0000
0000
0000
0000
0000
0000
0000
0000
0000
0000
0000
0000
0000
0100
0000
0000
0000
0000
0000
0000
0000
0000
0000
0000
0000
0000
0001
0000
0000
0000
0000
0000
0000
0000
0000
0000
0000
0000
0000
0000
0000
0000
0000
0000
0000
0000
0000
0000
0000
0000
0000
0000
0000
0000
0000
0000
0000
0000
0000
,
0000
0000
0000
0000
,
0011
0110
1100
1001
1100
1001
1100
1001
,
1100
0110
0011
0110
1100
0110
1001
0000
,
0101
0110
1010
1001
0101
1001
0101
1001
,
0101
0110
1010
0110
0101
0110
1001
0000
,
0011
0110
1100
1001
0011
1001
0011
1001
,
0011
0110
1100
0110
0011
0110
1001
0000
,
0101
0110
1010
1100
0110
1100
0110
1100
,
0110
1100
1010
0110
0101
0011
1001
0000
,
1001
0101
0011
0101
1001
0101
1001
0101
,
1001
1010
0110
0101
0011
0110
1001
0000
,
1001
0011
0110
1001
0101
1001
0101
1001
,
0101
0110
1010
1100
0110
0011
1001
0000
,
1100
0110
0011
1001
1010
1001
1010
1001
,
1010
0101
0011
0110
1100
0110
1001
0000
,
1001
0011
0110
1001
1010
1001
1010
1001
,
1010
0110
0101
0011
0110
1100
1001
0000
,
0011
0110
1100
1001
1100
1001
1100
1001
,
1100
0110
0011
0110
1100
0110
1001
0000
,
0101
0110
1010
1001
0101
1001
0101
1001
,
0101
0110
1010
0110
0101
0110
1001
0000
,
0011
0110
1100
1001
0011
1001
0011
1001
,
0011
0110
1100
0110
0011
0110
1001
0000
,
0101
0110
1010
1100
0110
1100
0110
1100
,
0110
1100
1010
0110
0101
0011
1001
0000
;
