#TITLE:A Useless Chatting;
#SUBTITLE:;
#ARTIST:Kajiura Yuki;
#TITLETRANSLIT:;
#SUBTITLETRANSLIT:;
#ARTISTTRANSLIT:;
#CREDIT:;
#BANNER:BAN.png;
#BACKGROUND:BG.png;
#LYRICSPATH:;
#CDTITLE:KOMBO.png;
#MUSIC:A Useless Chatting.mp3;
#OFFSET:-0.521;
#SAMPLESTART:46.134;
#SAMPLELENGTH:13.000;
#SELECTABLE:YES;
#BPMS:0.000=120.050;
#STOPS:;
#BGCHANGES:;
// cache tags:
#FIRSTBEAT:0.000;
#LASTBEAT:166.500;
#SONGFILENAME:Songs/Definitive Keyboard Megapack/A Useless Chatting [KOMBO]/uselesschatting.sm;
#HASMUSIC:1;
#HASBANNER:1;
#MUSICLENGTH:86.543;
// end cache tags

//---------------dance-single - KOMBO----------------
#NOTES:
     dance-single:
     KOMBO:
     Hard:
     10:
     0.720,0.863,0.300,0.000,1.000,410.000,26.000,0.000,0.000,0.000:

1000
0000
1000
0010
0000
0010
0100
0000
0100
0001
0000
0001
0000
0001
0010
0000
,
0100
0000
0100
0001
0000
0001
0010
0000
0010
1000
0000
1000
0000
1000
0100
0000
,
0010
0000
0010
0001
0000
0001
1000
0000
1000
0100
0000
0100
0000
0100
0010
0000
,
1000
0000
0000
0000
1000
0000
0010
0000
0000
0000
0010
0000
0100
0000
0000
0000
0100
0000
0001
0000
0000
0000
0001
0000
0000
0000
0001
0000
0010
0100
1000
0100
,
0010
0000
0000
0000
0000
0000
0001
0000
0000
0000
0000
0000
0100
0010
0001
0010
0100
0000
0000
0000
1000
0000
0000
0000
0100
0000
0000
0000
1000
0000
0000
0000
,
0011
0000
0000
0000
0000
0000
1000
0000
0000
0000
0000
0000
0001
0010
0100
1000
0100
0000
0000
0000
0001
0000
0000
0000
1000
0000
0000
0000
0000
0000
0000
0000
,
1100
0000
0000
0000
0000
0000
0100
0000
0000
0000
0000
0000
1000
0100
0010
0001
0010
0000
0000
0000
1000
0000
0000
0000
0010
0000
0000
0000
0001
0000
0000
0000
,
1100
0000
0000
0000
0000
0000
0100
0000
0000
0000
0010
0000
0100
0000
0000
0000
0010
0000
0000
0000
0000
0000
0100
0000
0000
0000
0000
0000
1000
0001
0010
0100
,
1000
0000
0000
0001
0000
0000
0100
0000
1000
0000
0100
0000
0001
0000
0010
0000
,
0100
0000
0000
0000
0000
0000
1000
0000
0000
0000
0000
0000
0010
0100
1000
0001
0010
0000
0000
0000
1000
0000
0000
0000
0001
0000
0000
0000
0000
0000
0000
0000
,
1100
0000
0000
0000
0000
0000
0010
0000
0000
0000
0000
0000
0001
0010
0100
1000
0001
0000
0000
0000
0100
0000
0000
0000
1000
0000
0000
0000
0100
0000
0000
0000
,
0010
0000
0000
1000
0000
0001
0100
0000
0010
0000
0000
0001
0000
1000
0100
0000
,
0010
0000
0000
0001
0000
0000
0100
0000
1000
0000
1001
0000
0001
0000
1000
0000
,
0001
0000
0000
1000
0000
0000
0100
0000
0001
0000
1001
0000
1000
0000
0100
0000
,
0001
0000
0000
0000
0000
0000
0100
0000
0000
0000
0000
0000
0001
1000
0100
0010
0001
0000
0000
0000
0100
0000
0000
0000
1000
0000
0000
0000
0010
0000
0000
0000
,
0100
0000
0000
0010
0000
0001
0100
0000
0001
0000
0000
0001
0000
0010
0100
0000
,
1000
0000
0000
0000
0000
0000
0100
0000
0000
0000
0000
0000
0001
0010
0100
1000
0010
0000
0000
0000
1000
0000
0000
0000
0010
0000
0000
0000
0001
0000
0000
0000
,
0010
0000
0000
0000
0000
0000
0001
0000
0000
0000
0000
0000
0001
0010
0100
1000
0100
0000
0000
0000
0110
0000
0000
0000
0010
0000
0000
0000
0001
0000
0000
0000
,
0110
0000
0000
0000
0000
0000
0001
0000
0000
0000
0000
0000
0010
0001
1000
0100
0010
0000
0000
0000
0100
0000
0000
0000
0010
0000
0000
0000
0001
0000
0000
0000
,
1100
0000
0000
0001
0000
0010
0100
0000
0011
0000
0000
0010
0000
0100
1000
0000
,
0101
0000
0000
0010
0000
0100
0001
0000
0110
0000
0000
0001
0000
0100
0010
0000
,
1001
0000
0000
0100
0000
0001
0100
0000
1010
0000
0000
0100
0000
0010
1000
0000
,
0011
0000
0000
0000
0000
0000
0100
0000
0000
0000
0001
0000
0010
0000
0000
0000
1001
0000
0000
0000
0000
0000
0000
0000
0000
0000
0000
0000
0100
1000
0001
0010
,
0100
0000
0000
0000
0000
0000
0010
0000
0000
0000
0000
0000
1000
0001
0010
0100
1000
0000
0000
0000
0010
0000
0000
0000
0001
0000
0000
0000
0010
0000
0000
0000
,
0100
0000
0000
0000
0000
0000
0010
0000
0000
0000
0000
0000
0100
0010
0001
0010
0100
0000
0000
0000
0001
0000
0000
0000
1000
0000
0000
0000
0000
0000
0000
0000
,
0100
0000
0000
0000
0000
0000
1000
0000
0000
0000
0000
0000
0010
0001
1000
0100
0010
0000
0000
0000
0001
0000
0000
0000
1000
0000
0000
0000
0001
0000
0000
0000
,
0100
0000
0000
0000
0000
0000
0100
0000
0000
0000
0010
0000
0100
0000
0000
0000
0100
0000
0000
0000
0000
0000
0010
0000
0000
0000
0001
0000
1000
0100
0010
0001
,
0010
0000
0000
0000
0000
0000
0100
0000
0000
0000
0000
0000
1000
0001
0010
0100
1000
0000
0000
0000
0010
0000
0000
0000
0001
0000
0000
0000
0010
0000
0000
0000
,
0100
0000
0000
0000
0000
0000
0001
0000
0000
0000
0000
0000
1000
0100
0010
0001
1000
0000
0000
0000
0010
0000
0000
0000
0100
0000
0000
0000
0000
0000
0000
0000
,
0001
0000
0000
0000
0000
0000
0001
0000
0000
0000
0000
0000
0100
0001
0010
0100
1000
0000
0000
0000
0001
0000
0000
0000
1000
0000
0000
0000
0001
0000
0000
0000
,
0010
0000
0000
1000
0000
0010
0100
0000
0001
0000
0000
0100
0000
0001
0100
0000
,
0010
0000
0000
0000
0000
0000
0010
0000
0000
0000
0000
0000
0001
0010
0100
1000
0001
0000
0000
0000
1000
0000
0000
0000
0100
0000
0000
0000
0001
0000
0000
0000
,
0010
0000
0000
0000
0000
0000
0100
0000
0000
0000
0000
0000
0010
0000
0000
0000
0001
0000
0000
0000
1000
0100
0010
0001
1000
0000
0000
0000
1000
0000
0000
0000
,
0100
0000
0000
0000
0000
0000
0100
0000
0000
0000
0000
0000
1000
0001
0010
0100
1000
0000
0000
0000
0100
0000
0000
0000
1000
0000
0000
0000
0010
0000
0000
0000
,
0100
0000
0000
0000
0000
0000
0100
0000
0000
0000
0000
0000
0001
0000
0000
0000
0010
0000
0000
0000
0100
0001
0010
0100
1000
0000
0000
0000
0100
0000
0000
0000
,
0001
0000
0000
1000
0000
0000
0010
0000
0100
0000
0001
0000
0100
0000
0010
0000
,
1000
0000
0000
0000
0000
0000
0100
0000
0000
0000
0000
0000
0010
0100
0001
0010
0100
0000
0000
0000
0100
0000
0000
0000
1000
0000
0000
0000
0001
0000
0000
0000
,
0100
1010
1010
0001
0010
0101
0101
1000
,
0010
0000
0000
0000
0000
0000
0100
0000
0000
0000
0001
0010
0100
1000
0100
0010
0001
0000
0000
0000
0000
0000
1100
0000
0000
0000
1000
0100
0010
0001
0010
0100
,
1000
0000
0000
0000
0000
0000
0011
0000
0000
0000
0001
0010
0100
1000
0100
0010
0001
0000
0000
0000
0000
0000
1100
0000
0000
0000
1000
0100
0010
0001
0010
0100
,
1000
0000
0000
0000
0000
0000
0011
0000
0000
0000
0001
0010
0100
1000
0100
0010
0001
0000
0000
0000
0000
0000
1100
0000
0000
0000
1000
0100
0010
0001
0010
0100
,
1000
0000
0000
0000
0000
0000
1001
0000
0000
0000
0001
1000
0001
1000
0001
1000
0001
0000
0000
0000
0000
0000
0000
0000
0000
0000
0000
0000
0000
0000
0000
0000
;

//---------------dance-single - KOMBO----------------
#NOTES:
     dance-single:
     KOMBO:
     Challenge:
     11:
     1.000,1.000,1.000,0.196,1.000,502.000,100.000,17.000,0.000,12.000:
1000
0000
1000
0010
0000
0010
0100
0000
0100
0001
0000
0001
0000
0001
0010
0000
,
0100
0000
0100
0001
0000
0001
0010
0000
0010
1000
0000
1000
0000
1000
0100
0000
,
0010
0000
1010
0001
1010
0001
1000
0101
1000
0100
0011
0100
1010
0100
0010
0101
,
1000
0000
0000
0000
0101
0000
0010
0000
0101
0000
0010
0000
0100
0000
0000
0000
1010
0000
0001
0000
0110
0000
0001
0000
1100
0000
0001
0000
0100
0010
1000
0100
,
0011
0000
0000
0000
0000
0000
0001
0000
1110
0000
0000
0000
0100
0001
0010
1000
0101
0000
0000
0000
0010
0000
1100
0000
0001
0000
0000
0000
1000
0000
0000
0000
,
0011
0000
0000
0000
0000
0000
0100
0000
0000
0000
0000
0000
0001
1000
0100
0001
0100
0000
0000
0000
0011
0000
0000
0000
1000
0000
0000
0000
0000
0000
0000
0000
,
1011
0000
0000
0000
0100
0000
1000
0000
0011
0000
0000
0000
1000
0001
0010
1000
0011
0000
0000
0000
1000
0000
0101
0000
0010
0000
0000
0000
0001
0000
0000
0000
,
1101
0000
0000
0000
0000
0000
0100
0000
1010
0000
0001
0000
0100
0000
0000
0000
1010
0000
0000
0000
0000
0000
1010
0000
0000
0000
0000
0000
0001
0010
0100
0010
,
1000
0000
0000
0001
1100
0000
0100
0000
1011
0000
0100
1010
0001
0000
0010
0000
,
0110
0000
0000
0000
0000
0000
1000
0000
0101
0000
0000
0000
0010
0001
1000
0100
0011
0000
0000
0000
1000
0000
0110
0000
0001
0000
0000
0000
0000
0000
0000
0000
,
1100
0000
0000
0000
0000
0000
0010
0000
0000
0000
0000
0000
0001
0100
0010
1000
0100
0000
0000
0000
0100
0000
0000
0000
1000
0000
0000
0000
0100
0000
0000
0000
,
0110
0001
0000
0000
0000
0000
1000
0000
0000
0000
0001
0000
0100
0000
0000
0000
0110
1000
0000
0000
0000
0000
0001
0000
0000
0000
1000
0000
0100
0000
0000
0000
,
0110
0001
0000
0000
0000
0000
0100
0000
1010
0000
0000
0000
0010
0000
0000
0000
0111
0000
0000
0000
0010
0000
1100
0000
0001
0000
0000
0000
1000
0000
0000
0000
,
0101
0000
0000
1000
0011
0000
0100
0000
0010
0000
1001
0110
1000
0000
0100
0000
,
1101
0000
0000
0000
0000
0000
0100
0000
0000
0000
0000
0000
1000
0010
0100
0010
0001
0000
0000
0000
0100
0000
1010
0000
0001
0000
0000
0000
0010
0000
0000
0000
,
0111
0000
0000
0000
0000
0000
0010
0000
1100
0000
0001
0000
0100
0010
1000
0000
0011
0000
0000
0000
0000
0000
0011
0000
0000
0000
0010
0001
1000
0000
0000
0000
,
0101
0000
0000
0000
0000
0000
0100
0000
0000
0000
0000
0000
0001
0100
0010
1000
0010
0000
0000
0000
1000
0000
0000
0000
0010
0000
0000
0000
0001
0000
0000
0000
,
0010
0000
0000
0000
0000
0000
0001
0000
0000
0000
0000
0000
1000
0001
1000
0100
0010
0000
0000
0000
0110
0000
0000
0000
0010
0000
0000
0000
0001
0000
0000
0000
,
0110
0000
0000
0000
0000
0000
0001
0000
1010
0000
0000
0000
0010
0100
1000
0100
0011
0000
0000
0000
0100
0000
1010
0000
0010
0000
0000
0000
0001
0000
0000
0000
,
1100
0000
0000
0000
0000
0000
0001
0000
1100
0000
0010
0001
0100
0000
0000
0000
0011
0000
0000
0000
0000
0000
0010
0000
0000
0000
0100
0001
1000
0000
0000
0000
,
0101
0000
0000
0000
0000
0000
0010
0000
0000
0000
0100
1000
0001
0000
0000
0000
0110
0000
0000
0000
0000
0000
0001
0000
0000
0000
0100
0001
0010
0000
0000
0000
,
1001
0000
0000
0000
0000
0000
0100
0000
0000
0000
0001
1000
0100
0000
0000
0000
1010
0000
0000
0000
0000
0000
0100
0000
0000
0000
0010
0001
1000
0000
0000
0000
,
0011
0000
0000
0000
0000
0000
0100
0000
0000
0000
0001
0100
0010
0000
0000
0000
1001
0000
0000
0000
0000
0000
0000
0000
0000
0000
0000
0000
0010
1000
0100
0010
,
2001
0000
0000
0000
3000
0100
0011
0000
1000
0000
0000
0000
1000
0001
0010
0100
1000
0000
0000
0000
0010
0000
0100
0000
1100
0000
0000
0000
0010
0000
0000
0000
,
1100
0000
0000
0000
0010
0000
1110
0000
0011
0000
0000
0000
0100
0010
1000
0010
0100
0000
0000
0000
0021
0030
0000
0000
1020
0030
0000
0000
0000
0000
0000
0000
,
0100
0010
0000
0000
0000
0000
1000
0100
0000
0000
0000
0000
0010
0001
1000
0100
0011
0000
0000
0000
0001
0000
0000
0000
1100
0000
0000
0000
0001
0000
0000
0000
,
0100
1000
0000
0000
0000
0000
0100
0010
0000
0000
0010
1000
0100
0010
0000
0000
0100
1000
0000
0000
0000
0000
0010
1000
0000
0000
0001
0010
1000
0100
0010
0001
,
1010
0000
0000
0000
0000
0000
0100
0000
0000
0000
0000
0000
1000
0001
0010
0100
1001
0000
0000
0000
0010
0000
0000
0000
0001
0000
0000
0000
0010
0000
0000
0000
,
1000
0000
0000
0000
0000
0000
0001
0000
0110
0000
0000
0000
0010
0100
0010
0001
1200
0000
0000
0000
0310
0000
0000
0000
0101
0000
0000
0000
0000
0000
0000
0000
,
0001
1000
0000
0000
0000
0000
0001
0100
0000
0000
0000
0000
0100
0001
0010
0100
1001
0000
0000
0000
0001
0000
0000
0000
1000
0000
0000
0000
0001
0000
0000
0000
,
0010
0100
0000
0000
0000
0000
1000
0010
0000
0000
0010
1000
0100
0001
0000
0000
0001
0100
0000
0000
0000
0000
0100
0010
0000
0000
0001
1000
0100
0010
0000
0000
,
0020
0000
0030
0000
0000
0000
0020
0000
0030
0000
0000
0000
0001
0010
0100
1000
0001
0000
0000
0000
1000
0000
0000
0000
0101
0000
0000
0000
1000
0000
0000
0000
,
0010
0001
0000
0000
0000
0000
0100
0001
1010
0000
0000
0000
0010
0000
0000
0000
0001
0000
0000
0000
1000
0100
0010
0001
1000
0000
0000
0000
1000
0000
0000
0000
,
0100
0010
0000
0000
0000
0000
0001
0100
0000
0000
0000
0000
0100
0001
1000
0100
1000
0000
0000
0000
0100
0000
0000
0000
1000
0000
0000
0000
0010
0000
0000
0000
,
0100
0001
0000
0000
0000
0000
0100
1000
0000
0000
0000
0000
0001
0000
0000
0000
0010
0000
0000
0000
0100
0001
0010
0001
1000
0000
0000
0000
0100
0010
0000
0000
,
0001
0100
0000
0000
0000
0000
1001
0000
0000
0000
0000
0000
0010
0000
0000
0000
0100
0000
0000
0000
0001
0000
0000
0000
0100
0000
0000
0000
0010
0000
0000
0000
,
1000
0100
0000
0000
0000
0000
0100
0010
0000
0000
0000
0000
0010
0100
1000
0010
0001
0000
0000
0000
0100
0000
0000
0000
1000
0000
0000
0000
0001
0000
0000
0000
,
0200
0000
0000
0000
2021
3030
0000
0000
2012
3003
0000
0000
0001
1000
0001
1000
0320
0000
0000
0000
2102
3003
0000
0000
1202
0303
0000
0000
1000
0000
0000
0000
,
0031
1000
0000
0000
0000
0000
1010
0100
0011
0000
0001
1000
0010
1000
0001
1000
0010
0000
0000
0000
0000
0000
0101
0010
1100
0000
1000
0001
0100
0001
1000
0001
,
0100
0000
0000
0000
0000
0000
1010
0100
0011
0000
0001
1000
0010
1000
0001
1000
0010
0000
0000
0000
0000
0000
0101
0010
1100
0000
1000
0001
0100
0001
1000
0001
,
0100
0000
0000
0000
0000
0000
1010
0100
0011
0000
0001
1000
0010
1000
0001
1000
0010
0000
0000
0000
0000
0000
0101
0010
1100
0000
1000
0001
0100
0001
1000
0001
,
0100
0000
0000
0000
0000
0000
1001
0000
0000
0000
0010
1000
0100
1000
0001
0100
0002
0000
0000
0000
0003
0000
0000
0000
0000
0000
0000
0000
0000
0000
0000
0000
;
