#TITLE:Felys;
#SUBTITLE:;
#ARTIST:Onoken;
#TITLETRANSLIT:;
#SUBTITLETRANSLIT:;
#ARTISTTRANSLIT:;
#CREDIT:;
#BANNER:Felys-bn.png;
#BACKGROUND:Felys-bg.png;
#LYRICSPATH:;
#CDTITLE:!reachTitle.png;
#MUSIC:felys.mp3;
#OFFSET:-10.700;
#SAMPLESTART:100.152;
#SAMPLELENGTH:9.998;
#SELECTABLE:YES;
#BPMS:0.000=180.200,160.000=90.100,196.250=135.140,197.500=180.200,264.000=90.100;
#STOPS:;
#BGCHANGES:;
// cache tags:
#FIRSTBEAT:0.000;
#LASTBEAT:288.000;
#SONGFILENAME:Songs/Keyboard Collaboration II/Reach - Felys/Felys.sm;
#HASMUSIC:1;
#HASBANNER:1;
#MUSICLENGTH:132.127;
// end cache tags

//---------------dance-single - ----------------
#NOTES:
     dance-single:
     :
     Hard:
     12:
     1.000,1.000,0.961,0.076,1.000,880.000,127.000,10.000,0.000,0.000:  // measure 1
1000
0100
0010
0001
1000
0010
0100
0001
,  // measure 2
0010
0000
1000
0000
0001
0000
0100
0000
0010
0000
1000
0000
0001
0010
0100
0000
,  // measure 3
1000
0100
0010
0001
1000
0010
0100
0001
,  // measure 4
0010
0000
1000
0000
0010
0000
0100
0000
0001
0000
1100
0000
0100
0001
0100
0000
,  // measure 5
1000
0100
0010
0001
1000
0010
0100
0001
,  // measure 6
0010
0000
1000
0000
0010
0000
0100
0000
0001
0000
1000
0000
0001
0010
0100
0000
,  // measure 7
1001
0100
0010
0001
1000
0010
0100
0001
,  // measure 8
0010
0000
0000
0000
0000
0000
0000
0000
0000
0000
0000
0000
0000
0000
0000
0000
0000
0000
0000
0000
0000
0000
0000
0000
1000
0000
0000
0000
0000
0000
0000
0000
0000
0000
0000
0000
0000
0000
0000
0000
0000
0000
0000
0000
0000
0000
0000
0000
0110
0000
0000
0000
0000
0000
0000
0000
0000
0000
0000
0000
0000
0000
0000
0000
0000
0000
0000
0000
0000
0000
0000
0000
0100
0000
0000
0000
0000
0000
0000
0000
0000
0000
0000
0000
0000
0000
0000
0000
0000
0000
0000
0000
0000
0000
0000
0000
0011
0000
0000
0000
0000
0000
0000
0000
0000
0000
0000
0000
0000
0000
0000
0000
0000
0000
0000
0000
0000
0000
0000
0000
0100
0000
0000
0000
0000
0000
0000
0000
0000
0000
0000
0000
0000
0000
0000
0000
0000
0000
0000
0000
0000
0000
0000
0000
0001
0000
0000
0000
0000
0000
0010
0000
0000
0000
0000
0000
0100
0000
0000
0000
0000
0000
0000
0000
0000
0000
0000
0000
1000
0000
0000
0000
0000
0000
0000
0000
0100
0000
0000
0000
0000
0000
0000
0000
0010
0000
0000
0000
0000
0000
0000
0000
,  // measure 9
0001
0110
1000
0110
0001
0110
0002
0010
,  // measure 10
1000
0000
0100
0000
0010
0000
0103
0000
1020
0000
0100
0000
1030
0100
0010
0000
,  // measure 11
1002
0010
0103
2010
0100
3010
1002
1000
,  // measure 12
0013
0000
1000
0001
1000
0000
0110
0000
0101
0000
2010
0000
3100
0010
0001
0000
,  // measure 13
1010
0000
0100
0010
0000
0000
0000
0000
1001
0000
0100
1000
0000
0000
0000
0000
,  // measure 14
1000
0100
1000
0100
0011
0000
0000
0000
1001
0000
0001
1000
0000
0000
0000
0000
,  // measure 15
0110
0000
1100
0000
0001
0010
0100
0010
0001
0010
1001
0000
0000
0000
1010
0000
,  // measure 16
0101
0000
0110
0000
0000
0000
1100
0000
0000
0000
0110
0000
1000
0001
1000
0001
,  // measure 17
1100
0010
0001
1100
0010
0100
1001
0000
,  // measure 18
0001
0010
0100
0000
1000
0000
0110
0000
0011
0000
0110
0000
1001
0000
0110
0000
,  // measure 19
1001
0000
0010
0100
0010
0000
1100
0000
0001
1000
0001
0000
0010
0000
1100
0000
,  // measure 20
0001
0000
0010
0000
0100
0000
1000
0000
0010
0100
0010
0000
0001
0000
0010
0000
,  // measure 21
1100
0000
1000
0001
1000
0000
0011
0000
0100
0010
0100
0000
1001
0000
0000
0000
,  // measure 22
1000
0001
0010
0000
0100
0000
0001
0000
1000
0000
0100
0000
0010
0000
0001
0000
,  // measure 23
1100
0000
0001
1000
0001
0000
0011
0000
0100
0001
1000
0000
0101
0000
0000
0000
,  // measure 24
1000
0000
0010
0000
0100
0000
0001
0000
1000
0000
0010
0000
0100
0010
0100
0010
,  // measure 25
1001
0000
1100
0000
0011
0000
1010
0100
0001
0100
0010
1000
0101
0000
0010
0000
,  // measure 26
1000
0100
0010
0100
1000
0001
0010
0100
1000
0001
0100
0010
1000
0001
0010
0100
,  // measure 27
0011
0000
0100
0000
1010
0100
0010
0000
1100
0000
0010
0000
0101
1000
0010
0000
,  // measure 28
0001
1000
0001
0010
0001
0010
0100
1000
0001
0100
0010
1000
0001
0010
0100
0010
,  // measure 29
0001
0000
1100
0000
0010
0000
1100
0000
0010
0100
0010
0100
1010
0000
0101
0000
,  // measure 30
1000
0100
1000
0010
1000
0001
0010
0100
1000
0010
0100
0001
0010
0001
1000
0100
,  // measure 31
1001
0000
0100
0000
1000
0001
1000
0000
0010
0100
0010
0000
1000
0001
1000
0000
,  // measure 32
0001
1000
0100
0010
0001
1000
0010
0100
0001
1000
0100
0010
0100
1000
0001
1000
,  // measure 33
1001
0000
1100
0000
0011
0000
1100
0000
0011
0100
0010
1000
0001
0100
0010
0100
,  // measure 34
1000
0100
0010
0001
0010
0001
0100
0001
1000
0100
0010
0001
0010
0100
1000
0100
,  // measure 35
0010
0000
0001
0010
1100
0000
0010
0000
0101
0000
0010
0000
1000
0100
0010
1000
,  // measure 36
0001
0010
0100
1000
0001
0100
0010
0100
0001
0100
0010
0100
0001
0010
0100
1000
,  // measure 37
0001
0010
1100
0000
0101
0000
0110
0000
0000
0000
1000
0100
0010
0001
0100
0010
,  // measure 38
1000
0100
1000
0100
0001
0010
0001
0010
1000
0100
0010
0001
0100
0010
1000
0001
,  // measure 39
1000
0000
0100
0000
0011
0000
1100
0000
0000
0000
0001
0010
0100
0000
1000
0000
,  // measure 40
0001
0010
0100
1000
0001
0100
0010
1000
0001
0010
0100
1000
0001
1000
0001
0100
,  // measure 41
0020
0000
0000
0000
,  // measure 42
0030
0001
0010
0100
1000
0010
0100
0001
0010
0100
1000
0010
0100
0010
1000
0100
,  // measure 43
0010
0000
0001
0000
0010
0000
0100
0000
1000
0000
0010
0000
0100
0000
0001
0000
0010
0000
0100
0000
1000
0000
0010
0000
0100
0000
0010
0000
0100
0000
0001
0010
,  // measure 44
0100
0010
1000
0010
0100
0001
0100
0011
0100
0010
0100
0011
0100
0010
0100
0011
,  // measure 45
0100
0000
0001
0000
0010
0000
0100
0000
1000
0000
0010
0000
0100
0000
0011
0000
0100
0000
0010
0000
0100
0000
1010
0000
0100
0000
0010
0000
0100
0000
0001
0010
,  // measure 46
0100
0000
1001
0000
0000
0000
0110
0000
0001
0000
0110
0000
0000
0000
1001
0000
0000
0000
1000
0000
0010
0000
0100
0000
0001
0000
0110
0000
0000
0000
1000
0100
,  // measure 47
0010
0101
0000
0010
1000
0101
0000
0010
1000
0001
0100
0010
1100
0011
0000
0100
,  // measure 48
0010
1001
0000
0010
0010
1100
0000
0001
0100
0010
1000
0100
0011
1100
0000
0001
,  // measure 49
1000
0101
0000
0010
0110
1010
0000
0000
1001
0000
0000
1001
0110
1001
0000
0001
,  // measure 50
1100
0011
0000
0000
0000
0000
0010
0001
0010
0100
1000
0001
1000
0001
1000
0001
,  // measure 51
1100
0001
0010
0001
1000
0100
1000
0010
0100
0010
1000
0100
0010
0100
1000
0001
,  // measure 52
0010
0100
0010
0001
0100
0010
0100
0010
1000
0100
0010
0001
1000
0010
0100
0001
,  // measure 53
1000
0100
1000
0100
1000
0100
1000
0100
1000
0001
1000
0001
1000
0001
1000
0001
,  // measure 54
1000
0100
0010
0001
0100
0010
1000
0001
0010
0100
1000
0010
0100
0001
1000
0001
,  // measure 55
1000
0010
1000
0010
1000
0010
1000
0010
1000
0001
1000
0001
1000
0001
1000
0001
,  // measure 56
1000
0010
0100
0001
1000
0100
0010
0001
1000
0001
1000
0010
0100
0010
0100
0001
,  // measure 57
1000
0100
0010
0100
1000
0100
0010
0001
0010
0100
1000
0100
0010
0100
1000
0001
,  // measure 58
1000
0100
1000
0010
1000
0001
1000
0001
0010
0001
0100
0001
1000
0001
0100
0010
,  // measure 59
1001
0100
0010
0100
0001
0100
0010
0100
0001
0010
1000
0100
0001
0010
0001
1000
,  // measure 60
0100
1000
0010
0100
0010
1000
0001
1000
0010
1000
0100
1000
0001
0010
0001
0010
,  // measure 61
0100
1100
0011
0110
1010
0110
0011
0110
,  // measure 62
1100
0000
0101
0000
1000
0010
1000
0010
0100
0001
0100
0001
1000
0001
1000
0001
,  // measure 63
0110
1000
0100
0010
0001
1000
0010
0100
0001
1000
0100
0010
0001
1000
0010
0100
,  // measure 64
0001
0010
0001
0010
0001
1000
0100
1000
0100
1000
0010
0100
0010
0100
0010
1000
,  // measure 65
0001
0000
0010
0100
1000
0000
0010
0000
0100
0000
1000
0000
0100
0010
1000
0000
,  // measure 66
0011
0000
1000
0000
0010
0000
0100
0000
0010
0001
0010
0100
1000
0100
0010
0100
,  // measure 67
1001
0000
0010
0010
0010
0010
0010
0010
1010
0010
0110
0010
1010
0110
1010
0110
,  // measure 68
1010
0010
0010
0010
0010
0010
0010
0010
1001
0010
0100
0001
1000
0010
0100
0010
,  // measure 69
1001
0001
1001
0100
0010
1000
0100
0010
0100
0010
1000
0010
0100
0001
0100
0010
,  // measure 70
1100
0100
1100
0010
0001
1000
0010
0100
0011
0010
0011
1000
0100
0010
0001
1000
,  // measure 71
0200
0010
0001
0010
0001
0010
0301
0001
1002
0100
1000
0100
1000
0100
1003
0000
,  // measure 72
2001
0100
0010
0001
0010
0100
0010
0001
0010
0100
0010
3001
0100
0010
1000
0001
,  // measure 73
1001
0000
0000
0000
;
