#TITLE:Monolith;
#SUBTITLE:-Renaissance Mix-;
#ARTIST:Affinity feat. dj Amuro;
#TITLETRANSLIT:;
#SUBTITLETRANSLIT:;
#ARTISTTRANSLIT:;
#CREDIT:;
#BANNER:../banner.png;
#BACKGROUND:../bg.png;
#LYRICSPATH:;
#CDTITLE:;
#MUSIC:Monolith (Renaissance Mix).ogg;
#OFFSET:-1.268;
#SAMPLESTART:60.051;
#SAMPLELENGTH:19.796;
#SELECTABLE:YES;
#BPMS:0.000=196.000;
#STOPS:;
#BGCHANGES:;
// cache tags:
#FIRSTBEAT:0.000;
#LASTBEAT:392.000;
#SONGFILENAME:Songs/Cirque du Lykan/Monolith (Renaissance Mix) - [Zaia]/Monolith (Renaissance Mix).sm;
#HASMUSIC:1;
#HASBANNER:1;
#MUSICLENGTH:127.566;
// end cache tags

//---------------dance-single - Zaia - 13(mid-high) ----------------
#NOTES:
     dance-single:
     Zaia - 13(mid-high) :
     Hard:
     13:
     1.000,1.000,0.125,0.415,1.000,952.000,16.000,53.000,2.000,0.000:
1001
1000
0100
1100
,
1000
0000
0000
0000
0001
0000
0000
0000
0100
0000
0000
0000
0010
0100
0001
1000
,
0100
1000
0010
1001
,
1000
0000
0000
0000
0100
0000
0000
0000
1000
0001
1000
0010
1000
0100
0010
0001
,
1000
0010
0100
1001
,
0001
0010
0100
1000
,
0001
0010
0001
0000
1000
0000
0000
0000
0001
0000
0000
0000
0100
0000
0010
0000
,
0100
0000
0000
0000
0001
0000
0000
0000
1000
0010
1000
0001
1000
0000
0001
0000
,
1000
0100
0010
0100
1000
0001
1000
0001
0100
0010
1000
0100
0010
0001
1000
0010
,
1000
0001
0100
0001
1000
0100
0010
0100
1000
0001
0100
0001
1000
0001
0010
0100
,
1000
0001
0100
0001
1000
0001
0100
0010
0100
0001
1000
0100
0010
0001
1000
0010
,
0100
0001
1000
0100
1000
0001
0010
0100
1000
0001
0100
0001
1000
0001
0010
0100
,
1000
0010
1000
0001
1000
0010
0100
0001
1000
0100
1000
0001
0010
0100
1000
0001
,
0100
0010
1000
0001
0010
0001
1000
0001
0010
0100
1000
0001
1000
0010
0100
0001
,
0100
0010
1000
0001
0010
0100
0010
0001
1000
0001
0100
0010
0100
0001
1000
0100
,
1000
0001
0010
0100
1000
0001
1000
0010
0100
0001
0010
0100
1000
0001
1000
0001
,
0010
0100
1000
0010
1000
0001
1000
0001
0010
0100
1000
0010
0100
0001
1000
0100
,
1000
0001
0010
0001
1000
0010
0100
0010
1000
0001
0010
0001
1000
0001
0100
0010
,
1000
0001
0010
0001
1000
0001
0010
0100
0010
0001
1000
0010
0100
0001
1000
0100
,
0010
0001
1000
0010
1000
0001
0100
0010
1000
0001
0010
0001
1000
0001
0100
0010
,
1000
0100
1000
0001
1000
0100
0010
0001
1000
0010
1000
0001
0100
0010
1000
0001
,
0010
0100
1000
0001
0100
0001
1000
0001
0100
0010
1000
0001
1000
0100
0010
0001
,
0010
0100
1000
0001
0100
0010
0100
0001
1000
0001
0010
0100
0010
0001
1000
0010
,
1000
0001
0100
0010
1000
0001
1000
0100
0010
0001
0100
0010
1000
0001
1000
0001
,
0100
0010
0100
0001
1000
0001
0010
0001
,
1000
0010
M00M
0010
0001
1000
0010
0100
,
0001
0001
1000
0010
0100
0001
0010
0001
,
1000
0100
0000
0100
0001
0010
0100
1000
,
0001
0001
1000
0010
1000
0001
0010
0100
,
1000
0010
0000
0010
0001
1000
0100
1000
,
0001
0000
1000
0001
0000
0100
0010
0100
,
0101
0000
0000
0000
0000
0000
0110
0000
0000
0000
0010
0000
1000
0010
1000
0001
,
0010
0100
1000
0010
0100
0001
1000
0001
,
1000
0010
0000
0010
0001
1000
0010
0100
,
0001
0001
0010
0100
1000
0001
0100
0001
,
1000
0100
0000
0100
0001
0010
0100
1000
,
0001
0001
0100
0010
1000
0100
1000
0001
,
1000
0100
0000
0100
0001
1000
0010
0100
,
0001
0010
0100
0010
0001
0000
0001
0100
,
0010
0000
1000
0001
0000
0010
0100
1000
,
1001
0000
0001
0101
0000
1000
0000
0001
,
1000
0100
0010
0100
1000
0001
0100
0010
1000
0001
0010
0100
0010
0001
1000
0001
,
0100
0000
0100
0110
0000
1000
0000
0010
,
1000
0100
0010
0001
0100
0010
1000
0001
0010
0001
1000
0010
0100
0001
1000
0100
,
0010
0000
0001
0011
0000
0110
0000
0100
,
1100
0000
1000
0001
0000
1001
0000
0001
,
0101
0000
0100
0010
0000
1000
0000
0001
,
1000
0010
1000
0000
0001
0010
0001
0000
1000
0010
1000
0000
0001
0010
0001
0000
,
1000
0000
0001
0000
1000
0100
1000
0000
0001
0000
0100
0000
0010
1000
0010
0000
,
1000
0000
0100
0000
0010
0001
1000
0000
0001
0100
0001
0000
1000
0100
1000
0000
,
0010
0000
0100
0000
0001
0010
0001
0000
1000
0000
0100
0000
0010
0100
0010
0000
,
0100
0000
1000
0000
0001
0100
0010
0000
1000
0010
1000
0000
0001
0010
0001
0000
,
1000
0000
0001
0000
1000
0100
1000
0000
0001
0000
0100
0000
0010
1000
0010
0000
,
0100
0000
0001
0000
1000
0100
1000
0000
0001
0010
0100
0000
1000
0010
0100
0000
,
0001
0000
1000
0000
0100
0010
0100
0000
1000
0000
0010
0000
0100
0001
0100
0000
,
0001
0000
0000
0000
0000
0000
1001
0000
0000
0000
1000
0000
0010
1000
0001
1000
,
0001
0000
0100
0000
0001
0010
0001
0000
1000
0000
0001
0000
1000
0100
1000
0000
,
0001
0000
0100
0000
0010
1000
0001
0000
0100
0001
0100
0000
0010
1000
0010
0000
,
1000
0000
0001
0000
0010
0100
1000
0000
0001
0000
0100
0000
0010
1000
0001
0000
,
0010
0000
0100
0000
1000
0010
0100
0000
0001
0010
0001
0000
1000
0100
1000
0000
,
0001
0000
0100
0000
0010
1000
0001
0000
0010
0000
0100
0000
1000
0010
0100
0000
,
0001
0000
0010
0000
0001
0100
0010
0000
1000
0010
1000
0000
0001
0100
0001
0000
,
1000
0000
0100
0000
0010
0100
1000
0000
0010
0000
0100
0000
0001
0100
0010
0000
,
1000
0000
0001
0000
0010
0100
0010
0000
0002
0000
0023
0000
0230
0000
2300
0000
,
3001
0000
0200
0300
0000
0002
0003
2000
,
3000
0000
2000
3000
0000
0020
0030
0200
,
0300
0000
0002
0003
0000
0020
0030
0002
,
0003
0000
0002
0003
0000
0010
0220
0330
,
0000
0000
2000
3000
0000
0200
0300
2000
,
3000
0000
2000
3000
0000
0020
0030
0200
,
0300
0000
0002
0003
0000
2000
3000
0002
,
0003
0000
0002
0003
0000
2000
3002
2003
,
3020
0130
0001
1000
0000
0100
0010
0001
,
0100
0010
1000
0100
0010
0002
0023
0230
,
2300
3010
1000
0001
1000
0020
0230
0302
,
2003
3100
0010
0001
0100
0002
0023
0230
,
0320
0001
0031
1000
0010
0100
0001
0010
,
0100
0010
0001
1000
0010
0200
0302
2003
,
3200
1300
0010
1000
0001
2000
3200
0320
,
0032
0103
0001
0010
0100
1000
0010
0100
,
0001
0000
0000
0000
0000
0000
0000
0000
1000
0010
0100
0001
1000
0010
0100
0001
,
1000
0000
0000
0000
0000
0000
0000
0000
0001
0010
0001
1000
0010
0100
0010
1000
,
0001
0010
0100
1000
0001
1000
0010
0100
0001
1000
0100
0010
0100
1000
0001
0100
,
0001
0010
0100
1000
0001
1000
0010
0100
0001
0010
0100
1000
0001
1000
0010
0100
,
0001
1000
0100
0010
0100
1000
0010
0100
0001
1000
0001
0010
0100
1000
0100
0010
,
0001
0000
1000
0001
1000
0000
0010
0000
0100
0000
0001
0010
0001
0000
0100
0000
,
0010
0000
1000
0100
1000
0000
0010
0000
0100
0000
0001
0010
0001
0000
0100
0000
,
0010
0000
1000
0100
0010
0000
0001
1000
0001
0100
0010
1000
0001
0000
1000
0000
,
0001
0100
0010
1000
0001
0010
0100
1000
0001
0100
0010
1000
0100
0010
0001
0000
,
1000
0000
0100
0010
0001
0000
0100
0000
0010
0000
1000
0010
0100
0000
0001
0000
,
1000
0000
0100
0010
0001
0000
1000
0000
0010
0000
0100
0001
1000
0000
0010
0000
,
1000
0000
0001
0100
0010
0000
1000
0001
1000
0010
0100
0010
1000
0001
0010
0100
,
2000
0000
0000
3020
0000
0000
0130
0001
,
1000
0100
1000
0000
0100
0010
0100
0000
0010
0001
0010
0000
0001
1000
0001
0000
,
0010
0001
1000
0010
0100
0001
0010
0100
0010
0001
1000
0010
1000
0001
1000
0100
,
0010
0001
0100
0010
1000
0001
1000
0100
0010
0001
1000
0010
1000
0001
0100
0010
,
1000
0001
1000
0010
0100
0001
1000
0100
0010
0100
1000
0001
0010
0001
0100
0010
,
2000
0000
0000
0000
,
3000
0000
0000
0000
;

//---------------dance-single - Zaia - 14(high) FS----------------
#NOTES:
     dance-single:
     Zaia - 14(high) FS:
     Challenge:
     14:
     1.000,1.000,0.133,0.415,1.000,1056.000,17.000,53.000,2.000,0.000:
1001
1000
0100
1100
,
1000
0000
0000
0000
0001
0000
0000
0000
0100
0000
0000
0000
0010
0100
0001
1000
,
0100
1000
0010
1001
,
1000
0000
0000
0000
0100
0000
0000
0000
1000
0001
1000
0010
1000
0100
0010
0001
,
1000
0010
0100
1001
,
0001
0010
0100
1000
,
0001
0010
0001
0000
1000
0000
0000
0000
0001
0000
0000
0000
0100
0000
0010
0000
,
0100
0000
0000
0000
0001
0000
0000
0000
1000
0010
1000
0001
1000
0000
0001
0000
,
1000
0100
0010
0100
1000
0001
1000
0001
0100
0010
1000
0100
0010
0001
1000
0010
,
1000
0001
0100
0001
1000
0100
0010
0100
1000
0001
0100
0001
1000
0001
0010
0100
,
1000
0001
0100
0001
1000
0001
0100
0010
0100
0001
1000
0100
0010
0001
1000
0010
,
0100
0001
1000
0100
1000
0001
0010
0100
1000
0001
0100
0001
1000
0001
0010
0100
,
1000
0010
1000
0001
1000
0010
0100
0001
1000
0100
1000
0001
0010
0100
1000
0001
,
0100
0010
1000
0001
0010
0001
1000
0001
0010
0100
1000
0001
1000
0010
0100
0001
,
0100
0010
1000
0001
0010
0100
0010
0001
1000
0001
0100
0010
0100
0001
1000
0100
,
1000
0001
0010
0100
1000
0001
1000
0010
0100
0001
0010
0100
1000
0001
1000
0001
,
0010
0100
1000
0010
1000
0001
1000
0001
0010
0100
1000
0010
0100
0001
1000
0100
,
1000
0001
0010
0001
1000
0010
0100
0010
1000
0001
0010
0001
1000
0001
0100
0010
,
1000
0001
0010
0001
1000
0001
0010
0100
0010
0001
1000
0010
0100
0001
1000
0100
,
0010
0001
1000
0010
1000
0001
0100
0010
1000
0001
0010
0001
1000
0001
0100
0010
,
1000
0100
1000
0001
1000
0100
0010
0001
1000
0010
1000
0001
0100
0010
1000
0001
,
0010
0100
1000
0001
0100
0001
1000
0001
0100
0010
1000
0001
1000
0100
0010
0001
,
0010
0100
1000
0001
0100
0010
0100
0001
1000
0001
0010
0100
0010
0001
1000
0010
,
1000
0001
0100
0010
1000
0001
1000
0100
0010
0001
0100
0010
1000
0001
1000
0001
,
0100
0010
0100
0001
1000
0001
0010
0001
,
1000
0010
M00M
0010
0001
1000
0010
0100
,
0001
0001
1000
0010
0100
0001
0010
0001
,
1000
0100
0000
0100
0001
0010
0100
1000
,
0001
0001
1000
0010
1000
0001
0010
0100
,
1000
0010
0000
0010
0001
1000
0100
1000
,
0001
0000
1000
0001
0000
0100
0010
0100
,
0101
0000
0000
0000
0000
0000
0110
0000
0000
0000
0010
0000
1000
0010
1000
0001
,
0010
0100
1000
0010
0100
0001
1000
0001
,
1000
0010
0000
0010
0001
1000
0010
0100
,
0001
0001
0010
0100
1000
0001
0100
0001
,
1000
0100
0000
0100
0001
0010
0100
1000
,
0001
0001
0100
0010
1000
0100
1000
0001
,
1000
0100
0000
0100
0001
1000
0010
0100
,
0001
0010
0100
0010
0001
0000
0001
0100
,
0010
0000
1000
0001
0000
0010
0100
1000
,
1001
0000
0001
0101
0000
1000
0000
0001
,
1000
0100
0010
0100
1000
0001
0100
0010
1000
0001
0010
0100
0010
0001
1000
0001
,
0100
0000
0100
0110
0000
1000
0000
0010
,
1000
0100
0010
0001
0100
0010
1000
0001
0010
0001
1000
0010
0100
0001
1000
0100
,
0010
0000
0001
0011
0000
0110
0000
0100
,
1100
0000
1000
0001
0000
1001
0000
0001
,
0101
0000
0100
0010
0000
1000
0000
0001
,
1001
0000
0000
0000
,
0001
0100
0010
1000
0001
1000
0100
0010
0100
1000
0001
0100
0001
0100
0010
1000
,
0001
0010
0100
1000
0001
1000
0010
0100
0010
1000
0001
0010
0001
1000
0010
1000
,
0001
0010
0100
0010
0001
1000
0001
0100
0010
1000
0001
1000
0100
0010
0100
0010
,
0001
1000
0100
1000
0001
0010
0001
1000
0001
0100
0010
1000
0001
0010
0100
0010
,
0001
1000
0100
1000
0001
1000
0010
0100
0010
1000
0001
0010
0001
0010
0100
1000
,
0001
0100
0010
1000
0001
1000
0100
0010
0100
1000
0001
0100
0001
1000
0100
1000
,
0001
0100
0010
0100
0001
1000
0001
0010
0100
1000
0001
1000
0010
0100
0010
0100
,
0001
0000
0000
0000
0000
0000
1001
0000
0000
0000
0000
0000
1000
0100
1000
0001
,
1000
0100
0010
0001
1000
0001
0100
0010
0100
0001
1000
0100
1000
0100
0010
0001
,
1000
0010
0100
0001
1000
0001
0010
0100
0010
0001
1000
0010
1000
0001
0010
0001
,
1000
0010
0100
0010
1000
0001
1000
0100
0010
0001
1000
0001
0100
0010
0100
0010
,
1000
0001
0100
0001
1000
0010
1000
0001
1000
0100
0010
0001
1000
0010
0100
0010
,
1000
0001
0100
0001
1000
0001
0010
0100
0010
0001
1000
0010
1000
0010
0100
0001
,
1000
0100
0010
0001
1000
0001
0100
0010
0100
0001
1000
0100
1000
0001
0100
0001
,
1000
0100
0010
0100
1000
0001
1000
0010
0100
0001
1000
0001
0010
0100
0010
0001
,
1000
0010
0100
0001
1000
0010
1000
0001
2000
0000
3020
0000
0230
0000
0302
0000
,
1003
0000
0020
0030
0000
2000
3000
0002
,
0003
0000
0002
0003
0000
0020
0030
0200
,
0300
0000
2000
3000
0000
0020
0030
2000
,
3000
0000
2000
3000
0000
0010
0220
0330
,
0000
0000
0002
0003
0000
0200
0300
0002
,
0003
0000
0002
0003
0000
0020
0030
0200
,
0300
0000
2000
3000
0000
0002
0003
2000
,
3000
0000
2000
3000
0000
0002
2003
3002
,
0023
0130
1000
0001
0000
0100
0010
1000
,
0100
0010
0001
0100
0010
2000
3020
0230
,
0302
0013
0001
1000
0001
0020
0230
2300
,
3002
0103
0010
1000
0100
2000
3020
0230
,
0320
1000
1030
0001
0010
0100
1000
0010
,
0100
0010
1000
0001
0010
0200
2300
3002
,
0203
0301
0010
0001
1000
0002
0203
0320
,
2030
3100
1000
0010
0100
0001
0010
0100
,
1000
0000
0000
0000
0000
0000
0000
0000
0001
0010
0100
1000
0010
0100
0001
1000
,
0100
0000
0000
0000
0000
0000
0000
0000
1000
0010
1000
0001
0010
0100
0010
0001
,
1000
0010
0100
0001
1000
0001
0010
0100
1000
0001
0100
0010
0100
0001
1000
0100
,
1000
0010
0100
0001
1000
0001
0010
0100
1000
0010
0100
0001
1000
0001
0010
0100
,
1000
0001
0100
0010
0100
0001
0010
0100
1000
0001
1000
0010
0100
0001
0100
0010
,
1000
0100
1000
0001
0100
0010
0100
0001
1000
0010
1000
0001
0010
0100
0010
0001
,
1000
0010
1000
0100
0010
0001
0100
0001
1000
0100
1000
0001
0100
0010
0100
0001
,
1000
0001
0010
0100
1000
0001
1000
0010
0100
0001
1000
0001
0010
0100
1000
0001
,
1000
0010
0100
0001
1000
0100
0010
0001
1000
0010
0100
0001
0010
0100
0010
0001
,
0010
0100
1000
0010
0100
0001
0010
0001
1000
0100
1000
0010
0100
0001
0010
0001
,
1000
0010
1000
0100
0010
0001
0100
0001
1000
0010
1000
0100
0010
0001
1000
0010
,
1000
0001
0100
0001
0010
0100
1000
0001
1000
0010
0100
0010
1000
0001
0010
0100
,
2000
0000
0000
3200
0000
0000
0310
0001
,
1000
0001
0010
0001
1000
0010
1000
0001
0100
0010
1000
0001
0010
0100
1000
0001
,
0100
0001
1000
0100
0010
0001
0100
0010
0100
0001
1000
0100
1000
0001
1000
0010
,
0100
0001
0010
0100
1000
0001
1000
0010
0100
0001
1000
0100
1000
0001
0010
0100
,
1000
0001
1000
0100
0010
0001
1000
0010
0100
0010
1000
0001
0100
0001
0010
0100
,
2000
0000
0000
0000
,
3000
0000
0000
0000
;

//---------------dance-single - Zaia - 11(mid) FS----------------
#NOTES:
     dance-single:
     Zaia - 11(mid) FS:
     Medium:
     11:
     0.912,0.960,0.094,0.447,0.306,745.000,12.000,57.000,2.000,0.000:
1001
1000
0100
1100
,
1000
0000
0000
0000
0001
0000
0000
0000
0100
0000
0000
0000
0010
0100
0001
1000
,
0100
1000
0010
1001
,
1000
0000
0000
0000
0100
0000
0000
0000
1000
0001
1000
0010
1000
0100
0010
0001
,
1000
0010
0100
1001
,
0001
0010
0100
1000
,
0001
0010
0001
0000
1000
0000
0000
0000
0001
0000
0000
0000
0100
0000
0010
0000
,
0100
0000
0000
0000
0001
0000
0000
0000
1000
0010
1000
0001
1000
0000
0001
0000
,
1000
0010
0100
0001
1000
0001
0010
0100
,
1000
0001
0100
0010
0100
0001
1000
0001
,
0010
0100
1000
0010
0100
0001
1000
0100
,
0010
0001
0010
0100
1000
0001
1000
0010
,
0100
0001
0010
0001
0010
0001
1000
0010
,
0100
0001
1000
0001
0010
0100
0010
0001
,
1000
0010
1000
0001
0100
0001
0010
0100
,
1000
0010
0100
0010
1000
0100
0010
0001
,
0100
0010
1000
0001
1000
0100
0010
0001
,
1000
0010
0100
0010
1000
0001
1000
0100
,
0010
0001
0100
0010
1000
0001
0010
0100
,
1000
0100
0010
0001
1000
0001
0100
0010
,
1000
0100
1000
0100
1000
0001
0100
0010
,
1000
0001
1000
0100
0010
0100
1000
0001
,
0100
0001
1000
0010
1000
0100
0010
0001
,
0100
0010
0100
0001
0010
0100
1000
0001
,
0100
0010
0100
0001
1000
0001
0010
0001
,
1000
0010
M00M
0010
0001
1000
0010
0100
,
0002
0000
1003
0010
0100
0001
0010
0001
,
1000
0100
0000
0100
0001
0010
0001
1000
,
0200
0000
1300
0010
1000
0001
0010
0100
,
1000
0010
0000
0010
0001
1000
0100
1000
,
0001
0000
1000
0001
0000
0100
0010
0100
,
0101
0000
0000
0000
0000
0000
0110
0000
0000
0000
0010
0000
1000
0010
1000
0001
,
0010
0100
1000
0010
0100
0001
1000
0001
,
1000
0010
0000
0010
0001
1000
0010
0100
,
0002
0000
0013
0100
1000
0001
0100
0001
,
1000
0100
0000
0100
0001
0010
0001
1000
,
0020
0000
0130
0010
1000
0100
1000
0001
,
1000
0100
0000
0100
0001
1000
0010
0100
,
0001
0010
0100
0010
0001
0000
0001
0100
,
0010
0000
1000
0001
0000
0010
0100
1000
,
1001
0000
0001
0101
0000
1000
0000
0001
,
1000
0000
0001
0100
0001
0000
0010
0000
0100
0000
1000
0010
1000
0000
0001
0000
,
0100
0000
0100
0110
0000
1000
0000
0010
,
1000
0000
0100
1000
0100
0000
0010
0000
0100
0000
1000
0010
1000
0000
0100
0000
,
0010
0000
0001
0010
0000
0100
0000
1000
,
0100
0000
1000
0001
0000
1001
0000
0001
,
0100
0000
0010
1000
0000
0001
0000
1000
,
0001
0100
0001
0000
1000
0100
1000
0000
0001
0100
0001
0000
1000
0100
1000
0000
,
0001
0000
1000
0000
0001
0010
0001
0000
1000
0000
0010
0000
0100
0001
0100
0000
,
0001
0000
0010
0000
0100
1000
0001
0000
1000
0010
1000
0000
0001
0010
0001
0000
,
0100
0000
0010
0000
1000
0100
1000
0000
0001
0000
0010
0000
0100
0010
0100
0000
,
0010
0000
0001
0000
1000
0010
0100
0000
0001
0100
0001
0000
1000
0100
1000
0000
,
0001
0000
1000
0000
0001
0010
0001
0000
1000
0000
0010
0000
0100
0001
0100
0000
,
0010
0000
1000
0000
0001
0010
0001
0000
1000
0100
0010
0000
0001
0100
0010
0000
,
1000
0000
0001
0000
0010
0100
0010
0000
0001
0000
0100
0000
0010
1000
0010
0000
,
1000
0000
0000
0000
0000
0000
1001
0000
0000
0000
0001
0000
0100
0001
1000
0001
,
1000
0000
0010
0000
1000
0100
1000
0000
0001
0000
1000
0000
0001
0010
0001
0000
,
1000
0000
0010
0000
0100
0001
1000
0000
0010
1000
0010
0000
0100
0001
0100
0000
,
0001
0000
1000
0000
0100
0010
0001
0000
1000
0000
0010
0000
0100
0001
1000
0000
,
0100
0000
0010
0000
0001
0100
0010
0000
1000
0100
1000
0000
0001
0010
0001
0000
,
1000
0000
0010
0000
0100
0001
1000
0000
0100
0000
0010
0000
0001
0100
0010
0000
,
1000
0000
0100
0000
1000
0010
0100
0000
0001
0100
0001
0000
1000
0010
1000
0000
,
0001
0000
0010
0000
0100
0010
0001
0000
0100
0000
0010
0000
1000
0010
0100
0000
,
0001
0000
1000
0000
0100
0010
0100
0000
2000
0000
3200
0000
0320
0000
0032
0000
,
1003
0000
0020
0030
0000
2000
3000
0002
,
0003
0000
0002
0003
0000
0200
0300
0020
,
0030
0000
2000
3000
0000
0200
0300
2000
,
3000
0000
2000
3000
0000
0100
0220
0330
,
0000
0000
0002
0003
0000
0020
0030
0002
,
0003
0000
0002
0003
0000
0200
0300
0020
,
0030
0000
2000
3000
0000
0002
0003
2000
,
3000
0000
2000
3000
0000
0002
2003
3002
,
0203
0310
1000
0001
0000
0010
0100
1000
,
0010
0100
0001
0010
0100
2000
3200
0320
,
0032
0103
0001
1000
0001
0200
0320
2030
,
3002
0013
0100
1000
0010
2000
3200
0320
,
0230
1000
1300
0001
0100
0010
1000
0100
,
0010
0100
1000
0001
0100
0020
2030
3002
,
0023
0031
0100
0001
1000
0002
0023
0230
,
2300
3010
1000
0100
0010
0001
0100
0010
,
1000
0000
0000
0000
0000
0000
0000
0000
0001
0100
0010
1000
0001
0100
0010
1000
,
0001
0000
0000
0000
1000
0010
0100
0001
,
0010
0100
1000
0010
1000
0001
0010
0001
,
0100
0001
1000
0100
1000
0010
1000
0001
,
0010
0100
1000
0001
1000
0010
0100
0010
,
1000
0000
0001
1000
0001
0000
0100
0000
0010
0000
1000
0100
1000
0000
0010
0000
,
0100
0000
0001
0010
0001
0000
0100
0000
0010
0000
1000
0100
1000
0000
0010
0000
,
0100
0000
0001
0010
0100
0000
1000
0000
0001
0000
0010
0000
0001
0000
1000
0001
,
1000
0010
0100
0000
0001
0100
0001
0000
1000
0100
1000
0000
0001
0000
1000
0000
,
0001
0000
0010
0100
1000
0000
0010
0000
0100
0000
0001
0100
0010
0000
1000
0000
,
0001
0000
0010
0100
1000
0000
0001
0000
0100
0000
0010
1000
0001
0000
0100
0000
,
0001
0000
1000
0010
0100
0000
0001
0000
0100
0000
0010
0000
1000
0000
0100
0000
,
2000
0000
0000
3020
0000
0000
0130
0001
,
1000
0100
1000
0000
0100
0010
0100
0000
0010
0001
0010
0000
0001
1000
0001
0000
,
0010
0100
1000
0001
1000
0010
0100
0010
,
1000
0001
0010
0100
1000
0001
1000
0010
,
0100
0001
1000
0100
1000
0001
0100
0001
,
2000
0000
0000
0000
,
3000
0000
0000
0000
;
