#TITLE:Devil Instinct;
#SUBTITLE:The FINAL BOSS Song of Owem Simfiles 8;
#ARTIST:Plankton;
#TITLETRANSLIT:;
#SUBTITLETRANSLIT:;
#ARTISTTRANSLIT:;
#CREDIT:Owem;
#BANNER:../banner.png;
#BACKGROUND:bg.jpg;
#LYRICSPATH:;
#CDTITLE:../cdtitleowem.png;
#MUSIC:Plankton - Devil Instinct.ogg;
#OFFSET:-1.254;
#SAMPLESTART:169.515;
#SAMPLELENGTH:26.585;
#SELECTABLE:YES;
#DISPLAYBPM:*;
#BPMS:0.000=161.010,31.000=170.000,34.000=182.000,41.000=180.000,54.000=172.000,58.000=156.500,61.000=182.500,62.000=160.000,63.000=177.507,74.000=325.000,117.000=320.000,118.000=315.000,119.000=310.000,122.000=280.000,124.000=270.000,125.000=250.000,127.000=230.000,130.000=210.000,131.000=200.000,133.000=180.000,136.000=182.000,138.000=180.000,168.000=260.000,171.000=270.000,172.000=220.000,181.000=240.000,183.000=325.000,282.000=285.000,284.000=265.000,285.000=240.000,286.000=230.000,287.000=195.000,289.000=180.000,356.000=250.000,357.000=280.000,358.000=260.000,360.000=200.000,361.000=210.000,362.000=215.000,365.000=230.000,367.000=260.000,372.000=265.000,373.000=263.000,380.000=325.000,390.000=265.000,391.000=235.000,392.000=195.000,393.000=180.000,396.000=210.000,398.000=220.000,401.000=250.000,405.000=260.000,406.000=270.000,407.000=280.000,410.000=290.000,411.000=300.000,412.000=305.000,413.000=310.000,414.000=315.000,415.000=320.000,416.000=325.000,425.000=216.667,427.000=325.000,491.000=216.667,493.000=325.000,514.000=162.500,516.000=325.000,530.000=216.667,536.000=325.000,563.000=162.500,564.000=325.000,642.000=162.500,755.000=325.000,763.000=216.667,767.000=325.000,1009.000=216.667,1024.000=194.500,1025.000=185.000,1029.000=140.000,1030.000=145.000,1036.000=220.000,1040.000=210.000,1042.000=215.000,1046.000=165.000,1052.000=160.000,1059.000=165.000,1071.000=200.000,1080.000=190.000,1081.000=325.000,1641.000=450.000,2037.000=300.000,2052.000=260.000,2055.000=255.000,2057.000=200.000,2063.000=175.200,2076.000=155.720,2078.000=233.581,2079.000=198.800,2110.000=225.000,2202.000=261.000,2235.000=522.000,2309.000=261.000,2319.000=522.000,2335.000=261.000,2351.000=522.000,2411.000=261.000,2415.000=522.000,2431.000=261.000,2437.000=522.000,2445.000=261.000,2447.000=522.000,2541.000=255.000,2542.000=185.000,2543.000=200.000,2544.000=210.000,2545.000=220.000,2546.000=235.000,2547.000=240.000,2548.000=255.000,2549.000=270.000,2550.000=275.000,2551.000=295.000,2552.000=305.000,2553.000=310.000,2554.000=320.000,2555.000=325.000,2566.000=162.500,2568.000=185.000,2569.000=200.000,2570.000=215.000,2572.000=230.000,2573.000=245.000,2574.000=261.000,2576.000=522.000,2624.000=261.000,2632.000=522.000,2700.000=174.000,2704.000=522.000,2875.000=208.800,2877.000=522.000,3176.000=316.000,3179.000=159.000,3181.000=650.000,3238.000=207.000,3243.000=650.000,3244.000=450.000,3245.000=650.000,3246.000=425.000,3247.000=650.000,3248.000=375.000,3249.000=650.000,3250.000=257.500,3256.000=675.000,3257.000=660.000,3260.000=245.000,3261.000=290.000,3262.000=285.000,3263.000=375.000,3267.000=522.000,3268.000=430.000,3269.000=522.000,3270.000=500.000,3271.000=522.000;
#STOPS:;
#BGCHANGES:;
// cache tags:
#FIRSTBEAT:1.000;
#LASTBEAT:3456.000;
#SONGFILENAME:Songs/Owem's Simfiles 08 - 1.2/Devil Instinct - [Owem] v1.0.8/Devil Instinct.sm;
#HASMUSIC:1;
#HASBANNER:1;
#MUSICLENGTH:635.297;
// end cache tags

//---------------dance-single - ----------------
#NOTES:
     dance-single:
     :
     Hard:
     37:
     1.000,1.000,0.009,0.009,1.000,9288.000,6.000,6.000,9.000,0.000:
0000
0000
0000
0000
0000
0000
0000
0000
0000
0000
0000
0000
1000
0000
0100
0000
0010
0000
0001
0000
1000
0000
0001
0000
0100
0000
0010
0000
1000
0000
0010
0000
0100
0000
0001
0000
1000
0000
0000
0010
0000
0000
1000
0000
0000
0001
0000
0000
,
0100
0000
0010
0000
1000
0000
0001
0000
0100
0000
0001
0000
1000
0000
0100
0000
0010
0000
0001
0000
1000
0000
0100
0000
1000
0000
0001
0000
0100
0000
0010
0000
1000
0000
0001
0000
0100
0000
0000
0010
0000
0000
1000
0000
0000
0001
0000
0000
,
0100
0000
0000
0001
0000
0000
1000
0000
0000
0100
0000
0000
0010
0000
0000
0001
0000
0000
1000
0000
0000
0100
0000
0000
1000
0000
0000
0010
0000
0000
0100
0000
0000
0001
0000
0000
0100
0000
0010
0000
1000
0000
0001
0000
0100
0000
0001
0000
,
1000
0000
0000
0010
0000
0000
1000
0000
0000
0001
0000
0000
0100
0000
0000
0001
0000
0000
0010
0000
0000
0100
0000
0000
1000
0000
0010
0000
0100
0000
0001
0000
1000
0000
0001
0000
0010
0000
0000
0100
0000
0000
1000
0000
0000
0001
0000
0000
,
0100
0010
1000
0001
0100
0001
0010
0100
1000
0010
1000
0001
0100
0010
1000
0001
,
0010
0100
1000
0001
1000
0010
0100
0001
1000
0010
1000
0100
0010
0001
1000
0100
1000
0001
0100
0010
0100
0001
1000
0100
,
0010
0000
0000
0001
0000
0000
1000
0000
0000
0001
0000
0000
0100
0000
0000
0010
0000
0000
0100
0000
0000
0001
0000
0000
1000
0000
0010
0000
0100
0000
0001
0000
1000
0000
0010
0000
1000
0000
0100
0000
0010
0000
0001
0000
1000
0000
0010
0000
,
0100
0001
0010
0001
1000
0010
0100
0010
1000
0001
0100
0010
0000
0000
0000
0000
,
0000
0000
0000
0000
0000
0000
0000
0000
1000
0100
0010
0001
1000
0001
0100
0000
,
0010
0100
0001
0000
1000
0100
0010
0000
0001
0100
0001
0000
0010
0100
1000
0001
,
1000
0000
0010
0000
0100
0001
1000
0010
0100
0001
1000
0100
1000
0001
0100
0010
,
1000
0001
1000
0100
0010
0001
1000
0100
1000
0001
0100
0010
1000
0001
0100
0001
,
0010
0100
1000
0001
0010
0001
0100
0010
1000
0001
0100
0010
0100
0001
1000
0100
,
1000
0010
1000
0001
0100
0010
1000
0001
0100
0001
0010
0100
1000
0100
0010
0001
,
1000
0100
1000
0010
0100
0000
0000
0000
0001
0000
1000
0000
0000
0000
0000
0000
,
0010
0000
0000
0000
0000
0000
0000
0000
0000
0000
0000
0000
0000
0000
0000
0000
0000
0000
0000
0000
0000
0000
0000
0000
1000
0000
0000
0000
0000
0000
0000
0000
0000
0000
0000
0000
0000
0000
0000
0000
0000
0000
0000
0000
0000
0000
0000
0000
0010
0000
0000
0000
1000
0000
0000
0000
0001
0000
0000
0000
0100
0000
0000
0000
0001
0000
0000
0000
1000
0000
0000
0000
0100
0000
0000
0000
0000
0000
0000
0000
0000
0000
0000
0000
0000
0000
0000
0010
0000
0000
0000
0000
0000
0000
0000
0000
,
0000
0000
0001
0000
0000
1000
0000
0000
0000
0000
0010
0000
0000
0100
0000
0000
,
0000
0000
0000
0000
0010
0000
0000
0000
0000
0000
0000
0000
0000
1000
0000
0000
0000
0000
0000
0000
0000
0000
0010
0000
0000
0000
0100
0000
0000
0000
0000
0000
,
0000
0000
0000
0000
0000
0000
0000
0000
0000
0000
0000
0000
0000
0000
0000
0000
0000
0000
0000
0000
0000
0000
0000
0000
0000
0000
0000
0000
0000
0000
0000
0000
0000
0000
0000
0000
0000
0000
0000
0000
0000
0000
0000
0000
0000
0000
0000
0000
0000
0000
0000
0000
0000
0000
0000
0000
0000
0000
0000
0000
0000
0000
0000
0000
0000
0000
0000
0000
0000
0000
0000
0000
0001
0000
0000
0000
0000
0000
0000
0000
0000
0000
0000
0000
0000
0000
0000
0000
0000
0000
0000
0000
0000
0000
0000
0000
2000
3000
0000
0000
0000
0000
0000
0000
0000
0000
0000
0000
0000
0000
0000
0000
0000
0000
0000
0000
0000
0000
0000
0000
0000
0000
0000
0000
0000
0000
0000
0000
0000
0000
0000
0000
0000
0000
0000
0000
0000
0000
0000
0000
0000
0000
0000
0000
0010
0000
0000
0000
0000
0000
0000
0000
0000
0000
0000
0000
0000
0000
0000
0000
0100
0000
0000
0000
0000
0000
0000
0000
0000
0000
0000
0000
0000
0000
0000
0000
0001
0000
0000
0000
0000
0000
0000
0000
0000
0000
0000
0000
0000
0000
0000
0000
,
1000
0010
1000
0100
0010
0001
1000
0100
1000
0001
0100
0010
,
1000
0001
0100
0001
0010
0100
1000
0001
0010
0001
1000
0100
,
1000
0001
0100
0010
0100
0001
1000
0010
1000
0100
0010
0001
,
1000
0100
1000
0001
0100
0010
1000
0001
0100
0001
0010
0100
,
1000
0001
0010
0001
1000
0100
0010
0001
1000
0100
1000
0001
,
0100
0010
0100
0001
1000
0010
1000
0001
0100
0001
0010
0100
,
1000
0001
0010
0001
1000
0100
0010
0001
1000
0100
1000
0001
,
0100
0010
1000
0001
0100
0001
1000
0100
0010
0001
1000
0100
,
1000
0001
0100
0010
0100
0001
1000
0100
1000
0010
0100
0001
,
1000
0100
1000
0001
0010
0001
0100
0010
1000
0001
0100
0001
,
1000
0010
1000
0001
1000
0010
0100
0001
1000
0100
1000
0001
,
0010
0001
1000
0100
0010
0001
1000
0100
1000
0001
0100
0001
,
1000
0010
0100
0001
1000
0100
1000
0001
0010
0001
1000
0100
,
0010
0001
1000
0100
1000
0010
0100
0001
1000
0001
0010
0100
,
1000
0001
0100
0010
0000
0000
0100
0000
0000
0001
0000
0000
,
1000
0010
1000
0001
0100
0010
0000
0000
1000
0001
1000
0100
0010
0001
1000
0100
,
1000
0010
0100
0001
1000
0100
1000
0010
0100
0001
1000
0100
1000
0001
0010
0001
,
0100
0010
1000
0001
0100
0001
1000
0100
0010
0001
1000
0100
1000
0010
0100
0001
,
1000
0001
0100
0000
0000
0000
0000
0000
0010
1000
0001
0100
0001
0010
0100
1000
,
0001
0000
0000
1000
0000
0000
0000
0000
0000
0000
0000
0000
0010
0000
0100
0000
0001
0000
1000
0000
0100
0000
1000
0000
0010
0000
0000
0100
0000
0000
0001
0000
0000
1000
0000
0000
0010
0000
0000
1000
0000
0000
0100
0000
0000
0010
0000
0000
,
0001
1000
0100
1000
0001
0100
0010
1000
0001
0100
0001
1000
0100
1000
0010
0100
,
0001
1000
0100
0010
0001
1000
0010
0100
0001
1000
0010
0000
0100
0001
1000
0000
,
0100
0010
0001
0000
1000
0010
0100
0000
0001
1000
0001
0100
0010
1000
0001
0000
,
1000
0010
0100
0001
1000
0100
0010
0000
0001
1000
0001
0100
0010
1000
0001
0000
,
0010
0100
1000
0001
1000
0010
0100
0001
1000
0010
1000
0100
0010
0001
1000
0100
,
1000
0001
0010
0001
0100
0010
1000
0001
0100
0010
0100
0001
1000
0100
0010
0001
,
0100
0000
0000
0000
0000
0000
0000
0000
0000
0000
0000
0000
0010
0000
0000
1000
0000
0000
0001
0000
0000
0100
0000
0000
0001
0000
0000
0010
0000
0000
0100
0000
0000
1000
0000
0000
0001
0000
0000
0000
0100
0000
0000
0000
0010
0000
0000
0000
,
1000
0001
0100
0001
1000
0100
0010
0001
1000
0100
1000
0010
,
0100
0001
1000
0001
0100
0010
1000
0001
0100
0001
0010
0100
,
1000
0000
0000
0100
0010
0001
1000
0001
0100
0010
1000
0001
,
0100
0001
0010
0100
1000
0100
0010
0001
1000
0100
1000
0001
,
0100
0010
1000
0001
0100
0001
1000
0100
1000
0010
1000
0001
,
0100
0010
1000
0001
0100
0001
0010
0100
1000
0001
0010
0001
,
1000
0100
0010
0001
1000
0100
1000
0001
0100
0001
1000
0100
,
0010
0001
1000
0010
0100
0001
1000
0100
1000
0001
0100
0010
,
1000
0001
0100
0001
0010
0100
1000
0001
0010
0001
0100
0010
,
1000
0001
0100
0001
1000
0100
0010
0001
0100
0010
0100
0001
,
1000
0000
0000
0010
0100
0001
1000
0100
1000
0001
0100
0001
,
0010
0100
1000
0001
0010
0001
1000
0100
1000
0001
0100
0010
,
1000
0001
0100
0001
0010
0100
1000
0001
0010
0001
1000
0100
,
0010
0001
1000
0100
1000
0001
0100
0010
1000
0001
0100
0001
,
0010
0100
1000
0001
0010
0001
1000
0100
1000
0010
0100
0001
,
1000
0100
0010
0001
1000
0100
1000
0001
0100
0010
1000
0001
,
0100
0001
0010
0100
1000
0001
0010
0001
1000
0100
1000
0001
,
1000
0010
0100
0001
1000
0100
1000
0001
0100
0010
0000
0000
,
0000
0000
0000
1000
0010
0100
0001
1000
0100
1000
0001
0010
,
0001
0100
0010
1000
0001
0100
0001
1000
0100
0010
0001
1000
,
0100
1000
0001
0010
0001
0100
0010
1000
0001
0100
0001
1000
,
0100
0010
0001
1000
0100
1000
0010
0100
0001
1000
0100
1000
,
0010
0000
0000
0100
0001
1000
0010
1000
0100
0010
0001
1000
,
0100
1000
0001
0100
0010
1000
0001
0100
0001
0010
0100
1000
,
0010
0000
0000
0000
0000
0000
0100
0001
1000
0010
1000
0100
,
0010
0001
1000
0100
1000
0001
0100
0010
1000
0020
0000
0000
,
0230
0300
0000
0000
0000
0000
0000
0000
0001
0000
1000
0000
0010
0000
0100
0000
0001
0000
1000
0000
0100
0000
1000
0000
0001
0000
0100
0000
0010
0000
1000
0000
,
0001
0100
0001
1000
0100
1000
0010
0100
0001
1000
0100
0010
0100
1000
0001
0010
,
0001
0100
0010
1000
0001
0100
0010
1000
0001
0100
0010
0100
0001
1000
0100
1000
,
0001
0010
0100
1000
0001
1000
0100
0010
0001
1000
0100
1000
0001
0100
0010
0000
,
0000
0000
0000
0000
0100
0000
0000
0000
0001
0000
0000
0000
0010
0100
1000
0001
,
0100
0010
0000
0000
0100
0001
1000
0100
0000
0010
0001
1000
0000
0010
1000
0001
,
0000
1000
0100
0010
0001
1000
0100
1000
0001
0100
0010
1000
0001
0100
0001
0010
,
0100
1000
0001
0010
0001
1000
0100
1000
0001
1000
0010
0100
0001
1000
0100
0000
,
0000
0000
0000
0000
0010
0001
1000
0001
0100
0010
1000
0010
0100
0000
0000
0000
,
0001
1000
0010
1000
0100
0010
0001
1000
0100
1000
0001
0100
0010
1000
0001
0100
,
0001
0010
0100
1000
0001
0010
0001
1000
0100
0010
0001
1000
0100
1000
0001
0100
,
0010
1000
0001
0100
0010
0100
0001
1000
0100
1000
0010
0100
0001
1000
0001
0100
,
0010
1000
0000
0000
0010
0100
0001
1000
0001
0010
0100
1000
0001
0100
0010
0100
,
0001
1000
0010
0000
0100
0001
1000
0010
1000
0100
0010
0000
0001
0100
0010
1000
,
0001
0100
0010
1000
0001
0100
0010
0100
0001
1000
0010
1000
0100
0010
0001
1000
,
0100
1000
0000
0001
0100
0010
0100
0000
0001
1000
0001
0010
0100
0000
1000
0000
,
0010
0100
0010
1000
0001
0000
0000
0000
1000
0000
0100
0010
0001
1000
0001
0100
,
0010
0000
0000
0000
1000
0001
0100
0010
0100
0001
1000
0010
1000
0001
0100
0010
,
1000
0001
0100
0001
0010
0100
1000
0001
0010
0001
0100
0010
1000
0001
0100
0010
,
0100
0001
1000
0010
1000
0001
1000
0100
0010
0001
1000
0100
1000
0001
0100
0010
,
1000
0001
0100
0001
0010
0100
1000
0001
0010
0001
1000
0100
0010
0001
1000
0100
,
1000
0010
0100
0001
0000
0000
0000
0000
0000
0000
0000
0000
0000
0000
0000
0000
,
0000
0000
0000
0000
,
1000
0100
0010
0001
1000
0001
0100
0000
,
0010
0000
1000
0000
0001
0000
0100
0000
0010
0000
0100
0000
0001
0000
0000
1000
0000
0000
0001
0000
1000
0000
0100
0000
,
0010
0000
0001
0000
1000
0000
0001
0000
0100
0000
0010
0000
1000
0000
0000
0010
0000
0000
0100
0000
0000
0001
0000
0000
,
1000
0000
0000
0000
0000
0000
0000
0000
0100
0000
0000
0000
0000
0000
0000
0000
0010
0000
0000
0000
0000
0000
0000
0000
0001
0000
0000
0000
0000
0000
0000
0000
1000
0010
0000
0000
0000
0000
0000
0000
0000
0000
0000
0000
0000
0000
0000
0000
0200
0300
0000
0000
0000
0000
0000
0000
0002
0003
0000
0000
0000
0000
0000
0000
,
1000
0100
0010
0001
1000
0000
0010
0000
0100
0001
1000
0001
0100
0010
0100
0001
,
1000
0100
0010
0001
1000
0100
1000
0001
0100
0010
1000
0010
0100
0001
1000
0100
,
0010
0000
0001
0100
0000
0000
0000
0000
,
0000
0000
0010
0100
0001
0000
1000
0100
,
0010
0000
0001
0100
0010
1000
0001
0010
,
0100
0000
1000
0010
0100
0000
0001
1000
,
0001
0000
0100
0010
0100
0000
0001
1000
,
0010
0000
0000
0100
0000
0000
0000
0000
0000
0010
1000
0001
,
0100
0001
0010
0100
1000
0001
0010
0001
1000
0100
0010
0001
,
1000
0100
1000
0001
0100
0010
1000
0001
0100
0001
0010
0100
,
1000
0001
0010
0001
1000
0100
1000
0001
0100
0010
1000
0001
,
0100
0001
1000
0010
1000
0001
0100
0010
0100
0001
1000
0100
,
0010
0001
1000
0100
1000
0001
0010
0001
1000
0100
0010
0001
,
1000
0100
1000
0010
0100
0001
1000
0100
1000
0001
0100
0001
,
0010
0100
1000
0001
1000
0010
0100
0001
1000
0100
1000
0001
,
0100
0001
0010
0100
1000
0001
1000
0010
0100
0001
1000
0100
,
1000
0010
0100
0001
1000
0100
1000
0001
0100
0010
1000
0001
,
0100
0001
1000
0001
0010
0100
1000
0100
0010
0001
1000
0100
,
0010
0100
1000
0001
0010
0001
1000
0100
1000
0001
1000
0010
,
0100
0001
1000
0100
0010
0001
1000
0001
0010
0100
1000
0001
,
0010
0001
0100
0010
1000
0001
0100
0010
1000
0100
1000
0001
,
0100
0010
0100
0001
1000
0100
0010
0001
1000
0100
1000
0010
,
0100
0001
1000
0100
0010
0001
1000
0100
1000
0001
0100
0010
,
1000
0000
0000
0000
0010
0000
0000
0000
0100
0000
0000
0000
0001
0000
0000
0000
1000
0000
0000
0000
0100
0000
0000
0000
0010
0000
0000
0000
0001
0000
0000
0000
1000
0000
0000
0000
0001
0000
0000
0100
0000
0000
0010
0000
0000
1000
0000
0000
,
0001
0000
0000
0010
0000
0000
0001
0000
0000
0100
0000
0000
0010
0000
0000
0000
0000
0000
0100
0000
0000
0000
0000
0000
0001
0000
0000
0000
1000
0000
0000
0000
0010
0000
0000
0000
1000
0000
0000
0000
0001
0000
0000
0000
0100
0000
0000
0000
,
0001
0010
0100
1000
0001
0010
0001
1000
0100
0010
0001
1000
,
0100
1000
0001
0100
0010
1000
0001
0100
0001
1000
0100
0010
,
0001
0000
0000
1000
0000
0000
0100
0000
0000
0010
0001
1000
,
0001
0100
0010
1000
0001
0100
0001
1000
0100
1000
0010
0100
,
0001
1000
0010
1000
0001
0100
0010
0000
0000
1000
0000
0000
,
0001
0100
0010
1000
0001
0100
0001
0010
0100
1000
0001
0010
,
0001
1000
0100
1000
0010
0100
0001
1000
0100
1000
0001
0100
,
0010
1000
0001
0100
0001
1000
0001
0010
0100
1000
0100
0010
,
0001
0000
0000
0000
1000
0000
0000
0000
0100
0000
0000
0000
1000
0000
0000
0000
0010
0000
0000
0000
0100
0000
0000
0000
0001
0000
0000
0010
0000
0000
0001
0000
0000
1000
0000
0000
0100
0000
0000
1000
0000
0000
0001
0000
0000
0100
0000
0000
,
0010
1000
0010
0100
0001
1000
0100
0010
0001
1000
0100
1000
0010
0000
0000
0000
,
0100
0000
0000
0001
1000
0010
0100
0001
1000
0100
1000
0001
,
0010
0001
1000
0100
0010
0001
1000
0100
1000
0001
0100
0010
,
1000
0001
0100
0001
1000
0010
0100
0001
1000
0100
1000
0010
,
0100
0001
1000
0100
0010
0001
1000
0100
1000
0001
0100
0010
,
1000
0001
0100
0010
0100
0001
1000
0100
0010
0100
1000
0001
,
0010
0001
0100
0010
1000
0001
0100
0001
1000
0100
0010
0001
,
1000
0010
0100
0001
1000
0100
1000
0010
0100
0001
0000
0000
,
1000
0100
0010
0001
1000
0100
1000
0001
0100
0010
1000
0001
,
0100
0001
0010
0100
1000
0001
0010
0001
1000
0100
0010
0001
,
1000
0100
1000
0010
0100
0001
1000
0100
1000
0010
0100
0001
,
1000
0100
1000
0001
0100
0001
0010
0100
1000
0001
0010
0001
,
0100
0010
1000
0001
0100
0001
0010
0100
1000
0001
0010
0001
,
1000
0100
1000
0001
0100
0010
1000
0001
0100
0001
1000
0100
,
0010
0001
1000
0100
1000
0001
0010
0001
0100
0010
1000
0001
,
0100
0010
0100
0001
1000
0100
0010
0100
1000
0001
0010
0001
,
1000
0100
1000
0001
0100
0001
1000
0010
0100
0001
0100
0010
,
1000
0001
0100
0001
1000
0100
0010
0100
1000
0001
0010
0001
,
1000
0100
1000
0001
0100
0010
1000
0001
0010
0001
0100
0010
,
0100
0001
1000
0100
0010
0100
1000
0001
0010
0001
1000
0100
,
0010
0001
1000
0100
1000
0001
0100
0010
1000
0001
0100
0001
,
0010
0100
1000
0001
0010
0001
1000
0100
0010
0100
1000
0001
,
0010
0001
1000
0100
1000
0001
0100
0001
1000
0010
1000
0001
,
0100
0010
0100
0001
1000
0100
0010
0001
1000
0100
1000
0001
,
0010
0001
0100
0010
1000
0001
0100
0001
1000
0100
0010
0001
,
1000
0010
1000
0001
0100
0010
0100
0001
1000
0010
1000
0001
,
1000
0100
0010
0001
0100
0001
1000
0010
1000
0001
0100
0010
,
0100
0001
1000
0100
0010
0001
0000
0000
0000
0000
0000
0000
,
0000
0000
0000
0000
,
0000
0000
0000
0000
,
0000
0000
0000
0000
,
0000
0000
0000
0000
,
0000
0000
0000
0000
,
0000
0000
0000
0000
,
0000
0000
0000
0000
,
0000
0000
0000
0000
,
0000
0000
0000
0000
0000
0000
0000
0000
0000
0000
0000
0000
1000
0000
0100
0000
0010
0000
0001
0000
1000
0000
0010
0000
0000
0000
0000
0000
0000
0000
0000
0000
0000
0000
0000
0000
1000
0000
0000
0010
0000
0000
1000
0000
0000
0010
0000
0000
,
0000
0000
0000
0000
0000
0000
0000
0000
0000
0000
0000
0000
0100
0001
1000
0100
,
1000
0010
0100
0001
1000
0100
1000
0001
0100
0010
1000
0001
0100
0001
0010
0100
,
1000
0001
0010
0001
0100
0010
1000
0001
0100
0010
0100
0001
1000
0100
0010
0001
,
1000
0100
1000
0001
0100
0010
1000
0001
0010
0001
0100
0010
1000
0001
0010
0100
,
1000
0100
0010
0000
0001
1000
0001
0100
0010
1000
0010
0000
0100
0001
1000
0001
,
0100
0010
1000
0001
0100
0001
0010
0100
1000
0100
0010
0001
1000
0100
1000
0001
,
0100
0010
1000
0001
0100
0001
0010
0100
1000
0010
0100
0000
0001
1000
0001
0100
,
0010
0000
0000
1000
0000
0000
0001
0000
0000
0100
0000
0000
0010
0000
0000
1000
0000
0000
0010
0000
0000
1000
0000
0000
0001
0000
0000
0000
0000
0000
0001
0000
0000
0000
0000
0000
1000
0000
0001
0000
0100
0000
0010
0000
1000
0000
0001
0000
,
0100
0010
0100
0001
1000
0100
0010
0001
1000
0100
1000
0010
0100
0001
1000
0100
1000
0001
0100
0010
0100
0001
1000
0100
,
0010
0000
0000
0001
0000
0000
1000
0100
1000
0010
0100
0001
1000
0100
1000
0001
0100
0010
0100
0001
1000
0100
0010
0001
,
1000
0100
1000
0001
0100
0010
1000
0000
0000
0000
0000
0000
0001
0000
0000
0100
0000
0000
0010
1000
0001
1000
0100
0010
,
0001
1000
0100
1000
0001
0100
0010
1000
0001
0100
0001
0010
0100
1000
0001
0010
0001
0100
0010
1000
0001
0100
0010
0100
,
0001
1000
0100
1000
0001
0100
0010
1000
0001
0010
0100
1000
0100
0010
0001
1000
0100
1000
0001
0100
0010
1000
0001
0100
,
0010
0100
0001
1000
0100
0010
0001
1000
0100
1000
0001
0100
0010
1000
0001
0010
0001
0100
0010
1000
0001
0100
0010
0100
,
0001
1000
0010
1000
0100
0010
0001
1000
0100
1000
0001
0100
0010
1000
0001
0100
0010
0100
0001
1000
0100
0010
0001
1000
,
0100
0000
1000
0000
0010
0000
0100
0000
0001
0000
1000
0000
0100
0000
0000
0010
0000
0000
0001
0000
0000
1000
0000
0000
0001
0000
0000
0100
0000
0000
0010
0000
0000
1000
0000
0000
0010
0000
0000
0000
0000
0000
0100
0000
0000
0001
0000
0000
,
0000
1000
0100
0010
0001
0000
0000
0000
1000
0010
0100
0001
1000
0100
1000
0001
,
0100
0000
0000
0010
0000
0000
0100
0000
0000
0001
0000
0000
1000
0000
0000
0100
0000
0000
0010
0000
0000
0001
0000
0000
0000
0000
0000
0000
0000
0000
0100
0000
0000
0000
0000
0000
0010
0000
1000
0000
0001
0000
1000
0000
0100
0000
0010
0000
,
0001
1000
0100
1000
0001
0100
0010
1000
0001
0100
0010
0100
0001
1000
0100
0010
0000
0000
0001
0000
1000
0000
0010
0000
,
0100
0001
1000
0010
1000
0100
0010
0001
1000
0100
1000
0001
,
0100
0000
0000
0000
0010
0000
0000
0000
0100
0000
0000
0000
0001
0000
0000
0000
1000
0000
0000
0000
0100
0000
0000
0000
0010
0000
0000
0000
0001
0000
0000
0000
1000
0000
0000
0000
0010
0000
0000
1000
0000
0000
0001
0000
0000
0100
0000
0000
,
0010
0000
0000
1000
0000
0000
0001
0000
0000
0100
0000
0000
0001
0000
0000
0010
0000
0000
0100
0000
0000
1000
0000
0000
0010
0000
0000
1000
0000
0000
0001
0000
0000
0100
0000
0000
0010
0000
0000
0000
1000
0000
0000
0000
0001
0000
0000
0000
,
0100
0001
1000
0100
0010
0001
1000
0010
0100
0001
0000
0000
,
0000
0000
0000
1000
0100
0010
0001
1000
0100
1000
0001
0010
,
0001
0100
0010
1000
0001
0100
0010
0100
0001
1000
0010
1000
,
0001
1000
0100
0010
0001
0100
0001
1000
0100
0010
0100
1000
,
0001
0010
0001
1000
0100
1000
0001
0100
0010
1000
0001
0010
,
0001
0000
0000
0000
0100
0000
0000
0000
0010
0000
0000
0000
1000
0000
0000
0000
0000
0000
0000
0000
0000
0000
0000
0000
0001
0000
0000
0000
0000
0000
0000
0000
0000
0000
0000
0000
0000
0000
0000
0000
0000
0000
0000
0000
0000
0100
0000
0000
,
0000
0000
0010
0000
,
1000
0000
0000
0000
0000
0000
0001
0000
0000
0000
1000
0000
0000
0100
0000
0010
,
0000
0001
0000
1000
0000
0000
0000
0000
0010
0000
0000
0000
0100
0000
0000
0000
,
0010
1000
0001
1000
,
0000
0100
0000
0010
,
0000
0000
0000
0001
0000
0000
0100
0010
1000
0001
0100
0001
,
1000
0100
0010
0001
1000
0010
0100
0000
0000
0010
1000
0001
,
0100
0001
0010
0100
1000
0001
0010
0001
1000
0100
0010
0100
,
1000
0001
0010
0001
1000
0010
0100
0001
1000
0010
1000
0001
,
0100
0000
0000
0010
1000
0001
0100
0001
0010
0100
1000
0001
,
0010
0001
1000
0100
1000
0001
0010
0001
0100
0010
1000
0001
,
0100
0010
0100
0001
1000
0100
0010
0001
1000
0010
0000
0000
,
0000
0100
0001
1000
,
0001
0010
0100
1000
0001
1000
0010
0100
0000
0000
0000
0000
,
0000
0000
0000
0001
0100
0010
1000
0001
0100
0010
0100
0001
,
1000
0100
0010
0100
1000
0001
0010
0001
1000
0100
0010
0001
,
1000
0100
1000
0001
0100
0010
1000
0001
0100
0001
0010
0100
,
1000
0001
1000
0100
0010
0001
1000
0100
1000
0010
1000
0001
,
0100
0001
0010
0100
1000
0001
0010
0001
0100
0010
1000
0001
,
0100
0010
0100
0001
1000
0100
1000
0010
0100
0001
1000
0100
,
0010
0001
1000
0100
1000
0001
0010
0001
1000
0100
1000
0001
,
0100
0010
1000
0001
0100
0010
0100
0001
1000
0100
0010
0001
,
1000
0100
1000
0010
0100
0001
1000
0100
1000
0001
0010
0001
,
1000
0100
0010
0001
1000
0100
1000
0001
0100
0010
1000
0001
,
0100
0001
0010
0100
1000
0001
0100
0010
0100
0001
1000
0100
,
0010
0100
1000
0001
1000
0010
0100
0001
1000
0010
1000
0001
,
0100
0000
0000
0010
1000
0001
0100
0001
0010
0100
1000
0001
,
0010
0001
0100
0010
1000
0001
0100
0010
0100
0001
1000
0100
,
1000
0001
0010
0001
1000
0100
0010
0001
1000
0100
1000
0010
,
0100
0001
1000
0100
1000
0001
0100
0010
1000
0001
0100
0001
,
0010
0100
1000
0001
0010
0001
0100
0010
1000
0100
1000
0001
,
0010
0001
0100
0010
1000
0001
0100
0001
1000
0100
0010
0001
,
1000
0100
1000
0010
0100
0001
1000
0100
1000
0001
0100
0010
,
1000
0001
0100
0001
0010
0100
1000
0001
1000
0010
0100
0001
,
1000
0000
0000
0010
0100
0001
1000
0010
1000
0100
0010
0001
,
1000
0100
1000
0001
0100
0010
1000
0001
0010
0001
0100
0010
,
1000
0100
1000
0001
0010
0001
1000
0100
0010
0001
1000
0010
,
0000
0000
0000
0100
0001
1000
0010
1000
0100
0010
0001
1000
,
0010
0000
0000
0100
0001
1000
0010
1000
0001
0010
0001
0100
,
0010
1000
0001
0100
0001
1000
0100
0010
0001
1000
0100
1000
,
0010
0100
0001
1000
0100
1000
0001
0010
0001
0100
0010
1000
,
0001
0100
0010
0100
0001
1000
0100
0010
0100
1000
0001
0010
,
0001
1000
0100
1000
0001
1000
0010
0100
0001
1000
0100
1000
,
0001
0010
0001
0100
0010
1000
0001
0100
0001
1000
0100
0010
,
0100
1000
0001
0010
0001
0100
0010
1000
0001
0100
0010
0100
,
0001
1000
0100
1000
0001
0100
0001
0010
0100
1000
0010
0100
,
0001
0000
0000
1000
0100
0010
0001
1000
0100
1000
0001
0100
,
0010
1000
0001
0000
0000
0000
0000
0000
0000
0000
0000
0000
,
0000
0000
0000
1000
0100
0010
0001
1000
0100
1000
0001
0100
,
0010
1000
0001
0100
0001
0010
0100
1000
0001
0010
0001
0100
,
0010
1000
0001
0100
0010
0100
0001
1000
0010
1000
0001
1000
,
0100
0010
0001
1000
0100
1000
0010
0100
0001
1000
0010
1000
,
0001
0100
0010
1000
0001
0100
0001
0010
0100
1000
0001
0010
,
0001
1000
0100
0010
0100
1000
0001
0100
0001
0010
0100
1000
,
0001
0000
0000
0000
1000
0000
0000
0000
0010
0000
0000
0000
0100
0000
0000
0010
0000
0000
1000
0000
0000
0001
0000
0000
0100
0000
0000
0001
0000
0000
1000
0000
0000
0010
0000
0000
1000
0000
0000
0001
0000
0000
0100
0000
0000
0010
0000
0000
,
1000
0001
0010
0001
1000
0100
1000
0001
1000
0100
0010
0001
1000
0100
1000
0001
,
0100
0010
1000
0001
0100
0010
0100
0001
1000
0100
1000
0001
0010
0001
1000
0100
,
0010
0001
1000
0100
1000
0001
0100
0010
1000
0001
0100
0001
0010
0100
1000
0001
,
0010
0001
0100
0010
1000
0001
0100
0010
0100
0001
1000
0100
1000
0010
0100
0001
,
1000
0100
1000
0001
1000
0100
0010
0001
1000
0010
0100
0001
1000
0001
0100
0010
,
1000
0001
0100
0001
0010
0100
1000
0001
0010
0001
1000
0100
0010
0001
1000
0100
,
1000
0010
0100
0001
1000
0100
1000
0001
0100
0010
1000
0001
0100
0001
0010
0100
,
1000
0001
0010
0001
0100
0010
1000
0001
0100
0010
0100
0001
1000
0010
1000
0100
,
0010
0001
1000
0100
1000
0001
0100
0010
0100
0001
1000
0100
1000
0001
0010
0100
,
1000
0001
0010
0001
0100
0010
1000
0001
0100
0001
1000
0100
0010
0001
1000
0100
,
1000
0010
0100
0001
1000
0100
1000
0001
0100
0010
1000
0001
0100
0001
1000
0100
,
0010
0001
1000
0100
1000
0001
0010
0001
0100
0010
1000
0001
0100
0001
1000
0100
,
0010
0001
1000
0100
1000
0010
0100
0001
1000
0100
1000
0001
0100
0010
1000
0001
,
0100
0010
0100
0001
1000
0100
0010
0001
1000
0100
1000
0001
0100
0010
1000
0001
,
0100
0001
1000
0100
0010
0001
1000
0100
1000
0010
0100
0001
0100
0010
1000
0001
,
1000
0100
0010
0001
0100
0000
0000
0000
0000
0000
0000
0000
0000
0000
0000
0000
,
0000
0000
0000
0000
,
0000
0010
1000
0001
,
1000
0000
0000
0100
0000
0000
0010
0001
1000
0001
0100
0010
,
1000
0001
0100
0001
0010
0100
1000
0001
0010
0001
0100
0010
,
1000
0001
0100
0010
1000
0100
1000
0001
0100
0001
0010
0100
,
1000
0100
0010
0001
1000
0100
1000
0001
0100
0010
0100
0001
,
1000
0010
1000
0001
0100
0010
1000
0100
1000
0001
0010
0001
,
1000
0100
0010
0001
1000
0100
1000
0001
0100
0010
1000
0001
,
0100
0001
0010
0100
1000
0100
0010
0001
1000
0100
1000
0010
,
0100
0001
0100
0010
1000
0001
1000
0100
0010
0001
1000
0100
,
1000
0001
0010
0001
0100
0010
1000
0001
0100
0010
0100
0001
,
1000
0100
0010
0100
1000
0001
0010
0001
1000
0100
1000
0001
,
1000
0010
0100
0001
1000
0010
1000
0100
0010
0001
1000
0010
,
0000
0000
0000
1000
0100
0010
0001
1000
0100
1000
0001
0100
,
0010
1000
0001
0100
0010
0100
0001
1000
0100
0010
0001
1000
,
0100
1000
0001
0010
0001
0100
0010
1000
0001
0100
0001
1000
,
0010
0000
0000
0100
0001
1000
0010
1000
0001
0100
0010
0100
,
0001
0000
0000
0100
0010
1000
0001
0100
0010
0100
0001
1000
,
0100
0010
0100
1000
0001
0010
0001
1000
0100
1000
0001
0100
,
0010
1000
0001
0100
0001
0010
0100
1000
0001
0100
0010
1000
,
0001
0100
0001
0000
0000
0000
0000
0000
0000
0000
0000
0000
,
0000
0000
0000
1000
0100
0010
0001
1000
0100
1000
0001
0010
,
0001
0100
0010
1000
0001
0100
0001
1000
0010
0100
0001
1000
,
0100
1000
0001
0010
0001
0100
0010
1000
0001
0100
0001
1000
,
0100
1000
0010
0100
0001
1000
0100
0010
0001
1000
0100
1000
,
0010
0000
0000
0100
0001
1000
0100
1000
0001
0010
0001
0100
,
0010
1000
0001
0100
0010
0100
0001
1000
0100
0010
0100
1000
,
0001
0010
0001
0100
0010
1000
0001
0100
0010
0100
0001
1000
,
0100
0010
0100
1000
0001
0010
0001
0100
0010
1000
0001
0100
,
0001
1000
0010
0100
0001
0100
0010
1000
0001
1000
0100
0010
,
0100
1000
0001
0010
0001
0100
0010
1000
0001
0100
0001
0010
,
0100
1000
0001
0010
0001
0100
0010
1000
0001
0100
0010
0100
,
0001
1000
0100
0010
0100
1000
0001
0010
0001
0100
0010
1000
,
0001
0100
0001
0010
0100
1000
0100
0010
0001
0100
0000
0000
,
0000
0000
0000
0010
1000
0001
0100
0001
0010
0100
1000
0001
,
0010
0001
0100
0010
1000
0001
0100
0010
0100
0001
1000
0100
,
1000
0010
0100
0001
1000
0100
0010
0001
1000
0100
1000
0001
,
0010
0001
0100
0010
1000
0001
0100
0010
1000
0010
0100
0001
,
1000
0100
0010
0100
1000
0001
0010
0001
1000
0100
1000
0001
,
0100
0010
1000
0001
0100
0001
0010
0100
1000
0001
0010
0001
,
0100
0010
1000
0001
0100
0010
0100
0001
1000
0100
0010
0001
,
1000
0100
1000
0010
0100
0001
1000
0010
1000
0001
0100
0001
,
0010
0100
1000
0001
0010
0001
0100
0010
1000
0001
0100
0010
,
0100
0001
1000
0100
0010
0100
1000
0001
0010
0001
1000
0100
,
0010
0100
1000
0001
1000
0010
0100
0001
1000
0100
1000
0010
,
0100
0001
1000
0010
1000
0001
0100
0001
0010
0100
1000
0001
,
0010
0001
1000
0010
1000
0001
0100
0010
0100
0001
1000
0100
,
1000
0010
0100
0001
1000
0100
0010
0001
1000
0100
1000
0010
,
0100
0001
1000
0100
1000
0001
0010
0100
1000
0001
1000
0100
,
0010
0001
1000
0100
1000
0001
1000
0010
0100
0001
1000
0100
,
1000
0010
0100
0001
1000
0010
1000
0001
0100
0010
0100
0001
,
1000
0100
0010
0001
1000
0100
1000
0001
0010
0001
0100
0010
,
1000
0001
0100
0010
0100
0001
1000
0100
0010
0001
1000
0100
,
1000
0010
0100
0001
0100
0010
1000
0001
0100
0001
0010
0100
,
1000
0001
0010
0001
0100
0010
1000
0001
0100
0001
1000
0100
,
0010
0001
1000
0100
1000
0001
0100
0010
0100
0001
1000
0100
,
0010
0001
1000
0010
0000
0000
0010
0000
0000
0100
0000
0000
,
0100
0000
0000
0001
1000
0010
1000
0100
0010
0001
1000
0100
,
1000
0001
0100
0010
1000
0001
0100
0001
0010
0100
1000
0001
,
0010
0001
0100
0010
1000
0100
1000
0001
0100
0010
0100
0001
,
1000
0010
1000
0100
0010
0001
1000
0100
1000
0001
0010
0001
,
0100
0010
1000
0100
1000
0001
0010
0001
0100
0010
1000
0001
,
0100
0010
0100
0001
1000
0100
0010
0001
1000
0100
1000
0010
,
0100
0001
1000
0100
1000
0010
0100
0001
1000
0100
1000
0001
,
0100
0010
0100
0001
1000
0100
1000
0001
0100
0010
0100
0001
,
1000
0000
0000
0010
0100
0001
1000
0010
1000
0100
0010
0001
,
1000
0100
1000
0001
0010
0001
0100
0010
1000
0001
0100
0010
,
0100
0001
1000
0100
0010
0100
1000
0001
0010
0001
0100
0010
,
1000
0001
0100
0001
1000
0100
0010
0001
1000
0100
1000
0010
,
0100
0001
1000
0100
1000
0001
0010
0001
0100
0010
1000
0001
,
0100
0001
1000
0100
1000
0010
0100
0001
1000
0100
0010
0001
,
1000
0100
1000
0001
0010
0001
0100
0010
1000
0001
0100
0010
,
0100
0000
0000
0000
,
0000
0000
0000
0000
0000
0000
0000
0000
0000
0M00
0000
0000
0001
0000
0000
0000
1000
0000
0000
0000
0010
0000
0000
0000
1000
0000
0000
0000
0100
0000
0000
0000
0010
0000
0000
0000
0001
0000
0000
0000
1000
0000
0000
0000
0100
0000
0000
0000
,
1000
0001
0100
0010
1000
0001
0100
0001
0010
0100
1000
0001
,
0010
0001
0100
0010
1000
0001
0100
0010
0100
0001
1000
0100
,
0010
0100
1000
0001
0010
0001
0100
0010
1000
0001
0100
0010
,
0100
0001
1000
0100
0010
0001
1000
0100
1000
0001
0010
0001
,
0100
0010
1000
0001
0100
0001
1000
0100
0010
0001
1000
0010
,
0100
0000
0000
0000
,
0000
0000
0000
0000
,
0000
0000
0000
0001
0010
0100
1000
0001
1000
0010
0100
0001
,
1000
0100
1000
0010
0100
0001
1000
0100
1000
0001
0010
0001
,
0100
0010
1000
0001
0100
0010
0100
0001
1000
0100
0010
0001
,
1000
0100
1000
0010
0100
0001
1000
0100
1000
0001
0010
0001
,
0100
0010
1000
0001
0100
0010
0100
0001
1000
0010
0000
0000
,
0000
0000
0000
1000
0100
1000
0001
0010
0001
0100
0010
1000
,
0001
0100
0001
1000
0100
0010
0001
1000
0010
0100
0001
1000
,
0100
1000
0001
0100
0010
1000
0001
0100
0001
0010
0100
1000
,
0001
0010
0001
0100
0010
1000
0100
1000
0001
0010
0001
0100
,
0010
1000
0001
0100
0010
0100
0001
1000
0100
0010
0100
1000
,
0001
0010
0001
1000
0100
1000
0001
0100
0010
1000
0001
0100
,
0010
0100
0001
1000
0100
1000
0001
0100
0010
1000
0001
1000
,
0100
0010
0001
1000
0010
0100
0001
1000
0001
0010
0100
1000
,
0001
0010
0001
0100
0010
1000
0001
0100
0001
1000
0100
0010
,
0100
1000
0001
0010
0001
1000
0100
0010
0100
1000
0001
0010
,
0001
0100
0010
1000
0001
0100
0010
0100
0001
1000
0100
1000
,
0001
0010
0001
0100
0010
1000
0001
0100
0010
0100
0001
1000
,
0100
0010
0001
1000
0100
1000
0001
0010
0001
0100
0010
1000
,
0001
0100
0001
1000
0100
0010
0001
1000
0010
0100
0001
1000
,
0100
1000
0001
0100
0010
1000
0001
0100
0001
0010
0100
1000
,
0001
0010
0001
0100
0010
1000
0100
1000
0001
0010
0001
0100
,
0010
1000
0001
0100
0010
0100
0001
1000
0100
0010
0100
1000
,
0001
0010
0001
1000
0100
1000
0001
0100
0010
1000
0001
0100
,
0010
0100
0001
1000
0100
1000
0001
0100
0010
1000
0001
1000
,
0100
0010
0001
1000
0010
0100
0001
1000
0001
0010
0100
1000
,
0001
0010
0001
0100
0010
1000
0001
0100
0001
1000
0100
0010
,
0100
1000
0001
0010
0001
1000
0100
0010
0100
1000
0001
0010
,
0001
0100
0010
1000
0001
0100
0010
0100
0001
1000
0100
1000
,
0001
0010
0001
0100
0010
1000
0001
0100
0010
0100
0001
1000
,
0100
0010
0001
1000
0100
1000
0001
0010
0001
0100
0010
1000
,
0001
0100
0001
1000
0100
0010
0001
1000
0010
0100
0001
1000
,
0100
1000
0001
0100
0010
1000
0001
0100
0001
0010
0100
1000
,
0001
0010
0001
0100
0010
1000
0100
1000
0001
0010
0001
0100
,
0010
1000
0001
0100
0010
0100
0001
1000
0100
0010
0100
1000
,
0001
0010
0001
1000
0100
1000
0001
0100
0010
1000
0001
0100
,
0010
0100
0001
1000
0100
1000
0001
0100
0010
1000
0001
1000
,
0100
0010
0001
1000
0010
0100
0001
1000
0001
0010
0100
1000
,
0001
0010
0001
0100
0010
1000
0001
0100
0001
1000
0100
0010
,
0100
1000
0001
0010
0001
1000
0100
0010
0100
1000
0001
0010
,
0001
0100
0010
1000
0001
0100
0010
0100
0001
1000
0100
1000
,
0001
0010
0001
0100
0010
1000
0001
0100
0010
0100
0001
1000
,
0100
0010
0001
1000
0100
1000
0001
0010
0001
0100
0010
1000
,
0001
0100
0001
1000
0100
0010
0001
1000
0010
0100
0001
1000
,
0100
1000
0001
0100
0010
1000
0001
0100
0001
0010
0100
1000
,
0001
0010
0001
0100
0010
1000
0100
1000
0001
0010
0001
0100
,
0010
1000
0001
0100
0010
0100
0001
1000
0100
0010
0100
1000
,
0001
0010
0001
1000
0100
1000
0001
0100
0010
1000
0001
0100
,
0010
0100
0001
1000
0100
1000
0001
0100
0010
1000
0001
1000
,
0100
0010
0001
1000
0010
0100
0001
1000
0001
0010
0100
1000
,
0001
0010
0001
0100
0010
1000
0001
0100
0001
1000
0100
0010
,
0100
1000
0001
0010
0001
1000
0100
0010
0100
1000
0001
0010
,
0001
0100
0010
1000
0001
0100
0010
0100
0001
1000
0100
1000
,
0001
0010
0001
0100
0010
1000
0001
0100
0010
0100
0001
1000
,
0100
0010
0001
1000
0100
1000
0001
0010
0001
0100
0010
1000
,
0001
0100
0010
0100
0001
1000
0100
0010
0100
1000
0001
0010
,
0001
0100
0010
1000
0001
0100
0001
1000
0100
0010
0001
1000
,
0010
0000
0000
0000
,
0000
0000
0000
0000
,
0000
0000
00M0
0000
,
0000
0M00
0000
0000
0000
0000
0000
0000
,
0000
0000
0000
1000
0100
0010
0001
1000
0100
0010
0001
1000
,
0100
0010
0001
1000
0100
0010
0001
1000
0100
0010
0001
1000
,
0100
0010
0001
1000
0100
0010
0001
1000
0100
0010
0001
1000
,
0100
0010
0001
1000
0100
0010
0001
1000
0100
0010
0001
1000
,
0100
0010
0001
1000
0100
0010
0001
1000
0100
0010
0001
1000
,
0100
0010
0001
1000
0100
0010
0001
1000
0100
0010
0001
1000
,
0100
0010
0001
1000
0100
0010
0001
1000
0100
0010
0001
1000
,
0100
0010
0001
1000
0100
0010
0001
1000
0100
0010
0001
1000
,
0100
0010
0001
1000
0100
0010
0001
1000
0100
0010
0001
1000
,
0100
0010
0001
1000
0100
0010
0001
1000
0100
0010
0001
1000
,
0100
0010
0001
1000
0100
0010
0001
1000
0100
0010
0001
1000
,
0100
0010
0001
1000
0100
0010
0001
1000
0100
0010
0001
1000
,
0100
0010
0001
1000
0100
0010
0001
1000
0100
0010
0001
1000
,
0100
0010
0001
1000
0100
0010
0001
1000
0100
0010
0001
1000
,
0100
0010
0001
1000
0100
0010
0001
1000
0100
0010
0001
1000
,
0100
0010
0001
1000
0100
0010
0001
1000
0100
0010
0001
1000
,
0100
0010
0001
1000
0100
0010
0001
1000
0100
0010
0001
1000
,
0100
0010
0001
1000
0100
0010
0001
1000
0100
0010
0001
1000
,
0100
0010
0001
1000
0100
0010
0001
1000
0100
0010
0001
1000
,
0100
0010
0001
1000
0100
0010
0001
1000
0100
0010
0001
1000
,
0100
0010
0001
1000
0100
0010
0001
1000
0100
0010
0001
1000
,
0100
0010
0001
1000
0100
0010
0001
1000
0100
0010
0001
1000
,
0100
0010
0001
1000
0100
0010
0001
1000
0100
0010
0001
1000
,
0100
0010
0001
1000
0100
0010
0001
1000
0100
0010
0001
1000
,
0100
0010
0001
1000
0100
0010
0001
1000
0100
0010
0001
1000
,
0100
0010
0001
1000
0100
0010
0001
1000
0100
0010
0001
1000
,
0100
0010
0001
1000
0100
0010
0001
1000
0100
0010
0001
1000
,
0100
0010
0001
1000
0100
0010
0001
1000
0100
0010
0001
1000
,
0100
0010
0001
1000
0100
0010
0001
1000
0100
0010
0001
1000
,
0100
0010
0001
1000
0100
0010
0001
1000
0100
0010
0001
1000
,
0100
0010
0001
1000
0100
0010
0001
1000
0100
0010
0001
1000
,
0100
0010
0001
1000
0100
0010
0001
1000
0100
0010
0001
1000
,
0100
0010
0001
1000
0100
0010
0001
1000
0100
0010
0001
1000
,
0100
0010
0001
1000
0100
0010
0001
1000
0100
0010
0001
1000
,
0100
0010
0001
1000
0100
0010
0001
1000
0100
0010
0001
1000
,
0100
0010
0001
1000
0100
0010
0001
1000
0100
0010
0001
1000
,
0100
0010
0001
1000
0100
0010
0001
1000
0100
0010
0001
1000
,
0100
0010
0001
1000
0100
0010
0001
1000
0100
0010
0001
1000
,
0100
0010
0001
1000
0100
0010
0001
1000
0100
0010
0001
1000
,
0100
0010
0001
1000
0100
0010
0001
1000
0100
0010
0001
1000
,
0100
0010
0001
1000
0100
0010
0001
1000
0100
0010
0001
1000
,
0100
0010
0001
1000
0100
0010
0001
1000
0100
0010
0001
1000
,
0100
0010
0001
1000
0100
0010
0001
1000
0100
0010
0001
1000
,
0100
0010
0001
1000
0100
0010
0001
1000
0100
0010
0001
1000
,
0100
0010
0001
1000
0100
0010
0001
1000
0100
0010
0001
1000
,
0100
0010
0001
1000
0100
0010
0001
1000
0100
0010
0001
1000
,
0100
0010
0001
1000
0100
0010
0001
1000
0100
0010
0001
1000
,
0100
0010
0001
1000
0100
0010
0001
1000
0100
0010
0001
1000
,
0100
0010
0001
1000
0100
0010
0001
1000
0100
0010
0001
1000
,
0100
0010
0001
1000
0100
0010
0001
1000
0100
0010
0001
1000
,
0100
0010
0001
1000
0100
0010
0001
1000
0100
0010
0001
1000
,
0100
0000
0000
0000
,
0000
0000
0000
0001
0100
0010
1000
0001
0100
0010
1000
0001
,
0100
0010
1000
0001
0100
0010
1000
0001
0100
0010
1000
0001
,
0100
0010
1000
0001
0100
0010
1000
0001
0100
0010
1000
0001
,
0100
0010
1000
0001
0100
0010
1000
0001
0100
0010
1000
0001
,
0100
0010
1000
0001
0100
0010
1000
0001
0100
0010
1000
0001
,
0100
0010
1000
0001
0100
0010
1000
0001
0100
0010
1000
0001
,
0100
0010
1000
0001
0100
0010
1000
0001
0100
0010
1000
0001
,
0100
0010
1000
0001
0100
0010
1000
0001
0100
0010
1000
0001
,
0100
0010
1000
0001
0100
0010
1000
0001
0100
0010
1000
0001
,
0100
0010
1000
0001
0100
0010
1000
0001
0100
0010
1000
0001
,
0100
0010
1000
0001
0100
0010
1000
0001
0100
0010
1000
0001
,
0100
0010
1000
0001
0100
0010
1000
0001
0100
0010
1000
0001
,
0100
0010
1000
0001
0100
0010
1000
0001
0100
0010
1000
0001
,
0100
0010
1000
0001
0100
0010
1000
0001
0100
0010
1000
0001
,
0100
0010
1000
0001
0100
0010
1000
0001
0100
0010
1000
0001
,
0100
0010
1000
0001
0100
0010
1000
0001
0100
0010
1000
0001
,
0100
0010
1000
0001
0100
0010
1000
0001
0100
0010
1000
0001
,
0100
0010
1000
0001
0100
0010
1000
0001
0100
0010
1000
0001
,
0100
0010
1000
0001
0100
0010
1000
0001
0100
0010
1000
0001
,
0100
0010
1000
0001
0100
0010
1000
0001
0100
0010
1000
0001
,
0100
0010
1000
0001
0100
0010
1000
0001
0100
0010
1000
0001
,
0100
0010
1000
0001
0100
0010
1000
0001
0100
0010
1000
0001
,
0100
0010
1000
0001
0100
0010
1000
0001
0100
0010
1000
0001
,
0100
0010
1000
0001
0100
0010
1000
0001
0100
0010
1000
0001
,
0100
0010
1000
0001
0100
0010
1000
0001
0100
0010
1000
0001
,
0100
0010
1000
0001
0100
0010
1000
0001
0100
0010
1000
0001
,
0100
0010
1000
0001
0100
0010
1000
0001
0100
0010
1000
0001
,
0100
0010
1000
0001
0100
0010
1000
0001
0100
0010
1000
0001
,
0100
0010
1000
0001
0100
0010
1000
0001
0100
0010
1000
0001
,
0100
0010
1000
0001
0100
0010
1000
0001
0100
0010
1000
0001
,
0100
0010
1000
0001
0100
0010
1000
0001
0100
0010
1000
0001
,
0100
0010
1000
0001
0100
0010
1000
0001
0100
0010
1000
0001
,
0100
0010
1000
0001
0100
0010
1000
0001
0100
0010
1000
0001
,
0100
0010
1000
0001
0100
0010
1000
0001
0100
0010
1000
0001
,
0100
0010
1000
0001
0100
0010
1000
0001
0100
0010
1000
0001
,
0100
0010
1000
0001
0100
0010
1000
0001
0100
0010
1000
0001
,
0100
0010
1000
0001
0100
0010
1000
0001
0100
0010
1000
0001
,
0100
0010
1000
0001
0100
0010
1000
0001
0100
0010
1000
0001
,
0100
0010
1000
0001
0100
0010
1000
0001
0100
0010
1000
0001
,
0100
0010
1000
0001
0100
0010
1000
0001
0100
0010
1000
0001
,
0100
0010
1000
0001
0100
0010
1000
0001
0100
0010
1000
0001
,
0100
0010
1000
0001
0100
0010
1000
0001
0100
0010
1000
0001
,
0100
0010
1000
0001
0100
0010
1000
0001
0100
0010
1000
0001
,
0100
0010
1000
0001
0100
0010
1000
0001
0100
0010
1000
0001
,
0100
0010
1000
0001
0100
0010
1000
0001
0100
0010
1000
0001
,
0100
0000
0010
0000
1000
0000
0001
0000
0000
0010
0000
0000
0100
0000
0000
1000
0000
0000
0010
0000
0000
0100
0000
0000
,
0001
1000
0100
0010
0001
1000
0000
0001
,
0100
0010
1000
0001
0100
0001
1000
0100
0010
0001
1000
0100
,
1000
0001
0010
0001
0100
0010
1000
0001
0100
0010
0100
0001
,
1000
0100
0010
0001
1000
0100
1000
0001
0100
0010
1000
0001
,
0100
0001
0010
0100
1000
0001
0010
0001
0100
0010
1000
0001
,
0100
0001
1000
0100
0010
0001
1000
0100
1000
0010
0100
0001
,
1000
0000
0000
0000
0010
0000
0000
0000
0100
0000
0000
0000
0001
0000
0000
1000
0000
0000
0100
0000
0000
0010
0000
0000
0001
0000
0000
1000
0000
0000
0100
0000
0000
1000
0000
0000
0001
0000
0000
0100
0000
0000
0010
0000
0000
0100
0000
0000
,
0001
1000
0010
1000
0100
0010
0001
1000
0100
1000
0001
0100
0010
1000
0010
0100
,
0001
1000
0100
0010
0001
1000
0100
1000
0001
0100
0010
1000
0001
0010
0100
1000
,
0001
0010
0001
0100
0010
1000
0001
1000
0100
0010
0001
1000
0100
1000
0001
0100
,
0010
1000
0010
0100
0001
1000
0100
0010
0001
1000
0100
1000
0001
0100
0010
1000
,
0001
0100
0001
1000
0100
0010
0001
0100
0001
0000
0000
0000
0000
0000
0000
0000
,
0000
0000
0000
0000
,
0000
0000
0000
0000
,
0000
0000
0000
0000
,
0000
0000
0000
0000
,
0000
0000
0000
0000
,
0000
0000
0000
0000
,
0000
0000
0000
0000
,
0000
0000
0000
0000
0000
0000
0001
0000
0100
0010
1000
0001
0010
0100
1000
0001
,
0000
0000
0000
0000
0000
0000
0000
0000
0100
0010
1000
0001
0100
0001
1000
0100
,
0010
0001
1000
0100
1000
0001
0100
0010
1000
0001
0100
0001
0010
0100
1000
0001
,
0010
0001
0100
0010
1000
0001
0100
0010
0100
0001
1000
0100
0010
0001
1000
0100
,
1000
0010
0100
0001
1000
0010
1000
0100
0010
0001
1000
0100
1000
0001
0100
0010
,
1000
0001
0100
0010
0100
0001
1000
0100
0010
0001
1000
0100
1000
0001
0010
0001
,
0100
0010
1000
0001
0100
0010
0100
0001
1000
0100
0010
0001
1000
0100
1000
0010
,
0100
0001
1000
0001
0010
0000
0000
0000
0100
0000
0000
0000
0000
0000
0000
0000
,
1000
0010
1000
0001
0100
0010
1000
0001
0000
0000
0000
0000
0000
0000
0000
0000
,
0010
0000
0100
0000
,
0000
0000
0000
0000
,
0000
0000
0000
0000
,
0000
0000
1000
0001
,
0000
0000
0000
0000
0000
0000
0000
0000
0000
0000
0000
0000
0000
0000
0000
0000
0000
0000
0000
0000
0000
0000
0000
0000
0000
0000
0000
0000
0000
0000
0000
0000
0000
0000
0000
0000
0000
0000
0000
0000
0000
0000
0000
0000
0000
0000
0000
0000
0400
0300
0000
0000
0000
0000
0000
0000
0000
0000
0000
0000
0000
0000
0000
0000
0000
0000
0000
0000
0000
0000
0000
0000
0000
0000
0000
0000
0000
0000
0000
0000
0000
0000
0000
0000
0000
0000
0000
0000
0000
0000
0000
0000
0000
0000
0000
0000
0010
0000
0000
0000
0000
0000
0000
0000
0000
0000
0000
0000
0100
0000
0000
0000
0000
0000
0000
0000
0000
0000
0000
0000
0001
0000
0000
0000
0000
0000
0000
0000
0000
0000
0000
0000
1000
0000
0000
0000
0000
0000
0000
0000
0000
0000
0000
0000
0010
0000
0000
0000
0000
0000
0000
0000
0000
0000
0000
0000
0000
0000
0000
0000
0000
0000
0000
0000
0000
0000
0000
0000
1000
0000
0000
0000
0000
0000
0000
0000
0000
0000
0000
0000
0100
0000
0000
0000
0000
0000
0000
0000
0000
0000
0000
0000
,
0010
0001
1000
0010
0100
0001
0100
0010
1000
0001
1000
0100
0010
0001
1000
0000
,
0010
0100
0001
1000
0010
1000
0100
0010
0001
1000
0100
1000
0001
0100
0010
0000
,
1000
0001
0000
0000
0010
0100
1000
0001
1000
0010
0100
0000
0000
0001
1000
0001
,
0010
0000
0000
0100
0000
0000
0000
0000
,
0000
1000
0000
0000
,
0000
0000
0010
0000
,
0100
0000
0001
0000
,
1000
0000
0000
0000
,
0100
0000
0000
0000
0000
0000
0000
0000
0010
0000
0001
1000
0001
0100
0010
1000
,
0001
0000
0000
0000
0010
0100
0000
0000
1000
0010
0100
0001
1000
0010
1000
0100
,
0010
0001
1000
0100
1000
0001
0100
0010
0100
0001
1000
0100
0010
0001
1000
0100
,
1000
0001
0010
0001
0100
0010
1000
0001
0100
0010
0100
0001
1000
0100
0010
0001
,
1000
0100
1000
0001
0100
0010
0100
0001
1000
0100
0010
0001
1000
0100
1000
0001
,
0100
0010
1000
0001
0010
0000
0100
1000
0001
0100
0010
0100
0001
1000
0100
0010
,
0001
1000
0100
1000
0010
0000
0000
0000
0100
0001
1000
0001
0010
0100
1000
0001
,
0400
0000
0000
0000
0000
0000
0000
0000
0301
1000
0010
0100
0001
1000
0010
1000
,
0100
0010
0001
1000
0100
1000
0001
0100
0010
1000
0001
0100
0010
1000
0010
0100
,
0001
0000
0000
0000
,
1000
0100
0010
0001
1000
0100
0010
0001
1000
0100
0010
0001
,
1000
0100
0010
0001
1000
0100
0010
0001
1000
0100
0010
0001
,
1000
0100
0010
0001
1000
0100
0010
0001
1000
0100
0010
0001
,
1000
0100
0010
0001
1000
0100
0010
0001
1000
0100
0010
0001
,
1000
0100
0010
0001
1000
0100
0010
0001
1000
0100
0010
0001
,
1000
0100
0010
0001
1000
0100
0010
0001
1000
0100
0010
0001
,
1000
0100
0010
0001
1000
0100
0010
0001
1000
0100
0010
0001
,
1000
0000
0000
0000
0000
0000
0000
0000
0000
0001
0010
0100
,
1000
0000
0000
0001
0010
0100
1000
0001
0010
0100
1000
0001
,
0010
0100
1000
0001
0010
0100
1000
0001
0010
0100
1000
0001
,
0010
0100
1000
0001
0010
0100
1000
0001
0010
0100
1000
0001
,
0010
0100
1000
0001
0010
0100
1000
0001
0010
0100
1000
0001
,
0010
0100
1000
0001
0010
0100
1000
0001
0010
0100
1000
0001
,
0010
0100
1000
0001
0010
0100
1000
0001
0010
0100
1000
0001
,
0010
0100
1000
0001
0010
0100
1000
0001
0010
0100
1000
0001
,
0010
0100
1000
0001
0010
0100
1000
0001
0010
0100
1000
0001
,
0010
0100
1000
0001
0010
0100
1000
0001
0010
0100
1000
0001
,
0010
0000
0000
0000
,
0000
0000
0000
0000
0001
0100
0010
1000
0001
0100
0010
0100
0001
1000
0100
0010
,
0001
1000
0100
1000
0010
0100
0001
1000
0010
1000
0001
0100
0010
0100
0001
1000
,
0100
0000
0000
0010
0000
0000
0001
0000
0000
0100
0000
0000
0010
0000
0000
1000
0000
0000
0010
0000
0000
0100
0000
0000
0001
0000
0000
0100
0000
0000
0010
0000
0000
1000
0000
0000
0001
0000
0000
0000
0010
0000
0000
0000
0100
0000
0000
0000
,
1000
0001
0010
0100
1000
0001
0010
0100
1000
0001
0010
0100
,
1000
0001
0010
0100
1000
0001
0010
0100
1000
0001
0010
0100
,
1000
0001
0010
0100
1000
0001
0010
0100
1000
0001
0010
0100
,
1000
0000
0000
0000
0001
0000
0000
0000
0010
0000
0000
0000
0100
0000
0000
0000
1000
0000
0000
0000
0001
0000
0000
0000
0010
0000
0000
0000
0100
0000
0000
0000
1000
0000
0000
0000
0001
0000
0000
0100
0000
0000
0010
0000
0000
1000
0000
0000
,
0001
0100
0010
0100
0001
1000
0100
0010
0001
1000
0100
1000
0001
0100
0010
1000
,
0001
0100
0001
1000
0100
0010
0001
1000
0100
1000
0010
0100
0001
1000
0010
1000
,
0001
0100
0010
1000
0001
0000
0000
0000
0000
0000
0000
0000
1000
0100
0010
0000
,
0001
0000
0000
0400
0000
0000
0000
0000
0000
0301
0010
0100
,
1000
0001
0010
0100
1000
0001
0010
0100
1000
0001
0010
0100
,
1000
0001
0010
0100
1000
0001
0010
0100
1000
0001
0010
0100
,
1000
0001
0010
0100
1000
0001
0010
0100
1000
0001
0010
0100
,
1000
0001
0010
0100
1000
0001
0010
0100
1000
0001
0010
0100
,
1000
0001
0010
0100
1000
0001
0010
0100
1000
0001
0010
0100
,
1000
0001
0010
0100
1000
0001
0010
0100
1000
0001
0010
0100
,
1000
0001
0010
0100
1000
0001
0010
0100
1000
0001
0010
0100
,
1000
0001
0010
0100
1000
0001
0010
0100
1000
0001
0010
0100
,
1000
0001
0010
0100
1000
0001
0010
0100
1000
0001
0010
0100
,
1000
0001
0010
0100
1000
0001
0010
0100
1000
0001
0010
0100
,
1000
0001
0010
0100
1000
0001
0010
0000
0000
0000
0000
0000
,
0000
0000
0000
0000
0000
0000
0000
0000
0000
1000
0100
0010
,
0001
1000
0100
0010
0001
1000
0100
0010
0001
1000
0100
0010
,
0001
1000
0100
0010
0001
1000
0100
0010
0001
1000
0100
0010
,
0001
0000
0000
0000
1000
0000
0000
0000
0100
0000
0000
0000
0010
0000
0000
0000
0001
0000
0000
0000
1000
0000
0000
0000
0100
0000
0000
0000
0010
0000
0000
0000
0001
0000
0000
0000
1000
0000
0000
0010
0000
0000
0100
0000
0000
0001
0000
0000
,
1000
0000
0000
0010
0000
0000
1000
0000
0000
0100
0000
0000
0010
0000
0000
0001
0000
0000
1000
0000
0000
0100
0000
0000
1000
0000
0000
0010
0000
0000
0100
0000
0000
0001
0000
0000
1000
0000
0000
0000
0100
0000
0000
0000
0010
0000
0000
0000
,
0001
1000
0100
0010
0001
1000
0100
0010
0001
1000
0100
0010
,
0001
1000
0100
0010
0001
1000
0100
0010
0001
1000
0100
0010
,
0001
1000
0100
0010
0001
1000
0100
0010
0001
1000
0100
0010
,
0001
1000
0100
0010
0001
1000
0100
0000
0000
0000
0000
0000
,
0000
0000
0000
0000
0001
0100
0010
1000
0001
0100
0001
1000
0100
0010
0001
1000
,
0001
0000
0000
0100
0000
0000
0010
0000
0000
1000
0000
0000
0001
0000
0000
0000
0010
0000
0000
0000
0100
0000
0000
0000
1000
0000
0000
0000
0001
0000
0000
0000
0010
0000
0000
0000
0100
0000
0000
0000
1000
0000
0000
0000
0001
0000
0000
0000
,
0010
0100
1000
0001
0010
0100
1000
0001
0010
0100
1000
0001
,
0010
0000
0000
0000
0100
0000
0000
0000
1000
0000
0000
0000
0001
0000
0000
0010
0000
0000
0100
0000
0000
1000
0000
0000
0001
0000
0000
0100
0000
0000
0010
0000
0000
1000
0000
0000
0001
0000
0000
0000
0010
0000
0000
0000
0100
0000
0000
0000
,
1000
0001
0010
0100
1000
0001
0010
0100
1000
0001
0010
0100
,
1000
0001
0010
0100
1000
0001
0010
0100
1000
0001
0010
0100
,
1000
0001
0010
0100
1000
0001
0010
0100
1000
0001
0010
0100
,
1000
0001
0010
0100
1000
0001
0010
0100
1000
0001
0010
0100
,
1000
0001
0010
0100
1000
0001
0010
0100
1000
0001
0010
0100
,
1000
0001
0010
0100
1000
0001
0010
0100
1000
0001
0010
0100
,
1000
0001
0010
0100
1000
0001
0010
0100
1000
0001
0010
0100
,
1000
0001
0010
0100
1000
0001
0010
0100
1000
0001
0010
0100
,
1000
0001
0010
0100
1000
0001
0010
0100
1000
0001
0010
0100
,
1000
0001
0010
0100
1000
0001
0010
0100
1000
0001
0010
0100
,
1000
0001
0010
0100
1000
0001
0010
0100
1000
0001
0010
0100
,
1000
0001
0010
0100
1000
0001
0010
0000
0000
0000
0000
0000
,
0000
0000
0000
0000
0000
0000
0000
0000
0000
1000
0010
0100
,
0001
1000
0010
0100
0001
1000
0010
0100
0001
1000
0010
0100
,
0001
1000
0010
0100
0001
1000
0010
0100
0001
1000
0010
0100
,
0001
1000
0010
0100
0001
1000
0010
0100
0001
1000
0010
0100
,
0001
1000
0010
0100
0001
1000
0010
0100
0001
1000
0010
0100
,
0001
1000
0010
0100
0001
1000
0010
0100
0001
1000
0010
0100
,
0001
1000
0010
0100
0001
1000
0010
0100
0001
1000
0010
0100
,
0001
1000
0010
0100
0001
1000
0010
0100
0001
1000
0010
0100
,
0001
1000
0010
0100
0001
1000
0010
0100
0001
1000
0010
0100
,
0001
1000
0010
0100
0001
1000
0010
0100
0001
1000
0010
0100
,
0001
1000
0010
0100
0001
1000
0010
0100
0001
1000
0010
0100
,
0001
0000
0000
0000
1000
0000
0000
0000
0010
0000
0000
0000
0100
0000
0000
0000
0000
0000
0000
0000
0000
0000
0000
0000
0010
0000
0000
0100
0000
0000
0001
0000
0000
1000
0000
0000
0010
0000
0000
1000
0000
0000
0100
0000
0000
0010
0000
0000
,
0001
1000
0100
1000
0001
0100
0010
1000
0001
0100
0001
1000
0100
0010
0001
1000
,
0100
1000
0001
0100
0010
1000
0001
0100
0010
0100
0001
1000
0100
1000
0001
0010
,
0100
1000
0001
1000
0010
0100
0001
1000
0100
0010
0001
1000
0100
1000
0010
0100
,
0001
1000
0100
1000
0010
0100
0001
1000
0100
0010
0001
1000
0001
0100
0010
1000
,
0001
0100
0010
1000
0001
0100
0001
0010
0100
1000
0001
0010
0001
1000
0100
0010
,
0001
1000
0100
1000
0001
0100
0010
0100
0001
1000
0100
0010
0001
1000
0010
0100
,
0010
1000
0001
0100
0001
1000
0100
0010
0001
1000
0100
1000
0010
0100
0001
1000
,
0100
1000
0001
0100
0010
0100
0001
1000
0010
0100
0010
1000
0001
0000
0000
0000
,
1000
0100
0010
0001
1000
0100
0010
0001
1000
0100
0010
0001
,
1000
0100
0010
0001
1000
0100
0010
0001
1000
0100
0010
0001
,
1000
0100
0010
0001
1000
0100
0010
0001
1000
0100
0010
0001
,
1000
0000
0000
0000
0000
0000
0100
0000
0000
0000
0000
0000
0010
0000
0000
0001
0000
0000
1000
0000
0100
0000
0010
0000
,
0001
1000
0100
0010
0001
1000
0100
0010
0001
1000
0100
0010
,
0001
1000
0100
0010
0001
1000
0100
0010
0001
1000
0100
0010
,
0001
1000
0100
0010
0001
1000
0100
0010
0001
1000
0100
0010
,
0001
1000
0100
0010
0001
1000
0100
0010
0001
1000
0100
0010
,
0001
1000
0100
0010
0001
1000
0100
0010
0001
1000
0100
0010
,
0001
1000
0100
0010
0001
1000
0100
0010
0001
1000
0100
0010
,
0001
1000
0100
0010
0001
1000
0100
0010
0001
1000
0100
0010
,
0001
1000
0100
0010
0001
1000
0100
0010
0001
1000
0100
0010
,
0001
0100
0010
1000
0001
0100
0001
1000
0100
0010
0001
1000
0100
1000
0001
0100
,
0010
1000
0001
0100
0001
1000
0100
0010
0001
0000
0000
0000
0000
0000
0000
0000
,
1000
0010
0100
0001
1000
0010
0100
0001
1000
0010
0100
0001
,
1000
0010
0100
0001
1000
0010
0100
0001
1000
0010
0100
0001
,
1000
0010
0100
0001
1000
0010
0100
0001
1000
0010
0100
0001
,
1000
0010
0100
0001
1000
0010
0100
0001
1000
0010
0100
0001
,
1000
0010
0100
0001
1000
0010
0100
0001
1000
0010
0100
0001
,
1000
0010
0100
0001
1000
0010
0100
0001
1000
0010
0100
0001
,
1000
0010
0100
0001
1000
0010
0100
0001
1000
0010
0100
0001
,
1000
0010
0100
0001
1000
0010
0100
0001
1000
0010
0100
0001
,
1000
0010
0100
0001
1000
0010
0100
0001
1000
0010
0100
0001
,
1000
0010
0100
0001
1000
0010
0100
0001
1000
0010
0100
0001
,
1000
0010
0100
0001
1000
0010
0100
0001
1000
0010
0100
0001
,
1000
0010
0100
0001
1000
0010
0100
0001
1000
0010
0100
0001
,
1000
0010
0100
0001
1000
0010
0100
0001
1000
0010
0100
0001
,
1000
0010
0100
0001
1000
0010
0100
0001
1000
0010
0100
0001
,
1000
0010
0100
0001
1000
0010
0100
0001
1000
0010
0100
0001
,
1000
0010
0100
0001
1000
0010
0100
0001
1000
0010
0100
0001
,
1000
0010
0100
0001
1000
0010
0100
0001
1000
0010
0100
0001
,
1000
0000
0000
0000
,
0001
0010
0100
1000
0001
0010
0100
1000
0001
0010
0100
1000
,
0001
0010
0100
1000
0001
0010
0100
1000
0001
0010
0100
1000
,
0001
0010
0100
1000
0001
0010
0100
1000
0001
0010
0100
1000
,
0001
0010
0100
1000
0001
0010
0100
1000
0001
0010
0100
1000
,
0001
0010
0100
1000
0001
0010
0100
1000
0001
0010
0100
1000
,
0001
0010
0100
1000
0001
0010
0100
1000
0001
0010
0100
1000
,
0001
0010
0100
1000
0001
0010
0100
1000
0001
0010
0100
1000
,
0001
0010
0100
1000
0001
0010
0100
1000
0001
0010
0100
1000
,
0001
0010
0100
1000
0001
0010
0100
1000
0001
0010
0100
1000
,
0001
0010
0100
1000
0001
0010
0100
1000
0001
0010
0100
1000
,
0001
0010
0100
1000
0001
0010
0100
1000
0001
0010
0100
1000
,
0001
0010
0100
1000
0001
0010
0100
1000
0001
0010
0100
1000
,
0001
0010
0100
1000
0001
0010
0100
1000
0001
0010
0100
1000
,
0001
0010
0100
1000
0001
0010
0100
1000
0001
0010
0100
1000
,
0001
0010
0100
1000
0001
0010
0100
1000
0001
0010
0100
1000
,
0001
0010
0100
1000
0001
0010
0100
1000
0001
0010
0100
1000
,
0001
0010
0100
1000
0001
0010
0100
1000
0001
0010
0100
1000
,
0001
0010
0100
1000
0001
0010
0100
1000
0001
0010
0100
1000
,
0001
0010
0100
1000
0001
0010
0100
1000
0001
0010
0100
1000
,
0001
0010
0100
1000
0001
0010
0100
1000
0001
0010
0100
1000
,
0001
0010
0100
1000
0001
0010
0100
1000
0001
0010
0100
1000
,
0001
0010
0100
1000
0001
0010
0100
1000
0001
0010
0100
1000
,
0001
0010
0100
1000
0001
0010
0100
1000
0001
0010
0100
1000
,
0001
0010
0100
1000
0001
0010
0100
1000
0001
0010
0100
1000
,
0001
0010
0100
1000
0001
0010
0100
1000
0001
0010
0100
1000
,
0001
0010
0100
1000
0001
0010
0100
1000
0001
0010
0100
1000
,
0001
0010
0100
1000
0001
0010
0100
1000
0001
0010
0100
1000
,
0001
0010
0100
1000
0001
0010
0100
1000
0001
0010
0100
1000
,
0001
0010
0100
1000
0001
0010
0100
1000
0001
0010
0100
1000
,
0001
0010
0100
1000
0001
0010
0100
1000
0001
0010
0100
1000
,
0001
0010
0100
1000
0001
0010
0100
1000
0001
0010
0100
1000
,
0001
0010
0100
1000
0001
0010
0100
1000
0001
0010
0100
1000
,
0001
0010
0100
1000
0001
0010
0100
1000
0001
0010
0100
1000
,
0001
0010
0100
1000
0001
0010
0100
1000
0001
0010
0100
1000
,
0001
0010
0100
1000
0001
0010
0100
1000
0001
0010
0100
1000
,
0001
0010
0100
1000
0001
0010
0100
1000
0001
0010
0100
1000
,
0001
0010
0100
1000
0001
0010
0100
1000
0001
0010
0100
1000
,
0001
0010
0100
1000
0001
0010
0100
1000
0001
0010
0100
1000
,
0001
0010
0100
1000
0001
0010
0100
1000
0001
0010
0100
1000
,
0001
0010
0100
1000
0001
0010
0100
1000
0001
0010
0100
1000
,
0001
0010
0100
1000
0001
0010
0100
1000
0001
0010
0100
1000
,
0001
0010
0100
1000
0001
0010
0100
1000
0001
0010
0100
1000
,
0001
0010
0100
1000
0001
0010
0100
1000
0001
0010
0000
0000
,
0000
0000
0000
1000
0100
0010
0001
1000
0100
0010
0001
1000
,
0100
0010
0001
1000
0100
0010
0001
1000
0100
0010
0001
1000
,
0100
0010
0001
1000
0100
0010
0001
1000
0100
0010
0001
1000
,
0100
0010
0001
1000
0100
0010
0001
1000
0100
0010
0001
1000
,
0100
0010
0001
1000
0100
0010
0001
1000
0100
0010
0001
1000
,
0100
0010
0001
1000
0100
0010
0001
1000
0100
0010
0001
1000
,
0100
0010
0001
1000
0100
0010
0001
1000
0100
0010
0001
1000
,
0100
0010
0001
1000
0100
0010
0001
1000
0100
0010
0001
1000
,
0100
0010
0001
1000
0100
0010
0001
1000
0100
0010
0001
1000
,
0100
0010
0001
1000
0100
0010
0001
1000
0100
0010
0001
1000
,
0100
0010
0001
1000
0100
0010
0001
1000
0100
0010
0001
1000
,
0100
0010
0001
1000
0100
0010
0001
1000
0100
0010
0001
1000
,
0100
0010
0001
1000
0100
0010
0001
1000
0100
0010
0001
1000
,
0100
0010
0001
1000
0100
0010
0001
1000
0100
0010
0001
1000
,
0100
0010
0001
1000
0100
0010
0001
1000
0100
0010
0001
1000
,
0100
0010
0001
1000
0100
0010
0001
1000
0100
0010
0001
1000
,
0100
0000
0000
0001
0100
0010
1000
0001
0100
0010
1000
0001
,
0100
0010
1000
0001
0100
0010
1000
0001
0100
0010
1000
0001
,
0100
0010
1000
0001
0100
0010
1000
0001
0100
0010
1000
0001
,
0100
0010
1000
0001
0100
0010
1000
0001
0100
0010
1000
0001
,
0100
0010
1000
0001
0100
0010
1000
0001
0100
0010
1000
0001
,
0100
0010
1000
0001
0100
0010
1000
0001
0100
0010
1000
0001
,
0100
0010
1000
0001
0100
0010
1000
0001
0100
0010
1000
0001
,
0100
0010
1000
0001
0100
0010
1000
0001
0100
0010
0000
0000
,
0000
0000
0000
1000
0100
0010
0001
1000
0100
0010
0001
1000
,
0100
0010
0001
1000
0100
0010
0001
1000
0100
0010
0001
1000
,
0100
0010
0001
1000
0100
0010
0001
1000
0100
0010
0001
1000
,
0100
0010
0001
1000
0100
0010
0001
1000
0100
0010
0001
1000
,
0100
0010
0001
1000
0100
0010
0001
1000
0100
0010
0001
1000
,
0100
0010
0001
1000
0100
0010
0001
1000
0100
0010
0001
1000
,
0100
0010
0001
1000
0100
0010
0001
1000
0100
0010
0001
1000
,
0100
0010
0001
1000
0100
0010
0001
1000
0100
0010
0001
1000
,
0100
0010
0001
1000
0100
0010
0001
1000
0100
0010
0001
1000
,
0100
0010
0001
1000
0100
0010
0001
1000
0100
0010
0001
1000
,
0100
0010
0001
1000
0100
0010
0001
1000
0100
0010
0001
1000
,
0100
0010
0001
1000
0100
0010
0001
1000
0100
0010
0001
1000
,
0100
0010
0001
1000
0100
0010
0001
1000
0100
0010
0001
1000
,
0100
0010
0001
1000
0100
0010
0001
1000
0100
0010
0001
1000
,
0100
0010
0001
1000
0100
0010
0001
1000
0100
0010
0001
1000
,
0100
0010
0001
1000
0100
0010
0001
1000
0100
0010
0001
1000
,
0100
0010
0001
1000
0100
0010
0001
1000
0100
0010
0001
1000
,
0100
0010
0001
1000
0100
0010
0001
1000
0100
0010
0001
1000
,
0100
0010
0001
1000
0100
0010
0001
1000
0100
0010
0001
1000
,
0100
0010
0001
1000
0100
0010
0001
1000
0100
0010
0001
1000
,
0100
0010
0001
1000
0100
0010
0001
1000
0100
0010
0001
1000
,
0100
0010
0001
1000
0100
0010
0001
1000
0100
0010
0001
1000
,
0100
0010
0001
1000
0100
0010
0001
1000
0100
0010
0001
1000
,
0100
0010
0001
1000
0100
0010
0001
1000
0100
0010
0001
1000
,
0100
0010
0001
1000
0100
0010
0001
1000
0100
0010
0001
0000
,
1000
0010
0100
0001
,
1000
0010
1000
0100
,
0010
0001
1000
0100
,
1000
0001
0100
0010
,
1000
0010
0100
0001
,
1000
0000
0000
0000
,
0000
0000
0000
0000
,
0000
0100
0010
0001
,
1000
0001
0010
0001
,
0100
0000
0000
0010
0000
0000
1000
0100
0010
0001
1000
0100
,
0010
0001
1000
0100
0010
0001
1000
0100
0010
0001
1000
0100
,
0010
0001
1000
0100
0010
0001
1000
0100
0010
0001
1000
0100
,
0010
0001
1000
0100
0010
0001
1000
0100
0010
0001
1000
0100
,
0010
0001
1000
0100
0010
0001
1000
0100
0010
0001
1000
0100
,
0010
0001
1000
0100
0010
0001
1000
0100
0010
0001
1000
0100
,
0010
0001
1000
0100
0010
0001
1000
0100
0010
0001
1000
0100
,
0010
0001
1000
0100
0010
0001
1000
0100
0010
0001
1000
0100
,
0010
0001
1000
0100
0010
0001
1000
0100
0010
0001
1000
0100
,
0010
0001
1000
0100
0010
0001
1000
0100
0010
0001
1000
0100
,
0010
0001
1000
0100
0010
0001
1000
0100
0010
0001
1000
0100
,
0010
0001
1000
0100
0010
0001
1000
0100
0010
0001
1000
0100
,
0010
0001
1000
0100
0010
0001
1000
0100
0010
0001
0000
0000
,
0000
0000
0000
0000
,
0000
0001
0100
0010
,
1000
0010
0100
0001
,
1000
0100
0010
0001
,
1000
0000
0000
0000
0000
0000
0001
0200
,
0000
0000
0000
0300
0000
0000
0001
0000
0010
0000
0100
0000
1000
0000
0001
0000
0010
0000
0100
0000
1000
0000
0001
0000
,
0010
0100
1000
0001
0010
0100
1000
0001
0010
0100
1000
0001
,
0010
0100
1000
0001
0010
0100
1000
0001
0010
0100
1000
0001
,
0010
0100
1000
0001
0010
0100
1000
0001
0010
0100
1000
0001
,
0010
0100
1000
0001
0010
0100
1000
0001
0010
0100
1000
0001
,
0010
0100
1000
0001
0010
0100
1000
0001
0010
0100
1000
0001
,
0010
0100
1000
0001
0010
0100
1000
0001
0010
0100
1000
0001
,
0010
0100
1000
0001
0010
0100
1000
0001
0010
0100
1000
0001
,
0010
0000
0000
0000
,
0000
0000
0000
0000
,
0000
0000
0000
0000
,
0000
0000
0000
0000
,
0000
0100
0000
1000
0000
0000
0000
0000
,
0000
0000
0000
0000
,
0000
0010
1000
0000
,
0000
0000
0000
0001
,
0100
0010
1000
0001
,
1000
0100
0010
0000
,
0000
0000
0000
0000
,
0001
1000
0000
0000
,
1001
1010
1010
1010
,
1000
0001
0000
0000
0000
0000
1000
0000
,
0100
0010
0001
1000
,
0001
0100
0010
1000
,
0001
0100
0001
1000
,
0100
0010
0001
1000
,
0100
1000
0001
0100
,
0010
1000
0100
0010
,
0001
0000
0000
1000
0100
0010
0001
1000
0100
0010
0001
1000
,
0100
0010
0001
1000
0100
0010
0001
1000
0100
0010
0001
1000
,
0100
0010
0001
1000
0100
0010
0001
1000
0100
0010
0001
1000
,
0100
0010
0001
1000
0100
0010
0001
1000
0100
0010
0001
1000
,
0100
0010
0001
1000
0100
0010
0001
1000
0100
0010
0001
1000
,
0100
0010
0001
1000
0100
0010
0001
1000
0100
0010
0001
1000
,
0100
0010
0001
1000
0100
0010
0001
1000
0100
0010
0001
1000
,
0100
0010
0001
1000
0100
0010
0001
1000
0100
0010
0001
1000
,
0100
0010
0001
1000
0100
0010
0001
1000
0100
0010
0001
1000
,
0100
0010
0001
1000
0100
0010
0001
1000
0100
0010
0001
1000
,
0100
0010
0001
1000
0100
0010
0001
1000
0100
0010
0001
1000
,
0100
0010
0001
1000
0100
0010
0001
1000
0100
0010
0001
1000
,
0100
0010
0001
1000
0100
0010
0001
0000
0000
0000
0000
0000
,
0000
0000
0000
0000
,
0001
0010
0100
1000
,
0001
0000
0000
0000
,
0100
0010
1000
0000
,
0000
0000
0000
0001
,
0000
1000
0100
0010
,
0001
1000
0010
0000
,
0000
0000
0000
0000
,
0000
0000
0000
0000
,
0000
0000
0000
0000
,
M000
0000
0000
000M
0000
0000
0000
0000
,
0000
0000
0000
0000
,
0000
0000
0000
0000
,
0000
0000
0000
0000
,
0000
0000
0000
0000
,
0000
0000
0000
0000
,
0000
0000
0000
1000
,
0001
0000
0000
0000
,
0000
0000
0000
0000
,
0000
0000
0000
0000
,
0000
0000
0000
0000
,
0000
0000
0000
0000
,
0000
0000
0000
0000
,
0000
0000
0000
0000
,
0000
0000
0000
0000
,
0000
0000
0000
0000
,
0000
0000
0000
0000
,
0000
0000
0000
0000
,
MMMM
0000
0000
0000
;

//---------------dance-single - ----------------
#NOTES:
     dance-single:
     :
     Challenge:
     45:
     1.000,1.000,0.009,0.009,1.000,11678.000,6.000,6.000,6.000,0.000:
0000
0000
0000
0000
0000
0000
0000
0000
1000
0100
0010
0001
1000
0001
0100
0010
1000
0001
0100
0001
0010
0100
1000
0001
0100
0000
0010
0000
1000
0000
0001
0000
,
0100
0010
0100
0001
1000
0100
1000
0010
0100
0001
1000
0010
1000
0001
0100
0010
1000
0001
0100
0001
0010
0100
1000
0001
0100
0000
0010
0000
1000
0000
0001
0000
,
0100
0000
0001
0000
1000
0000
0100
0000
0010
0000
0001
0000
1000
0000
0100
0000
1000
0000
0010
0000
0100
0000
0001
0000
0100
0010
1000
0001
1000
0100
0010
0001
,
0100
0000
0010
0000
1000
0000
0001
0000
0100
0000
0001
0000
0010
0000
0100
0000
1000
0001
0100
0010
0100
0001
1000
0010
1000
0000
0100
0000
0010
0000
0001
0000
,
0100
0010
1000
0001
0100
0001
0010
0100
1000
0010
1000
0001
0100
0010
1000
0001
,
0010
0100
1000
0001
0100
0001
1000
0100
0010
0001
1000
0100
1000
0010
0100
0001
1000
0001
0100
0010
0100
0001
1000
0010
1000
0100
0010
0001
1000
0100
1000
0001
,
0100
0000
0010
0000
1000
0000
0001
0000
0100
0000
0001
0000
0010
0000
0100
0000
1000
0010
1000
0001
0100
0001
1000
0100
0010
0001
1000
0100
1000
0001
0100
0010
,
1000
0001
0010
0001
1000
0010
0100
0010
1000
0001
0100
0010
0000
0000
0000
0000
,
0000
0000
0000
0000
0000
0000
0000
0000
0000
0000
0000
0000
1000
0100
0010
0001
1000
0001
0100
0010
0100
0001
0000
0000
,
1000
0000
0100
0000
0010
0000
0001
0000
0000
0000
0000
0000
1000
0000
0010
0000
0100
0000
0010
0000
0000
0000
0000
0000
0100
0000
0001
0000
1000
0000
0001
0000
0000
0000
0000
0000
0010
0000
0000
0100
0000
0000
1000
0000
0000
0001
0000
0000
,
1000
0000
0000
0010
0000
0000
0100
0001
1000
0010
1000
0100
0010
0001
1000
0100
1000
0001
1000
0010
0100
0001
0100
0010
,
1000
0001
1000
0100
0010
0001
1000
0100
1000
0001
0100
0010
1000
0001
0100
0001
,
0010
0100
1000
0001
0010
0001
0100
0010
1000
0001
0100
0010
0100
0001
1000
0100
,
1000
0010
1000
0001
0100
0010
1000
0001
0100
0001
0010
0100
1000
0100
0010
0001
,
1000
0100
1000
0010
0100
0000
0000
0000
0001
0000
1000
0000
0000
0000
0000
0000
,
0010
0000
0000
0000
0000
0000
0000
0000
1000
0000
0000
0000
0000
0000
0000
0000
0010
1000
0001
0100
0010
0100
0001
1000
0100
0000
0000
0000
0000
0010
0000
0000
,
0000
0000
0001
0000
0000
1000
0000
0000
0000
0000
0010
0000
0000
0100
0000
0000
,
0000
0000
0000
0000
0010
0000
0000
0000
0000
0000
0000
0000
0000
1000
0000
0000
0000
0000
0000
0000
0000
0000
0010
0000
0000
0000
0100
0000
0000
0000
0000
0000
,
0000
0000
0000
0000
0000
0000
0001
0000
1000
0000
0000
0000
0010
0100
0001
1000
,
0010
1000
0100
0010
0001
1000
0100
1000
0001
0100
0010
1000
0001
0100
0001
0010
,
0100
1000
0001
1000
0100
0010
0001
1000
0100
1000
0010
0100
0001
1000
0100
1000
,
0010
0100
0001
1000
0010
1000
0100
0010
0001
1000
0100
1000
0001
0010
0001
0100
,
0010
1000
0001
0100
0001
0010
0100
1000
0001
0100
0010
1000
0001
0010
0001
0100
,
0010
1000
0001
0100
0010
0100
0001
1000
0100
0010
0001
1000
0100
1000
0001
0100
,
0010
1000
0001
0010
0100
1000
0100
0010
0001
1000
0010
0100
0001
1000
0100
1000
,
0001
0010
0100
1000
0010
1000
0001
0010
0100
1000
0001
0100
0001
1000
0100
0010
,
0001
1000
0100
1000
0010
0100
0001
1000
0100
1000
0010
0100
0001
1000
0100
0010
,
0001
1000
0100
1000
0001
0100
0010
1000
0100
0010
0001
1000
0100
1000
0001
0100
,
0010
1000
0001
0100
0001
0010
0100
1000
0010
1000
0001
0100
0010
1000
0001
0010
,
0100
1000
0001
0100
0010
1000
0100
1000
0001
0010
0100
1000
0001
0010
0001
0100
,
0010
1000
0001
0100
0001
1000
0100
0010
0001
1000
0100
1000
0010
0100
0001
1000
,
0100
1000
0010
0100
0001
1000
0100
0010
0001
1000
0010
0100
0001
1000
0100
1000
,
0010
0100
0001
0010
0001
1000
0100
0010
0001
1000
0100
1000
0001
0100
0010
1000
,
0001
0100
0001
1000
0010
0000
0000
0000
0100
0000
0000
0000
0001
0000
0000
0000
,
1000
0010
1000
0001
0100
0010
0000
0000
1000
0001
1000
0100
0010
0001
1000
0100
,
1000
0010
0100
0001
1000
0100
1000
0010
0100
0001
1000
0100
1000
0001
0010
0001
,
0100
0010
1000
0001
0100
0001
1000
0100
0010
0001
1000
0100
1000
0010
0100
0001
,
1000
0001
0100
0000
0000
0000
0000
0000
0010
1000
0001
0100
0001
0010
0100
1000
,
0001
0000
0000
1000
0000
0000
0000
0000
0000
0000
0000
0000
0010
0000
0100
0000
0001
0000
1000
0000
0100
0000
1000
0000
0010
0000
0000
0100
0000
0000
0001
0000
0000
1000
0000
0000
0010
0000
0000
1000
0000
0000
0100
0000
0000
0010
0000
0000
,
0001
1000
0100
1000
0001
0100
0010
1000
0001
0100
0001
1000
0100
1000
0010
0100
,
0001
1000
0100
0010
0001
1000
0010
0100
0001
1000
0010
0000
0100
0001
1000
0000
,
0100
0010
0001
0000
1000
0010
0100
0000
0001
1000
0001
0100
0010
1000
0001
0000
,
1000
0010
0100
0001
1000
0100
0010
0000
0001
1000
0001
0100
0010
1000
0001
0000
,
0010
0100
1000
0001
1000
0010
0100
0001
1000
0010
1000
0100
0010
0001
1000
0100
,
1000
0001
0010
0001
0100
0010
1000
0001
0100
0010
0100
0001
1000
0100
0010
0001
,
0100
0000
0000
0000
0010
1000
0001
0100
0001
0010
0100
1000
0001
0010
0001
0100
,
0010
1000
0001
0100
0001
1000
0100
0010
0001
1000
0100
1000
0010
0100
0001
1000
,
0100
1000
0010
0100
0010
1000
0001
0100
0001
1000
0100
0010
0001
1000
0100
1000
,
0010
0000
0000
0000
0100
0001
1000
0010
1000
0100
0010
0001
1000
0100
1000
0001
,
0100
0010
1000
0001
0100
0001
0010
0100
1000
0100
0010
0001
1000
0100
1000
0001
,
0100
0010
1000
0001
0010
0100
1000
0001
1000
0010
0100
0001
1000
0100
1000
0001
,
0100
0010
1000
0001
0100
0010
0100
0001
1000
0100
0010
0001
1000
0100
1000
0001
,
0100
0010
1000
0001
0010
0100
1000
0001
0010
0001
0100
0010
1000
0001
0100
0010
,
1000
0100
1000
0001
0100
0010
1000
0001
0100
0010
0100
0001
1000
0010
1000
0100
,
0010
0001
1000
0100
1000
0001
0010
0100
1000
0001
0010
0001
1000
0100
0010
0001
,
1000
0100
1000
0001
0100
0010
1000
0001
0100
0010
0100
0001
1000
0100
0010
0001
,
1000
0000
0000
0000
0010
0100
0001
1000
0010
1000
0100
0010
0001
1000
0100
1000
,
0001
0100
0010
1000
0001
0100
0010
1000
0001
0010
0100
1000
0001
0010
0001
0100
,
0010
1000
0001
0100
0010
1000
0010
0100
0001
1000
0100
0010
0001
1000
0100
1000
,
0001
0100
0010
1000
0001
0100
0001
0010
0100
1000
0001
0010
0001
1000
0100
1000
,
0001
0100
0010
1000
0001
0010
0001
0100
0010
1000
0001
0100
0010
0100
0001
1000
,
0100
0010
0001
1000
0100
1000
0001
0100
0010
1000
0100
0010
0001
1000
0100
1000
,
0001
0100
0010
1000
0001
0100
0001
1000
0100
0010
0001
1000
0100
1000
0010
0100
,
0001
1000
0100
0010
0001
1000
0100
1000
0010
0100
0001
1000
0100
0010
0001
0000
,
0000
0000
0000
0000
1000
0010
0100
0001
1000
0100
1000
0001
0100
0010
1000
0001
,
0100
0010
0100
0001
1000
0100
0010
0001
1000
0100
1000
0001
0100
0010
1000
0001
,
0100
0001
0010
0100
1000
0001
0010
0001
1000
0100
0010
0001
1000
0010
0100
0001
,
0100
0010
1000
0001
0100
0010
1000
0001
0010
0100
1000
0001
0100
0010
1000
0001
,
0010
0100
1000
0000
0001
0100
0010
1000
0001
0100
0001
0010
0100
1000
0001
0100
,
0010
1000
0001
0100
0010
0100
0001
1000
0010
1000
0100
0010
0001
1000
0010
0100
,
0010
1000
0001
0000
0000
0000
0000
0000
0010
0100
1000
0001
1000
0010
0100
0001
,
1000
0100
0010
0001
0100
0010
1000
0010
0100
0001
1000
0100
0020
0000
0000
0000
,
0032
0003
0000
0000
0000
0000
0000
0000
1000
0000
0100
0000
0010
0000
0001
0000
1000
0000
0100
0000
1000
0000
0001
0000
0100
0000
0010
0000
1000
0000
0001
0000
,
0100
0010
0100
0001
1000
0010
1000
0100
1000
0001
0100
0001
0010
0100
1000
0001
,
0010
0001
0100
0010
1000
0001
0100
0010
0100
0001
1000
0100
1000
0001
1000
0010
,
0100
0001
1000
0100
1000
0001
0010
0100
1000
0001
0100
0010
1000
0001
0100
0000
,
0000
0000
0000
0000
0100
0000
0000
0000
0001
0000
0000
0000
0010
0100
1000
0001
,
0100
0010
0000
0000
0100
0001
1000
0100
0000
0010
0001
1000
0000
0010
1000
0001
,
0000
1000
0100
0010
0001
1000
0100
1000
0001
0100
0010
1000
0001
0100
0001
0010
,
0100
1000
0001
0010
0001
1000
0100
1000
0001
1000
0010
0100
0001
1000
0100
0000
,
0000
0000
0000
0000
0010
0001
1000
0001
0100
0010
1000
0010
0100
0000
0000
0000
,
0001
1000
0010
1000
0100
0010
0001
1000
0100
1000
0001
0100
0010
1000
0001
0100
,
0001
0010
0100
1000
0001
0010
0001
1000
0100
0010
0001
1000
0100
1000
0001
0100
,
0010
1000
0001
0100
0010
0100
0001
1000
0100
1000
0010
0100
0001
1000
0001
0100
,
0010
1000
0000
0000
0010
0100
0001
1000
0001
0010
0100
1000
0001
0100
0010
0100
,
0001
1000
0010
0000
0100
0001
1000
0010
1000
0100
0010
0000
0001
0100
0010
1000
,
0001
0100
0010
1000
0001
0100
0010
0100
0001
1000
0010
1000
0100
0010
0001
1000
,
0100
1000
0000
0001
0100
0010
0100
0000
0001
1000
0001
0010
0100
0000
1000
0000
,
0010
0100
0010
1000
0001
0000
0000
0000
1000
0000
0100
0010
0001
1000
0001
0100
,
0010
0000
0000
0000
1000
0001
0100
0010
0100
0001
1000
0010
1000
0001
0100
0010
,
1000
0001
0100
0001
0010
0100
1000
0001
0010
0001
0100
0010
1000
0001
0100
0010
,
0100
0001
1000
0010
1000
0001
1000
0100
0010
0001
1000
0100
1000
0001
0100
0010
,
1000
0001
0100
0001
0010
0100
1000
0001
0010
0001
1000
0100
0010
0001
1000
0100
,
1000
0010
0100
0001
0000
0000
0000
0000
0000
0000
0000
0000
0000
0000
0000
0000
,
0000
0000
0000
0000
,
1000
0100
0010
0001
1000
0001
0100
0000
,
0010
1000
0001
1000
0100
0010
0001
1000
0010
0000
0100
0000
0001
1000
0001
0010
,
0100
1000
0001
1000
0010
0100
0001
1000
0010
0000
0100
0000
0001
0000
1000
0000
,
0100
0000
0000
0000
0000
0000
0000
0000
0010
0000
0000
0000
0000
0000
0000
0000
0001
0000
0000
0000
0000
0000
0000
0000
1000
0000
0000
0000
0000
0000
0000
0000
0020
0030
0000
0000
0000
0000
0000
0000
0000
0000
0000
0000
0000
0000
0000
0000
0200
0300
0000
0000
0000
0000
0000
0000
0002
0003
0000
0000
0000
0000
0000
0000
,
1000
0100
0010
0001
1000
0000
0010
0000
0100
0001
1000
0001
0100
0010
0100
0001
,
1000
0100
0010
0001
1000
0100
1000
0001
0100
0010
1000
0010
0100
0001
1000
0100
,
0010
0000
0001
0100
0000
0000
0000
0000
,
0000
0000
0010
0100
0001
0000
1000
0100
,
0010
0000
0001
0100
0010
1000
0001
0010
,
0100
0000
1000
0010
0100
0000
0001
1000
,
0001
0000
0100
0010
0100
0000
0001
1000
,
0010
0000
0000
0000
0100
0000
0000
0000
0000
0000
0000
0000
0010
1000
0001
1000
,
0100
0010
0001
1000
0100
1000
0001
0100
0010
0100
0001
1000
0100
0010
0001
1000
,
0100
1000
0010
0100
0001
1000
0100
0010
0001
1000
0010
0100
0001
1000
0100
1000
,
0010
0100
0001
1000
0100
1000
0001
0010
0100
1000
0001
0100
0010
1000
0001
0100
,
0010
0100
0001
1000
0100
0010
0001
1000
0100
1000
0010
0100
0001
1000
0100
0010
,
0001
1000
0100
1000
0001
0100
0010
1000
0001
0100
0001
0010
0100
1000
0001
0010
,
0001
0100
0010
1000
0001
0100
0010
0100
0001
1000
0100
1000
0010
0100
0001
1000
,
0100
0010
0001
1000
0100
1000
0001
0100
0010
1000
0100
0010
0001
1000
0100
1000
,
0001
0100
0010
1000
0010
0100
0001
1000
0100
1000
0001
0010
0100
1000
0001
0010
,
0001
0100
0010
1000
0001
0100
0010
0100
0001
1000
0100
0010
0100
1000
0001
0010
,
0001
0100
0010
1000
0001
0100
0010
1000
0100
0010
0001
0100
0001
1000
0100
0010
,
0001
1000
0010
1000
0001
0100
0010
1000
0010
0100
0001
1000
0100
0010
0001
1000
,
0100
1000
0001
0100
0010
1000
0010
0100
0001
1000
0100
0010
0001
0010
0100
1000
,
0001
1000
0100
0010
0001
1000
0100
1000
0010
0100
0001
1000
0100
1000
0010
0100
,
0001
1000
0100
0010
0001
1000
0100
1000
0010
0100
0001
1000
0100
1000
0001
0010
,
0100
1000
0001
0010
0001
0100
0010
1000
0001
0100
0010
1000
0010
0100
0001
1000
,
0100
0010
0001
1000
0100
1000
0010
0100
0001
1000
0100
0010
0001
0100
0010
1000
,
0001
0010
0001
0100
0010
0000
0100
0000
0001
1000
0100
1000
0010
0100
0001
1000
,
0100
0010
0001
1000
0100
1000
0001
0100
0010
1000
0010
0100
0001
1000
0100
0010
,
0100
1000
0001
0010
0001
1000
0100
0010
0001
0100
0001
1000
0010
0100
0001
1000
,
0001
0100
0010
0000
1000
0001
1000
0000
0100
0010
0001
1000
0010
0100
0001
1000
,
0100
0010
0001
1000
0100
1000
0010
0100
0001
1000
0100
1000
0010
0100
0001
1000
,
0100
0010
0001
1000
0001
0100
0010
1000
0001
0000
0000
0000
0010
0000
0000
0000
,
0100
1000
0001
0100
0010
1000
0001
0100
0010
0100
0001
1000
0100
0010
0001
1000
,
0100
1000
0010
1000
0001
0100
0010
1000
0010
0100
0001
1000
0100
0010
0001
1000
,
0100
1000
0001
0010
0001
0100
0010
1000
0001
0100
0010
0100
0001
1000
0100
0010
,
0001
1000
0100
1000
0010
0100
0001
1000
0100
0010
0001
1000
0100
1000
0001
0100
,
0010
1000
0010
0100
0001
1000
0100
0010
0001
1000
0100
1000
0010
0000
0000
0000
,
0100
0000
0000
0000
0001
1000
0010
0100
0001
1000
0100
1000
0010
0100
0001
1000
,
0100
1000
0010
0100
0001
1000
0100
0010
0001
1000
0001
0100
0010
1000
0001
0100
,
0010
0100
0001
1000
0100
1000
0010
0100
0001
1000
0010
1000
0001
0100
0001
0010
,
0100
1000
0001
1000
0010
0100
0001
1000
0100
0010
0001
1000
0100
1000
0010
0100
,
0001
0100
0010
1000
0001
0100
0010
0100
0001
1000
0100
0010
0100
1000
0001
0010
,
0001
1000
0100
1000
0001
0100
0010
1000
0001
0100
0010
0100
0001
1000
0100
1000
,
0010
0100
0001
1000
0100
0010
0001
1000
0100
1000
0010
0100
0001
0000
0000
0000
,
1000
0100
0010
0001
1000
0100
1000
0001
0100
0010
1000
0001
0100
0010
0100
0001
,
1000
0100
1000
0001
0100
0010
0100
0001
1000
0100
0010
0001
1000
0010
1000
0001
,
0100
0010
1000
0001
0100
0010
0100
0001
1000
0100
0010
0001
1000
0100
1000
0010
,
0100
0001
1000
0100
0010
0001
1000
0100
1000
0001
0100
0010
1000
0001
0100
0010
,
0100
0001
1000
0010
0100
0010
1000
0001
0100
0001
0010
0100
1000
0001
1000
0010
,
0100
0001
1000
0010
1000
0100
0010
0001
1000
0100
1000
0001
0100
0010
1000
0001
,
0100
0001
0010
0100
1000
0001
0010
0001
0100
0010
1000
0001
0100
0010
0100
0001
,
1000
0100
1000
0001
0100
0010
1000
0001
0100
0001
0010
0100
1000
0001
0010
0001
,
0100
0010
1000
0001
0100
0010
0100
0001
1000
0010
1000
0100
0010
0001
1000
0100
,
1000
0001
0100
0010
1000
0001
0100
0010
0100
0001
1000
0100
0010
0001
1000
0001
,
0100
0010
1000
0001
0010
0100
1000
0001
0010
0001
0100
0010
1000
0001
0100
0010
,
0100
0001
1000
0100
0010
0001
1000
0100
1000
0001
0100
0010
1000
0001
0100
0010
,
0100
0001
1000
0100
1000
0001
0010
0001
0100
0010
1000
0001
0010
0100
1000
0100
,
0010
0001
1000
0100
1000
0001
0100
0010
1000
0001
0100
0010
0100
0001
1000
0100
,
0010
0001
1000
0010
0100
0001
0100
0010
1000
0001
0010
0100
1000
0001
0010
0001
,
0100
0010
1000
0001
0100
0010
0100
0001
1000
0100
0010
0001
1000
0100
1000
0001
,
0100
0010
1000
0001
0010
0100
1000
0001
0010
0001
0100
0010
1000
0001
0100
0010
,
0100
0001
1000
0001
0010
0100
1000
0100
0010
0001
1000
0100
1000
0001
0100
0010
,
1000
0001
0100
0010
0100
0001
1000
0100
1000
0001
0010
0001
0100
0010
1000
0001
,
0010
0100
1000
0001
0100
0010
1000
0001
0000
0000
0000
0000
0000
0000
0000
0000
,
0000
0000
0000
0000
,
0000
0000
0000
0000
,
0000
0000
0000
0000
,
0000
0000
0000
0000
,
0000
0000
0000
0000
,
0000
0000
0000
0000
,
0000
0000
0000
0000
,
0000
0000
0000
0000
,
0000
0000
0000
0000
0000
0000
0000
0000
1000
0100
0010
0001
1000
0001
0100
0010
0000
0000
0000
0000
0000
0000
0000
0000
1000
0000
0010
0000
1000
0000
0010
0000
,
0000
0000
0000
0000
0000
0000
0000
0000
0000
0000
0000
0000
0100
0001
1000
0100
,
1000
0010
0100
0001
1000
0100
1000
0001
0100
0010
1000
0001
0100
0001
0010
0100
,
1000
0001
0010
0001
0100
0010
1000
0001
0100
0010
0100
0001
1000
0100
0010
0001
,
1000
0100
1000
0001
0100
0010
1000
0001
0010
0001
0100
0010
1000
0001
0010
0100
,
1000
0100
0010
0000
0001
1000
0001
0100
0010
1000
0010
0000
0100
0001
1000
0001
,
0100
0010
1000
0001
0100
0001
0010
0100
1000
0100
0010
0001
1000
0100
1000
0001
,
0100
0010
1000
0001
0100
0001
0010
0100
1000
0010
0100
0000
0001
1000
0001
0100
,
0010
0000
0000
1000
0000
0000
0001
0000
0000
0100
0000
0000
0010
0000
0000
0100
0000
0000
0001
0000
0000
1000
0000
0000
0100
0000
0000
0000
0000
0000
0100
0000
0000
0000
0000
0000
0010
0000
0001
0000
0100
0000
0010
0000
1000
0000
0001
0000
,
0100
0010
0100
0001
1000
0100
0010
0001
1000
0100
1000
0010
0100
0001
1000
0100
1000
0001
0100
0010
0100
0001
1000
0100
,
0010
0000
0000
0001
0000
0000
1000
0100
1000
0010
0100
0001
1000
0100
1000
0001
0100
0010
0100
0001
1000
0100
0010
0001
,
1000
0100
1000
0001
0100
0010
1000
0000
0000
0000
0000
0000
0001
0000
0000
0100
0000
0000
0010
1000
0001
1000
0100
0010
,
0001
1000
0100
1000
0001
0100
0010
1000
0001
0100
0001
0010
0100
1000
0001
0010
0001
0100
0010
1000
0001
0100
0010
0100
,
0001
1000
0100
1000
0001
0100
0010
1000
0001
0010
0100
1000
0100
0010
0001
1000
0100
1000
0001
0100
0010
1000
0001
0100
,
0010
0100
0001
1000
0100
0010
0001
1000
0100
1000
0001
0100
0010
1000
0001
0010
0001
0100
0010
1000
0001
0100
0010
0100
,
0001
1000
0010
1000
0100
0010
0001
1000
0100
1000
0001
0100
0010
1000
0001
0100
0010
0100
0001
1000
0100
0010
0001
1000
,
0100
0000
1000
0000
0010
0000
0100
0000
0001
0000
1000
0000
0100
0000
0000
0010
0000
0000
0001
0000
0000
1000
0000
0000
0001
0000
0000
0100
0000
0000
0010
0000
0000
1000
0000
0000
0010
0000
0000
0000
0000
0000
0100
0000
0000
0001
0000
0000
,
0000
1000
0100
0010
0001
0000
0000
0000
1000
0010
0100
0001
1000
0100
1000
0001
,
0100
0000
0000
0010
0000
0000
0100
0000
0000
0001
0000
0000
1000
0000
0000
0100
0000
0000
0010
0000
0000
0001
0000
0000
0000
0000
0000
0000
0000
0000
0100
0000
0000
0000
0000
0000
0010
0000
1000
0000
0001
0000
1000
0000
0100
0000
0010
0000
,
0001
0000
1000
0000
0100
0000
1000
0000
0001
0000
0100
0000
0010
0000
1000
0000
0001
0000
0100
0000
0010
0000
0100
0000
0001
0000
1000
0000
0100
0000
0010
0000
0000
0000
0000
0000
0001
0000
0000
1000
0000
0000
0100
0000
0000
1000
0000
0000
,
0010
0100
0001
1000
0010
1000
0100
0010
0001
1000
0100
1000
0001
0100
0010
1000
,
0001
0100
0010
0100
0001
1000
0010
1000
0100
0010
0001
1000
0100
1000
0001
0100
,
0010
1000
0001
0100
0001
0010
0100
1000
0010
1000
0001
0100
0010
0100
0001
1000
,
0100
0010
0001
1000
0100
1000
0010
0100
0001
1000
0010
1000
0100
0000
0000
0000
,
0000
0000
0000
0000
0010
0001
1000
0001
0100
0010
1000
0001
0100
0001
0010
0100
,
1000
0001
1000
0010
0100
0001
1000
0010
1000
0100
0010
0001
1000
0100
0010
0001
,
1000
0100
1000
0001
0100
0010
1000
0001
0100
0010
0100
0001
1000
0010
1000
0100
,
0010
0001
0010
0100
1000
0001
0010
0001
0100
0010
1000
0010
0100
0001
1000
0100
,
0010
0001
1000
0010
1000
0000
0000
0000
0001
0000
0000
0000
0000
0000
0000
0100
,
0000
0000
0010
0000
,
1000
0000
0000
0000
0000
0000
0001
0000
0000
0000
1000
0000
0000
0100
0000
0010
,
0000
0001
0000
1000
0000
0000
0000
0000
0010
0000
0000
0000
0100
0000
0000
0000
,
0010
1000
0001
1000
,
0000
0100
0000
0010
,
0000
0000
0000
0000
0001
0000
0000
0000
0100
0010
1000
0001
0100
0010
0100
0001
,
1000
0100
0010
0001
1000
0100
1000
0010
0100
0000
0000
0000
0001
1000
0010
1000
,
0100
0010
0001
1000
0100
1000
0001
0100
0010
1000
0001
0100
0010
0100
0001
1000
,
0100
1000
0010
1000
0001
0100
0010
1000
0001
0010
0100
1000
0100
0010
0001
1000
,
0010
0000
0000
0000
0100
0001
1000
0010
1000
0100
0010
0001
1000
0001
0100
0010
,
1000
0001
0100
0010
0100
0001
1000
0100
0010
0001
1000
0010
0100
0001
0100
0010
,
1000
0001
0010
0001
0100
0010
1000
0001
0010
0100
1000
0001
0100
0000
0000
0000
,
0000
0010
0100
0001
,
1000
0010
1000
0001
0100
0010
1000
0001
0010
0100
1000
0000
0000
0000
0000
0000
,
0000
0000
0000
0000
0001
0100
0010
1000
0001
0100
0010
0100
0001
1000
0100
1000
,
0010
0100
0001
1000
0100
0010
0001
1000
0100
1000
0001
0100
0010
1000
0010
0100
,
0001
1000
0100
0010
0100
1000
0001
0010
0001
1000
0001
0100
0010
1000
0001
0100
,
0010
0100
0001
1000
0100
0010
0001
1000
0001
0010
0100
1000
0010
1000
0001
0100
,
0010
1000
0001
0100
0001
0010
0100
1000
0001
0010
0001
1000
0100
1000
0001
0100
,
0010
1000
0001
0100
0010
0100
0001
1000
0100
1000
0010
0100
0001
1000
0100
0010
,
0001
1000
0001
0100
0010
0100
0001
1000
0100
0010
0001
1000
0010
1000
0001
0010
,
0100
1000
0001
0100
0010
1000
0001
0010
0100
1000
0100
0010
0001
1000
0100
1000
,
0001
0100
0010
1000
0001
0100
0010
1000
0100
1000
0001
0010
0100
1000
0001
0010
,
0001
0100
0010
1000
0001
0100
0010
1000
0001
0100
0010
0100
0001
1000
0100
1000
,
0001
0100
0010
1000
0010
0100
0001
1000
0100
0010
0001
1000
0100
1000
0010
0100
,
0001
1000
0100
0010
0001
1000
0010
0100
0001
0100
0010
1000
0100
1000
0001
0100
,
0010
0000
0000
0000
1000
0001
0100
0010
1000
0001
0100
0010
0100
0001
1000
0100
,
0010
0001
1000
0100
1000
0001
0100
0010
1000
0001
0100
0001
0010
0100
1000
0100
,
0010
0001
1000
0100
1000
0001
0100
0010
1000
0001
0010
0100
1000
0001
0010
0001
,
0100
0010
1000
0001
0100
0010
1000
0100
0010
0001
1000
0001
0100
0010
1000
0001
,
0010
0001
0100
0010
1000
0001
0100
0001
0010
0100
1000
0001
0010
0001
0100
0010
,
1000
0001
0100
0010
0100
0001
1000
0100
0010
0001
1000
0100
1000
0010
0100
0001
,
1000
0100
1000
0001
0100
0010
1000
0001
0010
0100
1000
0001
0010
0001
0100
0010
,
1000
0001
0100
0010
1000
0001
0010
0001
0100
0010
1000
0001
1000
0100
0010
0001
,
1000
0000
0000
0000
0010
0100
0001
1000
0100
1000
0001
0100
0010
1000
0001
0100
,
0001
0010
0100
1000
0001
0010
0001
0100
0010
1000
0001
0100
0010
0100
0001
1000
,
0100
1000
0010
0100
0001
1000
0100
0010
0001
1000
0100
1000
0010
0100
0001
0000
,
0000
0000
0000
0000
1000
0100
0010
0001
1000
0100
1000
0001
0100
0010
1000
0001
,
0010
0000
0000
0000
0100
1000
0001
1000
0010
0100
0001
1000
0100
1000
0001
0100
,
0010
1000
0001
0100
0010
0100
0001
1000
0100
1000
0010
0100
0001
1000
0100
0010
,
0001
1000
0100
1000
0010
0100
0001
1000
0100
1000
0001
0010
0001
0100
0010
1000
,
0001
0100
0001
0010
0100
1000
0001
0010
0001
1000
0100
0010
0100
1000
0001
0010
,
0001
0100
0010
1000
0001
0100
0010
0100
0001
1000
0010
1000
0100
0010
0001
1000
,
0100
1000
0001
0100
0010
1000
0001
0010
0100
1000
0010
1000
0100
0010
0001
1000
,
0100
1000
0001
0100
0010
0100
0001
1000
0010
1000
0100
0010
0001
1000
0100
1000
,
0001
0100
0010
1000
0001
0100
0001
1000
0100
1000
0010
0100
0001
1000
0100
0010
,
0001
0000
0000
0000
1000
0010
0100
0001
1000
0010
1000
0100
0010
0001
1000
0100
,
1000
0001
0100
0010
0000
0000
0000
0000
0000
0000
0000
0000
0000
0000
0000
0000
,
0000
0000
0000
0000
1000
0100
0010
0001
1000
0001
0100
0010
1000
0001
0100
0001
,
0010
0100
1000
0001
0010
0001
0100
0010
1000
0001
0100
0010
0100
0001
1000
0010
,
1000
0100
0010
0001
1000
0100
1000
0001
0100
0010
1000
0001
0100
0010
0100
0001
,
1000
0100
0010
0001
1000
0100
1000
0001
0100
0010
1000
0001
0100
0001
0010
0100
,
1000
0001
0010
0001
0100
0010
1000
0001
0100
0010
0100
0001
1000
0100
0010
0001
,
1000
0100
1000
0001
0100
0010
1000
0001
0100
0001
1000
0100
0010
0001
1000
0100
,
1000
0010
0100
0001
1000
0100
1000
0010
0100
0001
1000
0010
1000
0001
0100
0010
,
1000
0001
0010
0001
1000
0100
1000
0001
1000
0100
0010
0001
1000
0100
1000
0001
,
0100
0010
1000
0001
0100
0010
0100
0001
1000
0100
1000
0001
0010
0001
1000
0100
,
0010
0001
1000
0100
1000
0001
0100
0010
1000
0001
0100
0001
0010
0100
1000
0001
,
0010
0001
0100
0010
1000
0001
0100
0010
0100
0001
1000
0100
1000
0010
0100
0001
,
1000
0100
1000
0001
1000
0100
0010
0001
1000
0010
0100
0001
1000
0001
0100
0010
,
1000
0001
0100
0001
0010
0100
1000
0001
0010
0001
1000
0100
0010
0001
1000
0100
,
1000
0010
0100
0001
1000
0100
1000
0001
0100
0010
1000
0001
0100
0001
0010
0100
,
1000
0001
0010
0001
0100
0010
1000
0001
0100
0010
0100
0001
1000
0010
1000
0100
,
0010
0001
1000
0100
1000
0001
0100
0010
0100
0001
1000
0100
1000
0001
0010
0100
,
1000
0001
0010
0001
0100
0010
1000
0001
0100
0001
1000
0100
0010
0001
1000
0100
,
1000
0010
0100
0001
1000
0100
1000
0001
0100
0010
1000
0001
0100
0001
1000
0100
,
0010
0001
1000
0100
1000
0001
0010
0001
0100
0010
1000
0001
0100
0001
1000
0100
,
0010
0001
1000
0100
1000
0010
0100
0001
1000
0100
1000
0001
0100
0010
1000
0001
,
0100
0010
0100
0001
1000
0100
0010
0001
1000
0100
1000
0001
0100
0010
1000
0001
,
0100
0001
1000
0100
0010
0001
1000
0100
1000
0010
0100
0001
0100
0010
1000
0001
,
1000
0100
0010
0001
0100
0000
0000
0000
0000
0000
0000
0000
0000
0000
0000
0000
,
0000
0000
0000
0000
,
0000
0010
1000
0001
,
1000
0000
0000
0000
0100
0000
0000
0000
0010
0001
1000
0100
1000
0001
0100
0010
,
1000
0001
0100
0010
0100
0001
1000
0100
0010
0001
1000
0100
1000
0010
0100
0001
,
1000
0100
1000
0001
0010
0001
0100
0010
1000
0001
0100
0010
0100
0001
1000
0100
,
0010
0001
1000
0100
1000
0010
0100
0001
1000
0100
1000
0001
0010
0001
0100
0010
,
1000
0001
0100
0010
0100
0001
1000
0100
0010
0100
1000
0001
0010
0001
0100
0010
,
1000
0001
0100
0010
1000
0001
0100
0001
1000
0100
0010
0001
0100
0001
1000
0100
,
0010
0001
1000
0100
1000
0001
0010
0100
1000
0001
0010
0001
0100
0010
1000
0001
,
0100
0010
1000
0010
0100
0001
1000
0100
0010
0001
1000
0001
0100
0010
1000
0010
,
0100
0001
1000
0100
0010
0001
1000
0010
0100
0001
1000
0001
0010
0100
1000
0001
,
0010
0001
0100
0010
1000
0001
0100
0010
0100
0001
1000
0100
0010
0001
1000
0100
,
1000
0001
0100
0010
1000
0001
0010
0001
0100
0010
1000
0001
1000
0100
0010
0001
,
0000
0000
0000
0000
1000
0010
0100
0001
1000
0100
1000
0001
0100
0010
1000
0001
,
0100
0001
1000
0100
0010
0001
1000
0010
0100
0001
0100
0010
1000
0001
0010
0100
,
1000
0001
1000
0100
0010
0001
1000
0100
1000
0010
0100
0001
1000
0100
0010
0001
,
1000
0000
0000
0000
0010
0100
0001
1000
0010
1000
0100
0010
0001
0100
0010
1000
,
0001
0000
0000
0000
0010
0100
1000
0001
1000
0010
0100
0001
1000
0010
1000
0100
,
0010
0001
1000
0100
1000
0001
0100
0010
1000
0001
0100
0001
0010
0100
1000
0001
,
0010
0001
0100
0010
1000
0001
0100
0010
0100
0001
1000
0100
0010
0001
1000
0010
,
1000
0001
0100
0010
0000
0000
0000
0000
0000
0000
0000
0000
0000
0000
0000
0000
,
0000
0000
0000
0000
1000
0100
0010
0001
1000
0100
1000
0001
0100
0010
1000
0001
,
0100
0010
0100
0001
1000
0100
0010
0001
1000
0100
1000
0010
0100
0001
1000
0100
,
1000
0001
0010
0001
0100
0010
1000
0001
0010
0001
0100
0010
1000
0001
0100
0001
,
1000
0100
0010
0001
1000
0100
1000
0010
0100
0001
1000
0010
1000
0100
0010
0001
,
0100
0000
0000
0000
0010
1000
0001
0100
0010
0100
0001
1000
0100
0010
0001
1000
,
0100
1000
0001
0100
0010
1000
0001
0100
0001
0010
0100
1000
0100
0010
0001
1000
,
0001
0100
0010
1000
0001
0100
0010
0100
0001
1000
0100
0010
0001
1000
0100
1000
,
0010
0100
0001
1000
0100
0010
0001
1000
0010
0100
0001
0100
0010
1000
0001
1000
,
0100
0010
0001
1000
0001
0100
0010
1000
0001
0010
0100
1000
0001
1000
0100
0010
,
0001
1000
0100
1000
0010
0100
0001
1000
0100
1000
0001
0100
0010
1000
0010
0100
,
0001
1000
0100
0010
0001
1000
0100
0010
0001
1000
0100
1000
0001
0100
0010
1000
,
0001
0100
0010
1000
0100
1000
0001
0010
0001
1000
0100
0010
0100
1000
0001
0100
,
0001
1000
0100
0010
0001
0100
0001
1000
0010
0100
0001
1000
0100
0000
0000
0000
,
0000
0000
0000
0000
0010
0001
1000
0100
1000
0001
0100
0010
1000
0001
0100
0010
,
0100
0001
1000
0100
0010
0001
1000
0100
1000
0001
0010
0001
0100
0010
1000
0001
,
0100
0010
0100
0001
1000
0100
0010
0001
1000
0100
1000
0001
0100
0010
1000
0001
,
0100
0010
0100
0001
1000
0100
0010
0001
1000
0001
0100
0010
1000
0001
0100
0010
,
0100
0001
1000
0100
0010
0001
0010
0100
1000
0001
1000
0100
0010
0001
1000
0010
,
1000
0001
0100
0010
1000
0010
0100
0001
1000
0100
0010
0001
0100
0001
1000
0010
,
0100
0001
1000
0010
0100
0001
0010
0100
1000
0001
0010
0001
0100
0010
1000
0001
,
0010
0001
0100
0010
1000
0001
0100
0010
0100
0001
1000
0100
0010
0001
1000
0100
,
1000
0001
0100
0010
1000
0001
0100
0010
0100
0001
1000
0100
0010
0001
1000
0100
,
0010
0001
1000
0100
1000
0001
0010
0100
1000
0001
0010
0100
1000
0001
0010
0001
,
0100
0010
1000
0001
0100
0010
0100
0001
1000
0010
1000
0001
0100
0001
1000
0001
,
0100
0010
0100
0001
1000
0100
0010
0001
1000
0100
1000
0010
0100
0001
1000
0100
,
0010
0001
1000
0010
0100
0001
1000
0100
1000
0001
0100
0010
0100
0001
1000
0100
,
0010
0001
1000
0010
0100
0001
1000
0100
1000
0001
0010
0100
1000
0001
0100
0010
,
1000
0001
0010
0001
0100
0010
1000
0001
0100
0001
1000
0100
0010
0001
1000
0100
,
1000
0010
0100
0001
1000
0100
1000
0001
0100
0010
1000
0001
0010
0100
1000
0001
,
0100
0001
0010
0100
1000
0001
0100
0010
1000
0010
0100
0001
1000
0100
0010
0001
,
1000
0001
0010
0100
1000
0001
0100
0001
1000
0100
0010
0001
0100
0010
1000
0001
,
0010
0100
1000
0001
0100
0001
1000
0100
0010
0001
0100
0010
1000
0001
0100
0001
,
1000
0100
0010
0001
1000
0100
1000
0010
0100
0001
1000
0010
1000
0001
0100
0010
,
0100
0001
1000
0100
0010
0001
1000
0100
1000
0001
0100
0010
1000
0001
0100
0001
,
0010
0100
1000
0001
0010
0001
0100
0010
1000
0010
0100
0001
1000
0100
0010
0001
,
0100
0010
1000
0010
0100
0001
1000
0001
0000
0010
0100
1000
0000
0010
0100
0001
,
0000
1000
0010
0100
0001
1000
0100
0010
0001
1000
0100
1000
0001
0100
0010
1000
,
0010
0100
0001
1000
0100
0010
0001
1000
0100
1000
0001
0100
0010
1000
0001
0100
,
0001
1000
0100
0010
0001
1000
0100
1000
0010
0100
0001
1000
0100
1000
0001
0010
,
0001
0100
0010
1000
0001
0100
0010
0100
0001
1000
0100
0010
0001
1000
0100
1000
,
0010
0100
0001
1000
0100
1000
0001
0010
0100
1000
0001
0010
0001
0100
0010
1000
,
0001
0100
0010
0100
0001
1000
0100
0010
0001
1000
0100
1000
0010
0100
0001
1000
,
0100
1000
0010
0100
0001
1000
0010
1000
0100
0010
0001
1000
0100
1000
0001
0100
,
0001
0010
0100
1000
0001
0010
0001
0100
0010
1000
0001
0100
0010
0100
0001
1000
,
0010
0000
0000
0000
1000
0100
1000
0001
0100
0010
1000
0001
0100
0001
0010
0100
,
1000
0001
0010
0001
0100
0010
1000
0001
0100
0010
0100
0001
1000
0100
0010
0001
,
1000
0100
1000
0010
0100
0001
1000
0100
1000
0001
0010
0001
0100
0010
1000
0001
,
0100
0010
0100
0001
1000
0100
0010
0001
0010
0100
1000
0001
1000
0100
0010
0001
,
1000
0010
0100
0001
1000
0100
0010
0001
0100
0001
1000
0100
1000
0010
0100
0001
,
1000
0001
0100
0010
0100
0001
1000
0100
0010
0001
1000
0100
1000
0001
0100
0010
,
1000
0001
0100
0001
0010
0100
1000
0001
0010
0001
0100
0010
1000
0001
0100
0010
,
1000
0000
0000
0000
,
0000
0000
0000
0M00
0001
1000
0010
0100
0001
1000
0100
1000
0010
0100
0001
1000
,
0100
1000
0001
0010
0001
0100
0010
1000
0001
0100
0001
1000
0100
0010
0001
1000
,
0010
0100
0001
1000
0100
0010
0001
1000
0100
1000
0010
0100
0001
1000
0100
1000
,
0001
0010
0001
0100
0010
1000
0001
0100
0010
0100
0001
1000
0100
0010
0001
1000
,
0100
1000
0001
0100
0010
1000
0001
0100
0001
1000
0100
0010
0001
1000
0100
1000
,
0010
0100
0001
1000
0010
0100
0001
1000
0100
1000
0001
0100
0010
1000
0010
0100
,
0001
0000
0000
0000
,
0000
0000
0000
0000
,
0000
0000
0000
0000
1000
0100
0010
0001
1000
0001
0100
0010
1000
0001
0100
0010
,
0100
0001
1000
0100
0010
0001
1000
0100
1000
0001
0010
0001
0100
0010
1000
0001
,
0100
0010
0100
0001
1000
0100
0010
0001
1000
0100
1000
0010
0100
0001
1000
0100
,
1000
0001
0010
0001
0100
0010
1000
0001
0100
0010
0100
0001
1000
0100
0010
0001
,
1000
0100
1000
0010
0100
0001
1000
0010
1000
0001
0100
0010
1000
0000
0000
0000
,
0000
0000
0000
0000
0001
0100
0010
1000
0001
0100
0010
1000
0100
1000
0001
0100
,
0010
1000
0010
0100
0001
1000
0100
0010
0100
1000
0001
0010
0001
1000
0001
0100
,
0010
1000
0001
0100
0010
0100
0001
1000
0100
0010
0001
1000
0001
0010
0100
1000
,
0010
1000
0001
0100
0010
1000
0001
0100
0001
0010
0100
1000
0001
0010
0001
1000
,
0100
1000
0001
0100
0010
1000
0001
0100
0010
0100
0001
1000
0100
1000
0010
0100
,
0001
1000
0100
0010
0001
1000
0001
0100
0010
0100
0001
1000
0100
0010
0001
1000
,
0010
1000
0001
0010
0100
1000
0001
0100
0010
1000
0001
0010
0100
1000
0100
0010
,
0001
1000
0100
1000
0001
0100
0010
1000
0001
0100
0010
1000
0100
1000
0001
0010
,
0100
1000
0001
0010
0001
0100
0010
1000
0001
0100
0010
1000
0010
0100
0001
1000
,
0100
0010
0001
1000
0100
1000
0001
0100
0010
1000
0010
0100
0001
1000
0100
0010
,
0100
1000
0001
0100
0010
1000
0001
0100
0010
1000
0001
0100
0010
0100
0001
1000
,
0100
0010
0001
1000
0001
0010
0100
1000
0010
1000
0001
0100
0010
1000
0001
0100
,
0001
0010
0100
1000
0001
0010
0001
1000
0100
1000
0001
0100
0010
1000
0001
0100
,
0010
0100
0001
1000
0100
1000
0010
0100
0001
1000
0100
0010
0001
1000
0001
0100
,
0010
0100
0001
1000
0100
0010
0001
1000
0010
1000
0001
0010
0100
1000
0001
0100
,
0010
1000
0001
0010
0100
1000
0100
0010
0001
1000
0100
1000
0001
0100
0010
1000
,
0001
0100
0010
1000
0100
1000
0001
0010
0100
1000
0001
0010
0001
0100
0010
1000
,
0001
0100
0010
1000
0001
0100
0010
0100
0001
1000
0100
1000
0001
0100
0010
1000
,
0010
0100
0001
1000
0100
0010
0001
1000
0100
1000
0010
0100
0001
1000
0100
0010
,
0001
1000
0010
0100
0001
0100
0010
1000
0100
0010
0001
1000
0001
0100
0010
1000
,
0001
0100
0010
0100
0001
1000
0010
1000
0100
0010
0001
1000
0100
0010
0001
1000
,
0100
1000
0001
0100
0010
1000
0001
0100
0010
0100
0001
1000
0010
0100
0001
1000
,
0100
1000
0001
0010
0100
1000
0001
1000
0010
0100
0001
1000
0100
0010
0001
1000
,
0100
1000
0001
0100
0010
1000
0001
0100
0001
0010
0100
1000
0010
1000
0001
0100
,
0010
0100
0001
1000
0100
0010
0001
1000
0100
1000
0001
0100
0001
1000
0010
0100
,
0001
1000
0100
1000
0001
0010
0001
1000
0100
0010
0001
1000
0100
1000
0001
0100
,
0010
0100
0001
1000
0100
0010
0100
1000
0001
0010
0001
1000
0100
1000
0001
0100
,
0001
1000
0010
0100
0001
0100
0010
1000
0001
0100
0010
0100
0001
1000
0100
1000
,
0001
0010
0001
1000
0100
0010
0001
1000
0100
1000
0001
0100
0010
0100
0001
1000
,
0100
0010
0001
1000
0100
1000
0010
0100
0001
1000
0100
1000
0001
0010
0001
1000
,
0100
0010
0001
1000
0100
1000
0001
0100
0010
1000
0001
0100
0010
0100
0001
1000
,
0100
0010
0001
1000
0100
1000
0010
0100
0001
1000
0100
1000
0001
0010
0001
1000
,
0100
0010
0001
1000
0100
1000
0001
0100
0010
0100
0001
1000
0010
1000
0100
0010
,
0001
1000
0001
0100
0010
1000
0001
0100
0010
1000
0010
0100
0001
1000
0100
0010
,
0001
1000
0100
1000
0001
0100
0010
1000
0001
0100
0010
0100
0001
1000
0100
0010
,
0001
1000
0001
0010
0100
1000
0010
0100
0001
1000
0100
0010
0001
1000
0100
1000
,
0001
0100
0010
1000
0010
0100
0001
1000
0100
0010
0001
1000
0100
1000
0001
0010
,
0100
1000
0001
0010
0001
1000
0100
0010
0001
1000
0010
0100
0001
0100
0010
1000
,
0001
0100
0010
1000
0010
0100
0001
1000
0100
0010
0001
0010
0100
1000
0001
1000
,
0010
0100
0001
1000
0010
1000
0001
0100
0001
1000
0100
0010
0001
1000
0100
1000
,
0001
0100
0010
1000
0100
0010
0001
1000
0100
1000
0001
0010
0001
0100
0010
1000
,
0001
0100
0010
0100
0001
1000
0100
0010
0001
1000
0100
1000
0001
0010
0001
0100
,
0010
1000
0001
0100
0010
0100
0001
1000
0100
0010
0001
1000
0100
1000
0001
0100
,
0010
1000
0001
0100
0001
1000
0100
0010
0001
1000
0100
1000
0010
0100
0001
1000
,
0100
0010
0001
1000
0100
1000
0001
0010
0001
0100
0010
1000
0001
0100
0010
0100
,
0001
1000
0100
0010
0001
1000
0100
1000
0010
0100
0001
1000
0100
1000
0001
0100
,
0010
1000
0001
0100
0001
1000
0100
0010
0001
1000
0010
0100
0001
1000
0100
0010
,
0001
1000
0010
1000
0001
0100
0010
1000
0001
0100
0010
1000
0001
0100
0001
1000
,
0100
0010
0100
1000
0001
0010
0001
1000
0100
0010
0001
1000
0100
1000
0001
0100
,
0010
1000
0001
0100
0010
0100
0001
1000
0100
0010
0001
1000
0100
0010
0001
1000
,
0001
0010
0100
1000
0001
1000
0010
0100
0001
1000
0010
0100
0001
0100
0010
1000
,
0001
0000
0000
0000
,
0000
0000
0000
0000
,
0000
0000
00M0
0000
,
0000
0M00
0000
0000
0000
0000
0000
0000
,
0000
0000
0000
0000
1000
0100
0010
0001
1000
0100
0010
0001
1000
0100
0010
0001
,
1000
0100
0010
0001
1000
0100
0010
0001
1000
0100
0010
0001
1000
0100
0010
0001
,
1000
0100
0010
0001
1000
0100
0010
0001
1000
0100
0010
0001
1000
0100
0010
0001
,
1000
0100
0010
0001
1000
0100
0010
0001
1000
0100
0010
0001
1000
0100
0010
0001
,
1000
0100
0010
0001
1000
0100
0010
0001
1000
0100
0010
0001
1000
0100
0010
0001
,
1000
0100
0010
0001
1000
0100
0010
0001
1000
0100
0010
0001
1000
0100
0010
0001
,
1000
0100
0010
0001
1000
0100
0010
0001
1000
0100
0010
0001
1000
0100
0010
0001
,
1000
0100
0010
0001
1000
0100
0010
0001
1000
0100
0010
0001
1000
0100
0010
0001
,
1000
0100
0010
0001
1000
0100
0010
0001
1000
0100
0010
0001
1000
0100
0010
0001
,
1000
0100
0010
0001
1000
0100
0010
0001
1000
0100
0010
0001
1000
0100
0010
0001
,
1000
0100
0010
0001
1000
0100
0010
0001
1000
0100
0010
0001
1000
0100
0010
0001
,
1000
0100
0010
0001
1000
0100
0010
0001
1000
0100
0010
0001
1000
0100
0010
0001
,
1000
0100
0010
0001
1000
0100
0010
0001
1000
0100
0010
0001
1000
0100
0010
0001
,
1000
0100
0010
0001
1000
0100
0010
0001
1000
0100
0010
0001
1000
0100
0010
0001
,
1000
0100
0010
0001
1000
0100
0010
0001
1000
0100
0010
0001
1000
0100
0010
0001
,
1000
0100
0010
0001
1000
0100
0010
0001
1000
0100
0010
0001
1000
0100
0010
0001
,
1000
0100
0010
0001
1000
0100
0010
0001
1000
0100
0010
0001
1000
0100
0010
0001
,
1000
0100
0010
0001
1000
0100
0010
0001
1000
0100
0010
0001
1000
0100
0010
0001
,
1000
0100
0010
0001
1000
0100
0010
0001
1000
0100
0010
0001
1000
0100
0010
0001
,
1000
0100
0010
0001
1000
0100
0010
0001
1000
0100
0010
0001
1000
0100
0010
0001
,
1000
0100
0010
0001
1000
0100
0010
0001
1000
0100
0010
0001
1000
0100
0010
0001
,
1000
0100
0010
0001
1000
0100
0010
0001
1000
0100
0010
0001
1000
0100
0010
0001
,
1000
0100
0010
0001
1000
0100
0010
0001
1000
0100
0010
0001
1000
0100
0010
0001
,
1000
0100
0010
0001
1000
0100
0010
0001
1000
0100
0010
0001
1000
0100
0010
0001
,
1000
0100
0010
0001
1000
0100
0010
0001
1000
0100
0010
0001
1000
0100
0010
0001
,
1000
0100
0010
0001
1000
0100
0010
0001
1000
0100
0010
0001
1000
0100
0010
0001
,
1000
0100
0010
0001
1000
0100
0010
0001
1000
0100
0010
0001
1000
0100
0010
0001
,
1000
0100
0010
0001
1000
0100
0010
0001
1000
0100
0010
0001
1000
0100
0010
0001
,
1000
0100
0010
0001
1000
0100
0010
0001
1000
0100
0010
0001
1000
0100
0010
0001
,
1000
0100
0010
0001
1000
0100
0010
0001
1000
0100
0010
0001
1000
0100
0010
0001
,
1000
0100
0010
0001
1000
0100
0010
0001
1000
0100
0010
0001
1000
0100
0010
0001
,
1000
0100
0010
0001
1000
0100
0010
0001
1000
0100
0010
0001
1000
0100
0010
0001
,
1000
0100
0010
0001
1000
0100
0010
0001
1000
0100
0010
0001
1000
0100
0010
0001
,
1000
0100
0010
0001
1000
0100
0010
0001
1000
0100
0010
0001
1000
0100
0010
0001
,
1000
0100
0010
0001
1000
0100
0010
0001
1000
0100
0010
0001
1000
0100
0010
0001
,
1000
0100
0010
0001
1000
0100
0010
0001
1000
0100
0010
0001
1000
0100
0010
0001
,
1000
0100
0010
0001
1000
0100
0010
0001
1000
0100
0010
0001
1000
0100
0010
0001
,
1000
0100
0010
0001
1000
0100
0010
0001
1000
0100
0010
0001
1000
0100
0010
0001
,
1000
0100
0010
0001
1000
0100
0010
0001
1000
0100
0010
0001
1000
0100
0010
0001
,
1000
0100
0010
0001
1000
0100
0010
0001
1000
0100
0010
0001
1000
0100
0010
0001
,
1000
0100
0010
0001
1000
0100
0010
0001
1000
0100
0010
0001
1000
0100
0010
0001
,
1000
0100
0010
0001
1000
0100
0010
0001
1000
0100
0010
0001
1000
0100
0010
0001
,
1000
0100
0010
0001
1000
0100
0010
0001
1000
0100
0010
0001
1000
0100
0010
0001
,
1000
0100
0010
0001
1000
0100
0010
0001
1000
0100
0010
0001
1000
0100
0010
0001
,
1000
0100
0010
0001
1000
0100
0010
0001
1000
0100
0010
0001
1000
0100
0010
0001
,
1000
0100
0010
0001
1000
0100
0010
0001
1000
0100
0010
0001
1000
0100
0010
0001
,
1000
0100
0010
0001
1000
0100
0010
0001
1000
0100
0010
0001
1000
0100
0010
0001
,
1000
0100
0010
0001
1000
0100
0010
0001
1000
0100
0010
0001
1000
0100
0010
0001
,
1000
0100
0010
0001
1000
0100
0010
0001
1000
0100
0010
0001
1000
0100
0010
0001
,
1000
0100
0010
0001
1000
0100
0010
0001
1000
0100
0010
0001
1000
0100
0010
0001
,
1000
0100
0010
0001
1000
0100
0010
0001
1000
0100
0010
0001
1000
0100
0010
0001
,
1000
0000
0000
0000
,
0000
0000
0000
0000
0001
0100
0010
1000
0001
0100
0010
1000
0001
0100
0010
1000
,
0001
0100
0010
1000
0001
0100
0010
1000
0001
0100
0010
1000
0001
0100
0010
1000
,
0001
0100
0010
1000
0001
0100
0010
1000
0001
0100
0010
1000
0001
0100
0010
1000
,
0001
0100
0010
1000
0001
0100
0010
1000
0001
0100
0010
1000
0001
0100
0010
1000
,
0001
0100
0010
1000
0001
0100
0010
1000
0001
0100
0010
1000
0001
0100
0010
1000
,
0001
0100
0010
1000
0001
0100
0010
1000
0001
0100
0010
1000
0001
0100
0010
1000
,
0001
0100
0010
1000
0001
0100
0010
1000
0001
0100
0010
1000
0001
0100
0010
1000
,
0001
0100
0010
1000
0001
0100
0010
1000
0001
0100
0010
1000
0001
0100
0010
1000
,
0001
0100
0010
1000
0001
0100
0010
1000
0001
0100
0010
1000
0001
0100
0010
1000
,
0001
0100
0010
1000
0001
0100
0010
1000
0001
0100
0010
1000
0001
0100
0010
1000
,
0001
0100
0010
1000
0001
0100
0010
1000
0001
0100
0010
1000
0001
0100
0010
1000
,
0001
0100
0010
1000
0001
0100
0010
1000
0001
0100
0010
1000
0001
0100
0010
1000
,
0001
0100
0010
1000
0001
0100
0010
1000
0001
0100
0010
1000
0001
0100
0010
1000
,
0001
0100
0010
1000
0001
0100
0010
1000
0001
0100
0010
1000
0001
0100
0010
1000
,
0001
0100
0010
1000
0001
0100
0010
1000
0001
0100
0010
1000
0001
0100
0010
1000
,
0001
0100
0010
1000
0001
0100
0010
1000
0001
0100
0010
1000
0001
0100
0010
1000
,
0001
0100
0010
1000
0001
0100
0010
1000
0001
0100
0010
1000
0001
0100
0010
1000
,
0001
0100
0010
1000
0001
0100
0010
1000
0001
0100
0010
1000
0001
0100
0010
1000
,
0001
0100
0010
1000
0001
0100
0010
1000
0001
0100
0010
1000
0001
0100
0010
1000
,
0001
0100
0010
1000
0001
0100
0010
1000
0001
0100
0010
1000
0001
0100
0010
1000
,
0001
0100
0010
1000
0001
0100
0010
1000
0001
0100
0010
1000
0001
0100
0010
1000
,
0001
0100
0010
1000
0001
0100
0010
1000
0001
0100
0010
1000
0001
0100
0010
1000
,
0001
0100
0010
1000
0001
0100
0010
1000
0001
0100
0010
1000
0001
0100
0010
1000
,
0001
0100
0010
1000
0001
0100
0010
1000
0001
0100
0010
1000
0001
0100
0010
1000
,
0001
0100
0010
1000
0001
0100
0010
1000
0001
0100
0010
1000
0001
0100
0010
1000
,
0001
0100
0010
1000
0001
0100
0010
1000
0001
0100
0010
1000
0001
0100
0010
1000
,
0001
0100
0010
1000
0001
0100
0010
1000
0001
0100
0010
1000
0001
0100
0010
1000
,
0001
0100
0010
1000
0001
0100
0010
1000
0001
0100
0010
1000
0001
0100
0010
1000
,
0001
0100
0010
1000
0001
0100
0010
1000
0001
0100
0010
1000
0001
0100
0010
1000
,
0001
0100
0010
1000
0001
0100
0010
1000
0001
0100
0010
1000
0001
0100
0010
1000
,
0001
0100
0010
1000
0001
0100
0010
1000
0001
0100
0010
1000
0001
0100
0010
1000
,
0001
0100
0010
1000
0001
0100
0010
1000
0001
0100
0010
1000
0001
0100
0010
1000
,
0001
0100
0010
1000
0001
0100
0010
1000
0001
0100
0010
1000
0001
0100
0010
1000
,
0001
0100
0010
1000
0001
0100
0010
1000
0001
0100
0010
1000
0001
0100
0010
1000
,
0001
0100
0010
1000
0001
0100
0010
1000
0001
0100
0010
1000
0001
0100
0010
1000
,
0001
0100
0010
1000
0001
0100
0010
1000
0001
0100
0010
1000
0001
0100
0010
1000
,
0001
0100
0010
1000
0001
0100
0010
1000
0001
0100
0010
1000
0001
0100
0010
1000
,
0001
0100
0010
1000
0001
0100
0010
1000
0001
0100
0010
1000
0001
0100
0010
1000
,
0001
0100
0010
1000
0001
0100
0010
1000
0001
0100
0010
1000
0001
0100
0010
1000
,
0001
0100
0010
1000
0001
0100
0010
1000
0001
0100
0010
1000
0001
0100
0010
1000
,
0001
0100
0010
1000
0001
0100
0010
1000
0001
0100
0010
1000
0001
0100
0010
1000
,
0001
0100
0010
1000
0001
0100
0010
1000
0001
0100
0010
1000
0001
0100
0010
1000
,
0001
0100
0010
1000
0001
0100
0010
1000
0001
0100
0010
1000
0001
0100
0010
1000
,
0001
0100
0010
1000
0001
0100
0010
1000
0001
0100
0010
1000
0001
0100
0010
1000
,
0001
0100
0010
1000
0001
0100
0010
1000
0001
0100
0010
1000
0001
0100
0010
1000
,
0001
0100
0010
1000
0001
0000
0010
0000
0100
0000
1000
0000
0010
0000
0100
0000
,
0001
0000
1000
0000
0100
0000
0010
0000
0001
0000
1000
0010
0100
0000
0001
1000
,
0100
0010
0001
1000
0100
0010
0001
1000
0010
0100
0001
1000
0100
1000
0010
0100
,
0001
1000
0100
0010
0001
1000
0010
1000
0001
0100
0010
1000
0001
0100
0001
1000
,
0100
0010
0001
1000
0100
1000
0010
0100
0001
1000
0100
0010
0001
1000
0100
1000
,
0001
0100
0010
1000
0001
0010
0100
1000
0001
0010
0001
1000
0100
0010
0001
1000
,
0100
1000
0001
0100
0010
1000
0001
0100
0010
0100
0001
1000
0100
0010
0001
1000
,
0100
1000
0010
0100
0001
1000
0100
0010
0001
1000
0100
1000
0001
0100
0010
0100
,
0001
1000
0010
1000
0100
0010
0001
1000
0100
1000
0001
0100
0010
1000
0010
0100
,
0001
1000
0100
0010
0001
1000
0100
1000
0001
0100
0010
1000
0001
0010
0100
1000
,
0001
0010
0001
0100
0010
1000
0001
1000
0100
0010
0001
1000
0100
1000
0001
0100
,
0010
1000
0010
0100
0001
1000
0100
0010
0001
1000
0100
1000
0001
0100
0010
1000
,
0001
0100
0001
1000
0100
0010
0001
0100
0001
0000
0000
0000
0000
0000
0000
0000
,
0000
0000
0000
0000
,
0000
0000
0000
0000
,
0000
0000
0000
0000
,
0000
0000
0000
0000
,
0000
0000
0000
0000
,
0000
0000
0000
0000
,
0000
0000
0000
0000
,
0000
0000
0000
0000
0000
0000
0001
0000
0100
0010
1000
0001
0010
0100
1000
0001
,
0000
0000
0000
0000
0000
0000
0000
0000
0100
0010
1000
0001
0100
0001
1000
0100
,
0010
0001
1000
0100
1000
0001
0100
0010
1000
0001
0100
0001
0010
0100
1000
0001
,
0010
0001
0100
0010
1000
0001
0100
0010
0100
0001
1000
0100
0010
0001
1000
0100
,
1000
0010
0100
0001
1000
0010
1000
0100
0010
0001
1000
0100
1000
0001
0100
0010
,
1000
0001
0100
0010
0100
0001
1000
0100
0010
0001
1000
0100
1000
0001
0010
0001
,
0100
0010
1000
0001
0100
0010
0100
0001
1000
0100
0010
0001
1000
0100
1000
0010
,
0100
0001
1000
0001
0010
0000
0000
0000
0100
0000
0000
0000
0000
0000
0000
0000
,
1000
0010
1000
0001
0100
0010
1000
0001
0000
0000
0000
0000
0000
0000
0000
0000
,
0010
0000
0100
0000
,
0000
0000
0000
0000
,
0000
0000
0000
0000
,
0000
0000
1000
0001
,
0000
0000
0000
0000
0000
0000
0000
0000
0000
0000
0000
0000
0000
0000
0000
0000
0000
0000
0000
0000
0000
0000
0000
0000
0000
0000
0000
0000
0000
0000
0000
0000
0000
0000
0000
0000
0000
0000
0000
0000
0000
0000
0000
0000
0000
0000
0000
0000
0400
0300
0000
0000
0000
0000
0000
0000
0000
0000
0000
0000
0000
0000
0000
0000
0000
0000
0000
0000
0000
0000
0000
0000
0000
0000
0000
0000
0000
0000
0000
0000
0000
0000
0000
0000
0000
0000
0000
0000
0000
0000
0000
0000
0000
0000
0000
0000
0010
0000
0000
0000
0000
0000
0000
0000
0000
0000
0000
0000
0100
0000
0000
0000
0000
0000
0000
0000
0000
0000
0000
0000
0001
0000
0000
0000
0000
0000
0000
0000
0000
0000
0000
0000
1000
0000
0000
0000
0000
0000
0000
0000
0000
0000
0000
0000
0010
0000
0000
0000
0000
0000
0000
0000
0000
0000
0000
0000
0000
0000
0000
0000
0000
0000
0000
0000
0000
0000
0000
0000
1000
0000
0000
0000
0000
0000
0000
0000
0000
0000
0000
0000
0100
0000
0000
0000
0000
0000
0000
0000
0000
0000
0000
0000
,
0010
0001
1000
0010
0100
0001
0100
0010
1000
0001
1000
0100
0010
0001
1000
0000
,
0010
0100
0001
1000
0010
1000
0100
0010
0001
1000
0100
1000
0001
0100
0010
0000
,
1000
0001
0000
0000
0010
0100
1000
0001
1000
0010
0100
0000
0000
0001
1000
0001
,
0010
0000
0000
0100
0000
0000
0000
0000
,
0000
1000
0000
0000
,
0000
0000
0010
0000
,
0100
0000
0001
0000
,
1000
0000
0000
0000
,
0100
0000
0000
0000
0000
0000
0000
0000
0010
0000
0001
1000
0001
0100
0010
1000
,
0001
0000
0000
0000
0010
0100
0000
0000
1000
0010
0100
0001
1000
0010
1000
0100
,
0010
0001
1000
0100
1000
0001
0100
0010
0100
0001
1000
0100
0010
0001
1000
0100
,
1000
0001
0010
0001
0100
0010
1000
0001
0100
0010
0100
0001
1000
0100
0010
0001
,
1000
0100
1000
0001
0100
0010
0100
0001
1000
0100
0010
0001
1000
0100
1000
0001
,
0100
0010
1000
0001
0010
0000
0100
1000
0001
0100
0010
0100
0001
1000
0100
0010
,
0001
1000
0100
1000
0010
0000
0000
0000
0100
0001
1000
0001
0010
0100
1000
0001
,
0400
0000
0000
0000
0000
0000
0000
0000
0301
1000
0010
0100
0001
1000
0010
1000
,
0100
0010
0001
1000
0100
1000
0001
0100
0010
1000
0001
0100
0010
1000
0010
0100
,
0001
0000
0000
0000
,
1000
0100
0010
0001
1000
0100
0010
0001
1000
0100
0010
0001
1000
0100
0010
0001
,
1000
0100
0010
0001
1000
0100
0010
0001
1000
0100
0010
0001
1000
0100
0010
0001
,
1000
0100
0010
0001
1000
0100
0010
0001
1000
0100
0010
0001
1000
0100
0010
0001
,
1000
0100
0010
0001
1000
0100
0010
0001
1000
0100
0010
0001
1000
0100
0010
0001
,
1000
0100
0010
0001
1000
0100
0010
0001
1000
0100
0010
0001
1000
0100
0010
0001
,
1000
0100
0010
0001
1000
0100
0010
0001
1000
0100
0010
0001
1000
0100
0010
0001
,
1000
0100
0010
0001
1000
0100
0010
0001
1000
0100
0010
0001
1000
0100
0010
0001
,
1000
0000
0000
0000
0000
0000
0000
0000
0000
0000
0000
0000
0001
0010
0100
1000
,
0001
0000
0000
0000
1000
0100
0010
0001
1000
0100
0010
0001
1000
0100
0010
0001
,
1000
0100
0010
0001
1000
0100
0010
0001
1000
0100
0010
0001
1000
0100
0010
0001
,
1000
0100
0010
0001
1000
0100
0010
0001
1000
0100
0010
0001
1000
0100
0010
0001
,
1000
0100
0010
0001
1000
0100
0010
0001
1000
0100
0010
0001
1000
0100
0010
0001
,
1000
0100
0010
0001
1000
0100
0010
0001
1000
0100
0010
0001
1000
0100
0010
0001
,
1000
0100
0010
0001
1000
0100
0010
0001
1000
0100
0010
0001
1000
0100
0010
0001
,
1000
0100
0010
0001
1000
0100
0010
0001
1000
0100
0010
0001
1000
0100
0010
0001
,
1000
0100
0010
0001
1000
0100
0010
0001
1000
0100
0010
0001
1000
0100
0010
0001
,
1000
0100
0010
0001
1000
0100
0010
0001
1000
0100
0010
0001
1000
0100
0010
0001
,
1000
0000
0000
0000
,
0000
0000
0000
0000
0001
0100
0010
1000
0001
0100
0010
0100
0001
1000
0100
0010
,
0001
1000
0100
1000
0010
0100
0001
1000
0010
1000
0001
0100
0010
0100
0001
1000
,
0100
0010
0001
0100
0010
1000
0010
0100
0001
0100
0010
1000
0001
0010
0100
1000
,
0001
0010
0100
1000
0001
0010
0100
1000
0001
0010
0100
1000
0001
0010
0100
1000
,
0001
0010
0100
1000
0001
0010
0100
1000
0001
0010
0100
1000
0001
0010
0100
1000
,
0001
0010
0100
1000
0001
0010
0100
1000
0001
0010
0100
1000
0001
0010
0100
1000
,
0001
0010
0100
1000
0001
0010
0100
1000
0001
0010
0100
1000
0001
0100
0010
1000
,
0001
0100
0010
0100
0001
1000
0100
0010
0001
1000
0100
1000
0001
0100
0010
1000
,
0001
0100
0001
1000
0100
0010
0001
1000
0100
1000
0010
0100
0001
1000
0010
1000
,
0001
0100
0010
1000
0001
0000
0000
0000
0000
0000
0000
0000
1000
0100
0010
0000
,
0001
0000
0000
0000
0400
0000
0000
0000
0000
0000
0000
0000
0301
0010
0100
1000
,
0001
0010
0100
1000
0001
0010
0100
1000
0001
0010
0100
1000
0001
0010
0100
1000
,
0001
0010
0100
1000
0001
0010
0100
1000
0001
0010
0100
1000
0001
0010
0100
1000
,
0001
0010
0100
1000
0001
0010
0100
1000
0001
0010
0100
1000
0001
0010
0100
1000
,
0001
0010
0100
1000
0001
0010
0100
1000
0001
0010
0100
1000
0001
0010
0100
1000
,
0001
0010
0100
1000
0001
0010
0100
1000
0001
0010
0100
1000
0001
0010
0100
1000
,
0001
0010
0100
1000
0001
0010
0100
1000
0001
0010
0100
1000
0001
0010
0100
1000
,
0001
0010
0100
1000
0001
0010
0100
1000
0001
0010
0100
1000
0001
0010
0100
1000
,
0001
0010
0100
1000
0001
0010
0100
1000
0001
0010
0100
1000
0001
0010
0100
1000
,
0001
0010
0100
1000
0001
0010
0100
1000
0001
0010
0100
1000
0001
0010
0100
1000
,
0001
0010
0100
1000
0001
0010
0100
1000
0001
0010
0100
1000
0001
0010
0100
1000
,
0001
0010
0100
1000
0001
0010
0100
1000
0001
0000
0000
0000
0000
0000
0000
0000
,
0000
0000
0000
0000
0000
0000
0000
0000
0000
0000
0000
0000
1000
0100
0010
0001
,
1000
0100
0010
0001
1000
0100
0010
0001
1000
0100
0010
0001
1000
0100
0010
0001
,
1000
0100
0010
0001
1000
0100
0010
0001
1000
0100
0010
0001
1000
0100
0010
0001
,
1000
0100
0010
0001
1000
0100
0010
0001
1000
0100
0010
0001
1000
0010
0100
0001
,
1000
0010
1000
0100
0010
0001
1000
0100
1000
0010
0100
0001
1000
0100
0010
0001
,
1000
0100
0010
0001
1000
0100
0010
0001
1000
0100
0010
0001
1000
0100
0010
0001
,
1000
0100
0010
0001
1000
0100
0010
0001
1000
0100
0010
0001
1000
0100
0010
0001
,
1000
0100
0010
0001
1000
0100
0010
0001
1000
0100
0010
0001
1000
0100
0010
0001
,
1000
0100
0010
0001
1000
0100
0010
0001
1000
0000
0000
0000
0000
0000
0000
0000
,
0000
0000
0000
0000
0001
0100
0010
1000
0001
0100
0001
1000
0100
0010
0001
1000
,
0001
0100
0010
1000
0001
0010
0100
1000
0001
0010
0100
1000
0001
0010
0100
1000
,
0001
0010
0100
1000
0001
0010
0100
1000
0001
0010
0100
1000
0001
0010
0100
1000
,
0001
0010
0100
1000
0001
0010
0100
1000
0001
0100
0010
1000
0001
0010
0100
1000
,
0001
0010
0100
1000
0001
0010
0100
1000
0001
0010
0100
1000
0001
0010
0100
1000
,
0001
0010
0100
1000
0001
0010
0100
1000
0001
0010
0100
1000
0001
0010
0100
1000
,
0001
0010
0100
1000
0001
0010
0100
1000
0001
0010
0100
1000
0001
0010
0100
1000
,
0001
0010
0100
1000
0001
0010
0100
1000
0001
0010
0100
1000
0001
0010
0100
1000
,
0001
0010
0100
1000
0001
0010
0100
1000
0001
0010
0100
1000
0001
0010
0100
1000
,
0001
0010
0100
1000
0001
0010
0100
1000
0001
0010
0100
1000
0001
0010
0100
1000
,
0001
0010
0100
1000
0001
0010
0100
1000
0001
0010
0100
1000
0001
0010
0100
1000
,
0001
0010
0100
1000
0001
0010
0100
1000
0001
0010
0100
1000
0001
0010
0100
1000
,
0001
0010
0100
1000
0001
0010
0100
1000
0001
0010
0100
1000
0001
0010
0100
1000
,
0001
0010
0100
1000
0001
0010
0100
1000
0001
0010
0100
1000
0001
0010
0100
1000
,
0001
0010
0100
1000
0001
0010
0100
1000
0001
0010
0100
1000
0001
0010
0100
1000
,
0001
0010
0100
1000
0001
0010
0100
1000
0001
0000
0000
0000
0000
0000
0000
0000
,
0000
0000
0000
0000
0000
0000
0000
0000
0000
0000
0000
0000
1000
0010
0100
0001
,
1000
0010
0100
0001
1000
0010
0100
0001
1000
0010
0100
0001
1000
0010
0100
0001
,
1000
0010
0100
0001
1000
0010
0100
0001
1000
0010
0100
0001
1000
0010
0100
0001
,
1000
0010
0100
0001
1000
0010
0100
0001
1000
0010
0100
0001
1000
0010
0100
0001
,
1000
0010
0100
0001
1000
0010
0100
0001
1000
0010
0100
0001
1000
0010
0100
0001
,
1000
0010
0100
0001
1000
0010
0100
0001
1000
0010
0100
0001
1000
0010
0100
0001
,
1000
0010
0100
0001
1000
0010
0100
0001
1000
0010
0100
0001
1000
0010
0100
0001
,
1000
0010
0100
0001
1000
0010
0100
0001
1000
0010
0100
0001
1000
0010
0100
0001
,
1000
0010
0100
0001
1000
0010
0100
0001
1000
0010
0100
0001
1000
0010
0100
0001
,
1000
0010
0100
0001
1000
0010
0100
0001
1000
0010
0100
0001
1000
0010
0100
0001
,
1000
0010
0100
0001
1000
0010
0100
0001
1000
0010
0100
0001
1000
0010
0100
0001
,
1000
0010
0100
0001
1000
0000
0000
0000
0010
0100
0001
1000
0010
1000
0100
0010
,
0001
1000
0100
1000
0001
0100
0010
1000
0001
0100
0001
1000
0100
0010
0001
1000
,
0100
1000
0001
0100
0010
1000
0001
0100
0010
0100
0001
1000
0100
1000
0001
0010
,
0100
1000
0001
1000
0010
0100
0001
1000
0100
0010
0001
1000
0100
1000
0010
0100
,
0001
1000
0100
1000
0010
0100
0001
1000
0100
0010
0001
1000
0001
0100
0010
1000
,
0001
0100
0010
1000
0001
0100
0001
0010
0100
1000
0001
0010
0001
1000
0100
0010
,
0001
1000
0100
1000
0001
0100
0010
0100
0001
1000
0100
0010
0001
1000
0010
0100
,
0010
1000
0001
0100
0001
1000
0100
0010
0001
1000
0100
1000
0010
0100
0001
1000
,
0100
1000
0001
0100
0010
0100
0001
1000
0010
0100
0010
1000
0001
0000
0000
0000
,
1000
0100
0010
0001
1000
0100
0010
0001
1000
0100
0010
0001
1000
0100
0010
0001
,
1000
0100
0010
0001
1000
0100
0010
0001
1000
0100
0010
0001
1000
0000
0000
0000
,
0001
0010
0100
1000
0001
0010
0100
1000
0001
0010
0100
1000
0001
0010
0100
1000
,
0001
0000
0000
0000
0100
0000
0000
0000
0010
0000
1000
0001
0100
0010
1000
0000
,
0001
0010
0100
1000
0001
0010
0100
1000
0001
0010
0100
1000
0001
0010
0100
1000
,
0001
0010
0100
1000
0001
0010
0100
1000
0001
0010
0100
1000
0001
0010
0100
1000
,
0001
0010
0100
1000
0001
0010
0100
1000
0001
0010
0100
1000
0001
0010
0100
1000
,
0001
0010
0100
1000
0001
0010
0100
1000
0001
0010
0100
1000
0001
0010
0100
1000
,
0001
0010
0100
1000
0001
0010
0100
1000
0001
0010
0100
1000
0001
0010
0100
1000
,
0001
0010
0100
1000
0001
0010
0100
1000
0001
0010
0100
1000
0001
0010
0100
1000
,
0001
0010
0100
1000
0001
0010
0100
1000
0001
0010
0100
1000
0001
0010
0100
1000
,
0001
0010
0100
1000
0001
0010
0100
1000
0001
0010
0100
1000
0001
0010
0100
1000
,
0001
0100
0010
1000
0001
0100
0001
1000
0100
0010
0001
1000
0100
1000
0001
0100
,
0010
1000
0001
0100
0001
1000
0100
0010
0001
0000
0000
0000
0000
0000
0000
0000
,
1000
0010
0100
0001
1000
0010
0100
0001
1000
0010
0100
0001
1000
0010
0100
0001
,
1000
0010
0100
0001
1000
0010
0100
0001
1000
0010
0100
0001
1000
0010
0100
0001
,
1000
0010
0100
0001
1000
0010
0100
0001
1000
0010
0100
0001
1000
0010
0100
0001
,
1000
0010
0100
0001
1000
0010
0100
0001
1000
0010
0100
0001
1000
0010
0100
0001
,
1000
0010
0100
0001
1000
0010
0100
0001
1000
0010
0100
0001
1000
0010
0100
0001
,
1000
0010
0100
0001
1000
0010
0100
0001
1000
0010
0100
0001
1000
0010
0100
0001
,
1000
0010
0100
0001
1000
0010
0100
0001
1000
0010
0100
0001
1000
0010
0100
0001
,
1000
0010
0100
0001
1000
0010
0100
0001
1000
0010
0100
0001
1000
0010
0100
0001
,
1000
0010
0100
0001
1000
0010
0100
0001
1000
0010
0100
0001
1000
0010
0100
0001
,
1000
0010
0100
0001
1000
0010
0100
0001
1000
0010
0100
0001
1000
0010
0100
0001
,
1000
0010
0100
0001
1000
0010
0100
0001
1000
0010
0100
0001
1000
0010
0100
0001
,
1000
0010
0100
0001
1000
0010
0100
0001
1000
0010
0100
0001
1000
0010
0100
0001
,
1000
0010
0100
0001
1000
0010
0100
0001
1000
0010
0100
0001
1000
0010
0100
0001
,
1000
0010
0100
0001
1000
0010
0100
0001
1000
0010
0100
0001
1000
0010
0100
0001
,
1000
0010
0100
0001
1000
0010
0100
0001
1000
0010
0100
0001
1000
0010
0100
0001
,
1000
0010
0100
0001
1000
0010
0100
0001
1000
0010
0100
0001
1000
0010
0100
0001
,
1000
0010
0100
0001
1000
0010
0100
0001
1000
0010
0100
0001
1000
0010
0100
0001
,
1000
0000
0000
0000
,
0001
0010
0100
1000
0001
0010
0100
1000
0001
0010
0100
1000
0001
0010
0100
1000
,
0001
0010
0100
1000
0001
0010
0100
1000
0001
0010
0100
1000
0001
0010
0100
1000
,
0001
0010
0100
1000
0001
0010
0100
1000
0001
0010
0100
1000
0001
0010
0100
1000
,
0001
0010
0100
1000
0001
0010
0100
1000
0001
0010
0100
1000
0001
0010
0100
1000
,
0001
0010
0100
1000
0001
0010
0100
1000
0001
0010
0100
1000
0001
0010
0100
1000
,
0001
0010
0100
1000
0001
0010
0100
1000
0001
0010
0100
1000
0001
0010
0100
1000
,
0001
0010
0100
1000
0001
0010
0100
1000
0001
0010
0100
1000
0001
0010
0100
1000
,
0001
0010
0100
1000
0001
0010
0100
1000
0001
0010
0100
1000
0001
0010
0100
1000
,
0001
0010
0100
1000
0001
0010
0100
1000
0001
0010
0100
1000
0001
0010
0100
1000
,
0001
0010
0100
1000
0001
0010
0100
1000
0001
0010
0100
1000
0001
0010
0100
1000
,
0001
0010
0100
1000
0001
0010
0100
1000
0001
0010
0100
1000
0001
0010
0100
1000
,
0001
0010
0100
1000
0001
0010
0100
1000
0001
0010
0100
1000
0001
0010
0100
1000
,
0001
0010
0100
1000
0001
0010
0100
1000
0001
0010
0100
1000
0001
0010
0100
1000
,
0001
0010
0100
1000
0001
0010
0100
1000
0001
0010
0100
1000
0001
0010
0100
1000
,
0001
0010
0100
1000
0001
0010
0100
1000
0001
0010
0100
1000
0001
0010
0100
1000
,
0001
0010
0100
1000
0001
0010
0100
1000
0001
0010
0100
1000
0001
0010
0100
1000
,
0001
0010
0100
1000
0001
0010
0100
1000
0001
0010
0100
1000
0001
0010
0100
1000
,
0001
0010
0100
1000
0001
0010
0100
1000
0001
0010
0100
1000
0001
0010
0100
1000
,
0001
0010
0100
1000
0001
0010
0100
1000
0001
0010
0100
1000
0001
0010
0100
1000
,
0001
0010
0100
1000
0001
0010
0100
1000
0001
0010
0100
1000
0001
0010
0100
1000
,
0001
0010
0100
1000
0001
0010
0100
1000
0001
0010
0100
1000
0001
0010
0100
1000
,
0001
0010
0100
1000
0001
0010
0100
1000
0001
0010
0100
1000
0001
0010
0100
1000
,
0001
0010
0100
1000
0001
0010
0100
1000
0001
0010
0100
1000
0001
0010
0100
1000
,
0001
0010
0100
1000
0001
0010
0100
1000
0001
0010
0100
1000
0001
0010
0100
1000
,
0001
0010
0100
1000
0001
0010
0100
1000
0001
0010
0100
1000
0001
0010
0100
1000
,
0001
0010
0100
1000
0001
0010
0100
1000
0001
0010
0100
1000
0001
0010
0100
1000
,
0001
0010
0100
1000
0001
0010
0100
1000
0001
0010
0100
1000
0001
0010
0100
1000
,
0001
0010
0100
1000
0001
0010
0100
1000
0001
0010
0100
1000
0001
0010
0100
1000
,
0001
0010
0100
1000
0001
0010
0100
1000
0001
0010
0100
1000
0001
0010
0100
1000
,
0001
0010
0100
1000
0001
0010
0100
1000
0001
0010
0100
1000
0001
0010
0100
1000
,
0001
0010
0100
1000
0001
0010
0100
1000
0001
0010
0100
1000
0001
0010
0100
1000
,
0001
0010
0100
1000
0001
0010
0100
1000
0001
0010
0100
1000
0001
0010
0100
1000
,
0001
0010
0100
1000
0001
0010
0100
1000
0001
0010
0100
1000
0001
0010
0100
1000
,
0001
0010
0100
1000
0001
0010
0100
1000
0001
0010
0100
1000
0001
0010
0100
1000
,
0001
0010
0100
1000
0001
0010
0100
1000
0001
0010
0100
1000
0001
0010
0100
1000
,
0001
0010
0100
1000
0001
0010
0100
1000
0001
0010
0100
1000
0001
0010
0100
1000
,
0001
0010
0100
1000
0001
0010
0100
1000
0001
0010
0100
1000
0001
0010
0100
1000
,
0001
0010
0100
1000
0001
0010
0100
1000
0001
0010
0100
1000
0001
0010
0100
1000
,
0001
0010
0100
1000
0001
0010
0100
1000
0001
0010
0100
1000
0001
0010
0100
1000
,
0001
0010
0100
1000
0001
0010
0100
1000
0001
0010
0100
1000
0001
0010
0100
1000
,
0001
0010
0100
1000
0001
0010
0100
1000
0001
0010
0100
1000
0001
0010
0100
1000
,
0001
0010
0100
1000
0001
0010
0100
1000
0001
0010
0100
1000
0001
0010
0100
1000
,
0001
0010
0100
1000
0001
0010
0100
1000
0001
0010
0100
1000
0001
0000
0000
0000
,
0000
0000
0000
0000
1000
0100
0010
0001
1000
0100
0010
0001
1000
0100
0010
0001
,
1000
0100
0010
0001
1000
0100
0010
0001
1000
0100
0010
0001
1000
0100
0010
0001
,
1000
0100
0010
0001
1000
0100
0010
0001
1000
0100
0010
0001
1000
0100
0010
0001
,
1000
0100
0010
0001
1000
0100
0010
0001
1000
0100
0010
0001
1000
0100
0010
0001
,
1000
0100
0010
0001
1000
0100
0010
0001
1000
0100
0010
0001
1000
0100
0010
0001
,
1000
0100
0010
0001
1000
0100
0010
0001
1000
0100
0010
0001
1000
0100
0010
0001
,
1000
0100
0010
0001
1000
0100
0010
0001
1000
0100
0010
0001
1000
0100
0010
0001
,
1000
0100
0010
0001
1000
0100
0010
0001
1000
0100
0010
0001
1000
0100
0010
0001
,
1000
0100
0010
0001
1000
0100
0010
0001
1000
0100
0010
0001
1000
0100
0010
0001
,
1000
0100
0010
0001
1000
0100
0010
0001
1000
0100
0010
0001
1000
0100
0010
0001
,
1000
0100
0010
0001
1000
0100
0010
0001
1000
0100
0010
0001
1000
0100
0010
0001
,
1000
0100
0010
0001
1000
0100
0010
0001
1000
0100
0010
0001
1000
0100
0010
0001
,
1000
0100
0010
0001
1000
0100
0010
0001
1000
0100
0010
0001
1000
0100
0010
0001
,
1000
0100
0010
0001
1000
0100
0010
0001
1000
0100
0010
0001
1000
0100
0010
0001
,
1000
0100
0010
0001
1000
0100
0010
0001
1000
0100
0010
0001
1000
0100
0010
0001
,
1000
0100
0010
0001
1000
0100
0010
0001
1000
0100
0010
0001
1000
0100
0010
0001
,
1000
0000
0000
0000
0001
0010
0100
1000
0001
0010
0100
1000
0001
0010
0100
1000
,
0001
0010
0100
1000
0001
0010
0100
1000
0001
0010
0100
1000
0001
0010
0100
1000
,
0001
0010
0100
1000
0001
0010
0100
1000
0001
0010
0100
1000
0001
0010
0100
1000
,
0001
0010
0100
1000
0001
0010
0100
1000
0001
0010
0100
1000
0001
0010
0100
1000
,
0001
0010
0100
1000
0001
0010
0100
1000
0001
0010
0100
1000
0001
0010
0100
1000
,
0001
0010
0100
1000
0001
0010
0100
1000
0001
0010
0100
1000
0001
0010
0100
1000
,
0001
0010
0100
1000
0001
0010
0100
1000
0001
0010
0100
1000
0001
0010
0100
1000
,
0001
0010
0100
1000
0001
0010
0100
1000
0001
0010
0100
1000
0001
0000
0000
0000
,
0000
0000
0000
0000
1000
0100
0010
0001
1000
0100
0010
0001
1000
0100
0010
0001
,
1000
0100
0010
0001
1000
0100
0010
0001
1000
0100
0010
0001
1000
0100
0010
0001
,
1000
0100
0010
0001
1000
0100
0010
0001
1000
0100
0010
0001
1000
0100
0010
0001
,
1000
0100
0010
0001
1000
0100
0010
0001
1000
0100
0010
0001
1000
0100
0010
0001
,
1000
0100
0010
0001
1000
0100
0010
0001
1000
0100
0010
0001
1000
0100
0010
0001
,
1000
0100
0010
0001
1000
0100
0010
0001
1000
0100
0010
0001
1000
0100
0010
0001
,
1000
0100
0010
0001
1000
0100
0010
0001
1000
0100
0010
0001
1000
0100
0010
0001
,
1000
0100
0010
0001
1000
0100
0010
0001
1000
0100
0010
0001
1000
0100
0010
0001
,
1000
0100
0010
0001
1000
0100
0010
0001
1000
0100
0010
0001
1000
0100
0010
0001
,
1000
0100
0010
0001
1000
0100
0010
0001
1000
0100
0010
0001
1000
0100
0010
0001
,
1000
0100
0010
0001
1000
0100
0010
0001
1000
0100
0010
0001
1000
0100
0010
0001
,
1000
0100
0010
0001
1000
0100
0010
0001
1000
0100
0010
0001
1000
0100
0010
0001
,
1000
0100
0010
0001
1000
0100
0010
0001
1000
0100
0010
0001
1000
0100
0010
0001
,
1000
0100
0010
0001
1000
0100
0010
0001
1000
0100
0010
0001
1000
0100
0010
0001
,
1000
0100
0010
0001
1000
0100
0010
0001
1000
0100
0010
0001
1000
0100
0010
0001
,
1000
0100
0010
0001
1000
0100
0010
0001
1000
0100
0010
0001
1000
0100
0010
0001
,
1000
0100
0010
0001
1000
0100
0010
0001
1000
0100
0010
0001
1000
0100
0010
0001
,
1000
0100
0010
0001
1000
0100
0010
0001
1000
0100
0010
0001
1000
0100
0010
0001
,
1000
0100
0010
0001
1000
0100
0010
0001
1000
0100
0010
0001
1000
0100
0010
0001
,
1000
0100
0010
0001
1000
0100
0010
0001
1000
0100
0010
0001
1000
0100
0010
0001
,
1000
0100
0010
0001
1000
0100
0010
0001
1000
0100
0010
0001
1000
0100
0010
0001
,
1000
0100
0010
0001
1000
0100
0010
0001
1000
0100
0010
0001
1000
0100
0010
0001
,
1000
0100
0010
0001
1000
0100
0010
0001
1000
0100
0010
0001
1000
0100
0010
0001
,
1000
0100
0010
0001
1000
0100
0010
0001
1000
0100
0010
0001
1000
0100
0010
0001
,
1000
0100
0010
0001
1000
0100
0010
0001
1000
0100
0010
0001
1000
0100
0010
0001
,
1000
0010
0100
0001
,
1000
0010
1000
0100
,
0010
0001
1000
0100
,
1000
0001
0100
0010
,
1000
0010
0100
0001
,
1000
0000
0000
0000
,
0000
0000
0000
0000
,
0000
0100
0010
0001
,
1000
0001
0010
0001
,
0100
0000
0000
0000
0010
0000
0000
0000
1000
0100
0010
0001
1000
0100
0010
0001
,
1000
0100
0010
0001
1000
0100
0010
0001
1000
0100
0010
0001
1000
0100
0010
0001
,
1000
0100
0010
0001
1000
0100
0010
0001
1000
0100
0010
0001
1000
0100
0010
0001
,
1000
0100
0010
0001
1000
0100
0010
0001
1000
0100
0010
0001
1000
0100
0010
0001
,
1000
0100
0010
0001
1000
0100
0010
0001
1000
0100
0010
0001
1000
0100
0010
0001
,
1000
0100
0010
0001
1000
0100
0010
0001
1000
0100
0010
0001
1000
0100
0010
0001
,
1000
0100
0010
0001
1000
0100
0010
0001
1000
0100
0010
0001
1000
0100
0010
0001
,
1000
0100
0010
0001
1000
0100
0010
0001
1000
0100
0010
0001
1000
0100
0010
0001
,
1000
0100
0010
0001
1000
0100
0010
0001
1000
0100
0010
0001
1000
0100
0010
0001
,
1000
0100
0010
0001
1000
0100
0010
0001
1000
0100
0010
0001
1000
0100
0010
0001
,
1000
0100
0010
0001
1000
0100
0010
0001
1000
0100
0010
0001
1000
0100
0010
0001
,
1000
0100
0010
0001
1000
0100
0010
0001
1000
0100
0010
0001
1000
0100
0010
0001
,
1000
0100
0010
0001
1000
0100
0010
0001
1000
0100
0010
0001
1000
0000
0000
0000
,
0000
0000
0000
0000
,
0000
0001
0100
0010
,
1000
0010
0100
0001
,
1000
0100
0010
0001
,
1000
0000
0000
0000
0000
0000
0001
0200
,
0000
0000
0300
0000
0001
0010
0100
1000
0001
0010
0100
1000
0001
0010
0100
1000
,
0001
0010
0100
1000
0001
0010
0100
1000
0001
0010
0100
1000
0001
0010
0100
1000
,
0001
0010
0100
1000
0001
0010
0100
1000
0001
0010
0100
1000
0001
0010
0100
1000
,
0001
0010
0100
1000
0001
0010
0100
1000
0001
0010
0100
1000
0001
0010
0100
1000
,
0001
0010
0100
1000
0001
0010
0100
1000
0001
0010
0100
1000
0001
0010
0100
1000
,
0001
0010
0100
1000
0001
0010
0100
1000
0001
0010
0100
1000
0001
0010
0100
1000
,
0001
0010
0100
1000
0001
0010
0100
1000
0001
0010
0100
1000
0001
0010
0100
1000
,
0001
0010
0100
1000
0001
0010
0100
1000
0001
0010
0100
1000
0001
0010
0100
1000
,
0001
0000
0000
0000
,
0000
0000
0000
0000
,
0000
0000
0000
0000
,
0000
0000
0000
0000
,
0000
1000
0000
0010
0000
0000
0000
0000
,
0000
0000
0000
0000
,
0000
0100
0001
0000
,
0000
0000
0000
1000
,
0100
0010
0001
0100
,
0010
1000
0010
0000
,
0000
0000
0000
0000
,
0100
0001
0000
0000
,
1001
1010
1010
1010
,
1000
0001
0000
0000
0000
0000
1000
0000
,
0100
0010
0001
1000
,
0001
0100
0010
1000
,
0001
0100
0001
1000
,
0100
0010
0001
1000
,
0100
1000
0001
0100
,
0010
1000
0100
0010
,
0001
0000
0000
0000
1000
0100
0010
0001
1000
0100
0010
0001
1000
0100
0010
0001
,
1000
0100
0010
0001
1000
0100
0010
0001
1000
0100
0010
0001
1000
0100
0010
0001
,
1000
0100
0010
0001
1000
0100
0010
0001
1000
0100
0010
0001
1000
0100
0010
0001
,
1000
0100
0010
0001
1000
0100
0010
0001
1000
0100
0010
0001
1000
0100
0010
0001
,
1000
0100
0010
0001
1000
0100
0010
0001
1000
0100
0010
0001
1000
0100
0010
0001
,
1000
0100
0010
0001
1000
0100
0010
0001
1000
0100
0010
0001
1000
0100
0010
0001
,
1000
0100
0010
0001
1000
0100
0010
0001
1000
0100
0010
0001
1000
0100
0010
0001
,
1000
0100
0010
0001
1000
0100
0010
0001
1000
0100
0010
0001
1000
0100
0010
0001
,
1000
0100
0010
0001
1000
0100
0010
0001
1000
0100
0010
0001
1000
0100
0010
0001
,
1000
0100
0010
0001
1000
0100
0010
0001
1000
0100
0010
0001
1000
0100
0010
0001
,
1000
0100
0010
0001
1000
0100
0010
0001
1000
0100
0010
0001
1000
0100
0010
0001
,
1000
0100
0010
0001
1000
0100
0010
0001
1000
0100
0010
0001
1000
0100
0010
0001
,
1000
0100
0010
0001
1000
0100
0010
0001
1000
0000
0000
0000
0000
0000
0000
0000
,
0000
0000
0000
0000
,
0100
0010
0001
1000
,
0001
0000
0000
0000
,
0100
0010
1000
0000
,
0000
0000
0000
0001
,
0000
1000
0100
0010
,
0001
1000
0010
0000
,
0000
0000
0000
0000
,
0000
0000
0000
0000
,
0000
0000
0000
0000
,
M000
0000
0000
000M
0000
0000
0000
0000
,
0000
0000
0000
0000
,
0000
0000
0000
0000
,
0000
0000
0000
0000
,
0000
0000
0000
0000
,
0000
0000
0000
0000
,
0000
0000
0000
1000
,
0001
0000
0000
0000
,
0000
0000
0000
0000
,
0000
0000
0000
0000
,
0000
0000
0000
0000
,
0000
0000
0000
0000
,
0000
0000
0000
0000
,
0000
0000
0000
0000
,
0000
0000
0000
0000
,
0000
0000
0000
0000
,
0000
0000
0000
0000
,
0000
0000
0000
0000
,
M000
0000
0000
0000
;
