#TITLE:Attack;
#SUBTITLE:;
#ARTIST:Joe Satriani;
#TITLETRANSLIT:;
#SUBTITLETRANSLIT:;
#ARTISTTRANSLIT:;
#CREDIT:;
#BANNER:Attack.png;
#BACKGROUND:Attack-bg.png;
#LYRICSPATH:;
#CDTITLE:!aptitle.png;
#MUSIC:Joe Satriani - Attack.mp3;
#OFFSET:-6.162;
#SAMPLESTART:81.136;
#SAMPLELENGTH:12.000;
#SELECTABLE:YES;
#BPMS:0.000=80.000,30.000=40.000,30.500=160.000,32.000=160.000;
#STOPS:30.500=0.563
;
#BGCHANGES:;
// cache tags:
#FIRSTBEAT:0.000;
#LASTBEAT:215.000;
#SONGFILENAME:Songs/Community Keyboard Megapack - Volume 1/(Aperson) Attack/Attack.sm;
#HASMUSIC:1;
#HASBANNER:1;
#MUSICLENGTH:109.426;
// end cache tags

//---------------dance-single - ----------------
#NOTES:
     dance-single:
     :
     Challenge:
     11:
     0.923,0.860,0.274,0.037,1.000,673.000,30.000,4.000,0.000,0.000:  // measure 1
1000
0000
0100
0010
0100
0010
0001
0000
0001
0010
0100
0010
1000
0100
0010
0000
,  // measure 2
1000
0000
0100
1000
0000
1000
0010
0000
0100
0001
0100
1000
0010
0100
1000
0000
,  // measure 3
0001
0000
0010
0000
1100
0000
0000
0000
0001
0000
0001
0100
1010
0001
0001
0001
,  // measure 4
1010
0000
0100
0010
0000
0000
0100
0000
0011
0000
0010
0000
1001
0000
1000
0010
,  // measure 5
0101
0000
0010
0000
0110
0000
0100
0000
0011
0000
0010
0001
0110
0010
0100
1000
,  // measure 6
1100
0000
0100
0000
0110
0000
0100
1000
0000
1000
0100
0010
0110
0000
0100
0000
,  // measure 7
1001
0000
0010
0100
1001
0000
0100
0000
1001
0000
0010
0100
1001
0100
0010
0001
,  // measure 8
0110
0000
1000
0001
0110
0000
0001
0000
0110
0000
1001
0000
1000
0100
1000
0100
,  // measure 9
0010
0000
0001
0000
0010
0000
0010
0000
0100
0000
0000
0000
0001
0010
0001
0010
,  // measure 10
0100
0000
1000
0000
0100
0000
0100
0000
0010
0000
0000
0000
1000
0100
0010
0100
,  // measure 11
1000
0000
0100
0000
0010
0000
0010
0000
0001
0000
0000
0000
0001
0010
0100
0010
,  // measure 12
0100
1000
0100
1000
0100
0000
0000
0000
0000
0000
0000
0000
1000
0010
0001
0010
,  // measure 13
1000
0000
0100
0000
0001
0010
0001
0000
0010
0000
0000
0000
0001
0010
1000
0010
,  // measure 14
0001
0000
0010
0000
1000
0001
1000
0000
0100
0000
0000
0000
1000
0010
0001
0010
,  // measure 15
0100
0000
0010
0000
0100
0010
0100
0000
0001
0000
0001
0010
0100
1000
0100
1000
,  // measure 16
0100
0010
0100
0010
0001
0000
0000
0000
0011
0000
0010
0000
1000
0010
1000
0010
,  // measure 17
0100
0000
0010
0000
0100
0010
0100
0001
1000
0000
0010
0100
0001
0100
0001
0010
,  // measure 18
0100
0000
1000
0000
0010
0001
0100
0001
0010
0000
0000
0000
0001
0010
0001
0100
,  // measure 19
0010
0000
1000
0000
0100
1000
0001
1000
0100
0000
0010
0100
1000
0100
1000
0010
,  // measure 20
0001
0000
1000
0000
0010
1000
0010
0001
0100
0000
0000
0000
1000
0010
1000
0010
,  // measure 21
0001
0000
0100
0000
0010
0100
0001
0100
0010
0000
0100
0010
0001
0010
0100
0010
,  // measure 22
0001
0000
1000
0000
0010
0001
0010
1000
0100
0000
0100
0010
0100
0001
0010
0100
,  // measure 23
1000
0000
0100
0000
0010
0001
0100
1000
0100
0000
1000
0100
1000
0100
0010
0001
,  // measure 24
0010
0000
0010
0100
1000
0100
0001
0010
1000
0000
0000
0000
1001
0100
0010
0100
,  // measure 25
1000
0001
0010
0100
1000
0100
0010
1000
0010
0001
0010
0100
1001
0010
0100
0010
,  // measure 26
0001
1000
0100
0010
0001
0010
0100
0010
0100
1000
0100
0010
1001
0010
0001
0010
,  // measure 27
0100
1000
0100
1000
0010
0100
0010
0100
1000
0100
0010
0100
1001
0010
1000
0010
,  // measure 28
0100
0010
0100
1000
0100
0010
0100
0001
0010
0100
1000
0010
1001
0100
0001
0100
,  // measure 29
1000
0010
0001
1000
0010
1000
0010
0100
0010
1000
0100
0010
1001
0010
0001
1000
,  // measure 30
0100
0010
0100
0010
0100
1000
0001
0010
0001
0010
0100
0010
1001
0010
0100
0010
,  // measure 31
0001
0010
0100
0010
0100
0010
0001
1000
0100
0010
0100
0010
1001
0010
0100
1000
,  // measure 32
0001
0010
0100
1000
0100
0010
0001
1000
0100
0010
0001
0000
1000
0100
0010
0001
,  // measure 33
0010
0000
0010
0100
0001
0100
0010
1000
0100
0000
0100
0010
1000
0100
0010
0100
,  // measure 34
1000
0100
1000
0001
0010
0100
1000
0100
0020
0000
0000
0030
0001
0010
0100
0010
,  // measure 35
0001
0000
0100
1000
0001
1000
0100
0010
0100
0000
1000
0100
1000
0100
0010
0100
,  // measure 36
0010
0001
0010
0001
0010
1000
0100
0010
0002
0000
0000
0003
1000
0100
0001
0010
,  // measure 37
0100
0000
0010
0001
1000
0001
0010
0100
0010
0000
0001
0010
0001
0010
0100
1000
,  // measure 38
0100
0010
0001
0100
0010
0100
0001
0010
0200
0000
0000
0300
1000
0100
1000
0100
,  // measure 39
0001
0000
0100
0010
1000
0010
0100
0001
1000
0000
0010
0100
0010
0001
0010
0001
,  // measure 40
1000
0100
1000
0100
0001
0010
0100
0010
0002
0000
0000
0003
1000
0100
0010
0100
,  // measure 41
0001
0010
1000
0100
0010
0100
0001
0010
0001
0010
0100
0010
1000
0100
0001
0010
,  // measure 42
0100
0010
0001
1000
0100
0010
0100
0010
0001
0010
0100
0010
0001
0010
0001
0010
,  // measure 43
0100
1000
0100
1000
0010
1000
0010
1000
0100
0001
0010
0100
1000
0100
0010
0001
,  // measure 44
0010
0100
0000
0100
0010
0100
0010
0100
1000
0000
0000
0000
1000
0000
0100
0000
,  // measure 45
0001
0010
0100
0000
0100
0010
0001
0000
0001
0010
0100
0010
0001
0000
0010
0000
,  // measure 46
1000
0100
0010
0000
0010
0100
1000
0000
1000
0100
0010
0100
1000
0000
0100
0000
,  // measure 47
0001
0010
0100
0000
0100
0010
0001
0000
0001
0010
0100
0010
0001
0000
0010
0000
,  // measure 48
0010
0100
1000
0000
1000
0100
0010
0000
0010
0100
0001
1000
0100
0000
0010
0000
,  // measure 49
0100
0010
0100
0000
0010
0100
0010
0000
1000
0100
0010
0001
0010
0000
0010
0000
,  // measure 50
0100
0010
0100
0000
0010
0100
0010
0000
0001
0010
0100
1000
0100
0000
0010
0000
,  // measure 51
0010
0100
0010
0000
0100
0010
0100
0000
1000
0100
0010
0001
0010
0000
0100
0000
,  // measure 52
0100
0010
0100
0000
0010
0100
0010
0000
0001
0010
0100
1000
0100
0000
0000
0000
,  // measure 53
0100
0001
0100
0000
0001
0100
0001
0000
1000
0100
0010
1000
0100
0000
0000
0000
,  // measure 54
0100
1000
0100
0000
0100
0001
0100
0000
0010
0000
0000
0000
1001
0000
0000
0000
;
