#TITLE:The Stains of Time;
#SUBTITLE:;
#ARTIST:Jamie Christopherson;
#TITLETRANSLIT:;
#SUBTITLETRANSLIT:;
#ARTISTTRANSLIT:;
#CREDIT:;
#BANNER:../Wubstream - ban.png;
#BACKGROUND:../Wubstream - bg.png;
#LYRICSPATH:;
#CDTITLE:;
#MUSIC:24 - The Stains of Time (Instrumental).ogg;
#OFFSET:1.409;
#SAMPLESTART:74.232;
#SAMPLELENGTH:12.000;
#SELECTABLE:YES;
#BPMS:0.000=200.000;
#STOPS:;
#BGCHANGES:;
// cache tags:
#FIRSTBEAT:6.000;
#LASTBEAT:426.000;
#SONGFILENAME:Songs/Wubstream/The Stains of Time - [Rynker]/stains of time.sm;
#HASMUSIC:1;
#HASBANNER:1;
#MUSICLENGTH:130.320;
// end cache tags

//---------------dance-single - Rynker----------------
#NOTES:
     dance-single:
     Rynker:
     Challenge:
     13:
     1.000,1.000,0.031,0.407,1.000,1039.000,4.000,53.000,1.000,0.000:

0000
0000
0000
0000
,
0000
0000
0000
0000
0000
0000
0000
0000
1000
0001
0100
0010
0100
0001
1000
0010
,
0100
0001
0010
0100
1000
0010
0100
0001
1000
0100
0010
0001
1000
0100
0010
0001
,
1000
0000
0000
0010
0000
0000
0100
0000
0000
0001
0000
0000
1000
0000
0000
0100
0000
0000
0010
0000
0000
0001
0000
0000
1000
0000
0000
0000
0000
0000
0000
0000
0001
0000
0000
0000
0000
0000
0000
0000
0100
0000
0000
0000
0000
0000
0000
0000
,
0010
1000
0001
1000
0001
0000
0000
0000
1000
0000
0100
0000
0020
0000
0031
0000
,
2000
3020
0130
0002
1003
0100
1000
0100
,
0010
0001
0010
0100
1000
0000
0001
0000
0100
0000
0010
0000
2000
0000
3001
0000
,
1000
0001
2000
0100
3010
0000
0002
0000
0013
0000
0100
0000
1000
0000
0010
0000
,
0100
0001
0100
0010
1000
0010
0100
0001
1000
0100
1000
0001
0020
0000
0031
0000
,
0200
0000
0320
0000
1030
0000
0002
0000
1003
0000
0100
0010
0001
1000
0001
0100
,
0001
1000
0001
0100
0010
0000
1000
0000
0100
0000
0010
0000
0002
0000
0003
0000
,
1000
0001
0100
0001
1000
0000
0100
0000
0010
0000
0001
0000
1000
0000
0001
0100
,
0000
0000
0001
1000
0010
0000
0100
0000
0001
0000
1000
0000
0100
0000
0000
0000
,
1000
0000
0100
0000
0010
0000
0000
0000
0000
0000
0001
0100
0001
1000
0100
1000
,
0001
0010
0100
1000
0001
0000
0100
0000
0010
0000
1000
0000
0010
0000
0100
0000
,
0001
1000
0100
1000
0001
0000
0010
0100
1000
0100
0010
0001
1000
0001
0100
0010
,
0100
0001
1000
0100
1000
0000
0001
0000
0010
0100
1000
0001
0100
0010
1000
0001
,
0100
0010
0100
0001
1000
0100
0010
0001
1000
0100
0010
0100
1000
0001
0100
0010
,
0100
0001
1000
0001
0010
0100
1000
0100
0010
0001
1000
0001
0100
0010
0100
0001
,
1000
0000
0000
0010
0000
0000
0100
0000
0000
0001
0000
0000
0010
0000
0000
0100
0000
0000
1000
0000
0000
0100
0000
0000
0010
0000
0000
0000
0000
0000
0000
0000
0001
0000
0000
0000
0000
0000
0000
0000
1000
0000
0000
0000
0000
0000
0000
0000
,
0100
1000
0100
1000
0100
0010
0001
1000
0002
0000
1003
0000
0100
0000
0020
0000
,
0031
1000
0002
0103
0020
1030
0100
0020
,
0031
0000
1000
0000
0002
0000
0103
0000
0020
0000
2030
0000
3001
0100
0001
0000
,
0100
0002
1003
0100
0010
0001
0010
0100
,
1000
2000
3002
0103
0010
1000
0100
0010
,
0001
0000
1000
0001
1000
0000
0001
0000
0200
0000
0310
0000
0100
0000
0002
0000
,
1003
0100
0020
0031
2000
3001
0100
0010
,
0100
0001
1000
0001
1000
0000
0100
0000
1000
0000
0001
0000
1000
0000
0001
0000
,
1000
0000
0000
0000
0002
1003
0010
0200
,
0301
1000
0002
0013
0200
1300
0010
0200
,
0301
0000
1000
0000
0002
0000
0013
0000
0200
0000
2300
0000
3001
0010
0001
0000
,
0010
0001
2000
3010
0100
0001
0100
0010
,
1000
0000
2000
0000
3002
0000
0013
0000
0100
1000
0100
0010
0001
0010
0100
1000
,
0001
0100
0001
1000
0010
0100
0010
1000
0100
1000
0001
0010
0100
0010
0001
1000
,
0001
0100
0010
0100
0001
1000
0100
1000
0010
0100
0001
0100
0001
1000
0100
1000
,
0001
0010
0100
1000
0001
0100
0010
0100
0001
0000
1000
0100
1000
0000
0100
0000
,
0010
0001
2000
3000
0001
0100
0010
0100
,
0001
0000
1000
0000
0200
0000
0000
0000
0310
0000
0001
0000
1000
0001
0100
0000
,
0010
0000
0100
0000
0001
1000
0100
0000
0010
0000
0001
0000
0100
0000
0010
0000
,
0100
0000
0001
0000
1000
0000
0100
0000
1000
0000
0001
0000
0010
0100
1000
0000
,
0001
0000
0100
0000
0010
1000
0001
0000
1000
0000
0100
0000
0010
0000
0001
0000
,
0100
0010
2000
0000
3001
0010
0100
1000
,
0002
0000
0000
0000
0103
0000
0010
0000
1000
0001
0100
0001
1000
0100
1000
0001
,
0010
0100
1000
0100
0010
0001
0100
0010
2000
0000
0000
0000
3000
0000
0000
0000
,
0002
0003
1000
0100
,
0010
0001
1000
0001
1000
0000
0001
0000
0100
0000
0010
0000
0100
0000
0001
0000
,
1000
0000
0100
0000
1000
0000
0001
0000
0010
0000
0100
0000
1000
0001
0100
0000
,
0100
0000
0100
0000
0100
0000
0001
0000
1000
0000
0100
1000
0100
0000
0010
0000
,
0001
1000
0001
0100
0010
0100
0001
1000
0001
0000
1000
0000
0100
0000
0010
0000
,
0100
0000
1000
0000
0001
0100
0001
0000
1000
0000
0100
0000
0010
0000
0001
0000
,
1000
0000
0010
0000
0100
0000
0001
0100
0001
1000
0010
0100
0001
0000
1000
0000
,
0100
0000
0010
0000
0001
0000
1000
0000
0001
0100
0001
0100
0001
0000
0000
0000
,
1000
0000
0100
0000
0010
0001
0100
0010
,
0100
0000
0001
0000
1000
0001
1000
0000
0100
0000
0010
0001
1000
0000
0001
0000
,
0100
0001
0100
0001
1000
0000
0100
0000
0010
0000
0001
0000
1000
0001
1000
0000
,
1000
0000
1000
0000
1000
0000
0001
0000
0100
0000
0010
1000
0001
0000
0010
0000
,
0100
1000
0100
1000
0002
0000
0203
0000
,
0310
0000
1000
0000
0001
1000
0001
0000
1000
0000
0100
0010
0100
0000
0010
0000
,
0001
1000
0010
0100
0001
0000
1000
0000
0100
0000
0010
0000
0001
0000
0000
0000
,
1000
0000
0001
0000
0100
0000
0001
0000
1000
0000
0100
0010
0001
0000
0001
0000
,
1000
0010
0100
0001
1000
0000
0000
0000
0001
0000
0100
0000
0010
0000
0100
0000
,
0001
0100
0010
1000
0000
0001
0001
0000
,
1000
0001
0100
0000
0010
0000
0100
0000
0001
0000
0001
0000
1000
0000
0100
0000
,
0010
0000
0010
0000
0010
0000
0001
0000
0200
0000
0000
0000
0000
0300
0001
1000
,
0001
0000
0001
0000
1000
0000
0100
0010
0001
0010
0100
1000
0001
0000
1000
0000
,
0100
0100
0010
0001
1000
0001
1000
0010
,
0100
0000
0001
0000
0100
0000
0001
1000
0100
0010
0001
0100
0001
0000
1000
0000
,
0100
0010
0001
0100
0010
4000
3001
0010
,
0400
0000
4300
0000
3001
0100
0001
1000
0100
1000
0001
0010
0100
1000
0001
0100
,
0001
0000
1000
0000
0100
0000
0010
0000
0001
1000
0001
1000
0002
0000
0000
0000
,
2003
3000
1001
0001
,
0100
0000
0000
0010
0000
0000
1000
0001
1000
0000
0000
0000
1000
0000
0000
0000
,
1000
0000
1000
0100
0020
0031
0100
0010
,
0100
0000
0000
0001
0000
0000
1000
0100
1000
0000
0000
0000
0100
0000
0000
0000
,
0010
0001
1000
0001
0100
0010
0100
0001
1000
0100
0010
0001
1000
0001
0100
0010
,
1000
0010
0100
0001
1000
0001
0010
0100
1000
0001
0100
0001
0100
0010
1000
0010
,
0100
0001
0010
0100
1000
0100
0010
0001
0010
0100
1000
0001
1000
0010
0100
0010
,
1000
0001
0010
0001
1000
0100
0010
0100
1000
0001
1000
0010
0100
0010
1000
0001
,
1000
0000
0001
0000
1000
0000
0000
0000
0001
0010
0100
1000
0100
0010
0001
1000
,
0001
1000
0010
0100
0010
1000
0001
0100
0001
1000
0010
0100
0001
1000
0010
0100
,
0001
1000
0010
0100
0001
1000
0010
0100
0010
1000
0001
0010
0100
1000
0010
0100
,
0010
1000
0100
0010
0001
0010
0100
1000
0001
1000
0010
0100
0010
1000
0001
0010
,
0001
0000
1000
0000
0001
0000
0000
0000
1000
0010
0100
0010
1000
0001
0010
0001
,
1000
0100
0010
0100
1000
0001
1000
0010
0100
0010
1000
0001
0010
0001
1000
0100
,
0010
0100
1000
0001
1000
0010
0100
0010
1000
0001
0100
0010
0100
0001
0010
0001
,
1000
0100
0010
0100
1000
0010
0100
0001
1000
0000
0001
0000
1000
0000
0000
0000
,
0001
0010
0001
0000
1000
0100
0010
0100
,
1000
0000
0001
0000
1000
0000
0010
0000
0100
0010
0100
0000
0001
1000
0001
0000
,
1000
0000
0100
0000
0010
0000
0001
0000
0200
0000
0310
0000
1000
0001
0010
0000
,
0100
0000
1000
0000
0001
0100
0010
0000
1000
0000
1000
0000
1000
0001
0010
0000
,
0100
0000
1000
0000
0001
1000
0100
0000
0010
0000
0001
0000
0100
0010
1000
0000
,
0010
0000
0100
0000
0001
0100
0010
0000
1000
0000
0010
0000
1000
0010
0100
0000
,
0001
0000
1000
0000
0100
0010
0001
1000
0001
0000
0100
0000
0010
0000
0100
0000
,
0010
0100
0010
0100
0002
0000
0000
0000
,
1003
0100
1000
0000
0001
0100
0100
0001
,
1000
1000
0001
0010
0010
0100
1000
1000
,
0001
0100
0010
0100
0101
0001
1000
0100
,
0010
0010
0001
1000
1000
0010
0100
0100
,
0001
1000
1000
0100
0010
0001
0000
1000
,
0001
0100
0010
0100
0001
1000
0100
1000
0001
0010
0100
0010
0001
1000
0001
0100
,
0010
0100
0001
1000
0010
0100
0010
0100
0001
1000
0001
0100
0010
0100
0001
1000
,
0100
1000
0001
0010
0100
0010
0001
1000
0001
0100
0010
0100
0001
1000
0100
1000
,
0001
0010
0100
0010
0001
1000
0001
0100
0020
0000
0000
0000
0000
0000
0000
0000
,
0000
0000
0000
0000
,
0000
0000
0030
0000
,
0000
0000
0000
0000
,
0000
0000
M000
0000
;
