#TITLE:Solid State Squad;
#SUBTITLE:;
#ARTIST:kors k vs. LED;
#TITLETRANSLIT:;
#SUBTITLETRANSLIT:;
#ARTISTTRANSLIT:;
#CREDIT:;
#BANNER:SSS-BN.png;
#BACKGROUND:SSS-BG.png;
#LYRICSPATH:;
#CDTITLE:;
#MUSIC:SOLID STATE SQUAD.ogg;
#OFFSET:-0.021;
#SAMPLESTART:48.320;
#SAMPLELENGTH:14.100;
#SELECTABLE:YES;
#BPMS:0.000=180.000,41.000=90.000,43.000=180.000,103.000=90.000,105.000=180.000,107.000=90.000,108.000=180.000,110.000=90.000,111.000=180.000,112.000=360.000,112.667=90.000,113.000=180.000,114.000=360.000,114.667=90.000,115.000=180.000,116.000=360.000,116.667=90.000,117.000=180.000,118.000=360.000,118.667=90.000,119.000=180.000,135.000=177.120,135.250=172.280,135.500=165.480,135.750=159.880,136.000=154.040,136.250=145.860,136.500=138.020,136.750=129.760,137.000=125.660,137.250=113.720,137.500=103.660,137.750=96.220,138.000=90.000,154.000=180.000,214.000=90.000,216.000=180.000,248.000=90.000,250.000=180.000;
#STOPS:;
#BGCHANGES:;
// cache tags:
#FIRSTBEAT:13.000;
#LASTBEAT:314.000;
#SONGFILENAME:Songs/SSSC Pack 2/Solid State Squad [Zarkonis]/Solid State Squad.sm;
#HASMUSIC:1;
#HASBANNER:1;
#MUSICLENGTH:116.688;
// end cache tags

//---------------dance-single - Zarkonis----------------
#NOTES:
     dance-single:
     Zarkonis:
     Challenge:
     12:
     0.972,1.000,0.360,0.668,1.000,668.000,42.000,78.000,21.000,6.000:




0000
0000
0000
0000
,
0000
0000
0000
0000
,
0000
0000
0000
0000
,
0000
0000
0000
0000
1000
0000
0001
0000
0010
0000
0100
1000
0010
0100
0001
1000
,
0001
1000
0001
0000
0000
0000
0010
0000
0000
0000
0100
0000
0000
0000
1000
0000
,
0000
0000
0010
0000
0110
0000
0100
0000
0001
0000
1000
0001
1000
0000
0001
0010
,
0100
1000
0001
0000
0000
0000
0100
0000
0000
0000
0010
0000
1000
0001
1000
0000
,
1001
0000
0000
0000
0000
0000
0001
0000
1000
0000
0001
0000
1000
0000
0000
0000
0000
0000
0001
0000
0000
0000
0000
0000
0100
0000
0000
0000
0000
0000
0010
0000
0000
1000
0000
0000
0100
0000
0000
0010
0000
0000
0001
0000
0000
1000
0000
0000
,
0001
1000
0001
0000
0000
0000
0100
0000
0000
0000
0010
0000
0000
0000
1000
0000
,
0000
0000
0100
0000
0110
0000
0010
0000
0001
0000
1000
0001
1000
0000
0001
0100
,
0010
1000
0002
0000
0MM3
0000
0000
0000
0000
0000
0000
0000
1MM1
0000
0000
0000
,
0011
0110
1100
1010
,
0110
0000
0000
0000
0101
0000
1000
0000
2200
3000
0300
0000
1MM1
0000
0000
0000
,
0101
0110
1010
1100
,
0110
0000
0000
0000
0011
0000
1000
0000
2020
3000
0030
0000
0100
0000
0001
0000
,
0010
0100
1000
0001
0100
0001
1000
0100
,
0010
0000
0001
0000
1000
0000
0010
0000
0220
0300
0030
0000
1000
0000
0100
0000
,
0010
0001
0100
0010
0100
0001
0010
0100
,
1000
0001
1000
0001
0010
0100
1000
0100
,
0001
0100
1000
0010
0100
0010
0001
0010
,
1000
0100
0010
1000
0010
0100
0010
0001
,
1000
0010
0001
0010
1000
0100
0001
0100
,
1000
0100
0010
0100
1000
0010
0100
0010
,
0001
0010
1000
0100
0010
1000
0010
0001
,
1000
0010
0100
0001
0010
0100
1000
1000
,
1000
1000
1000
1000
1000
1000
0002
0000
,
0003
2MM0
0000
3101
,
0MM2
0000
0000
0000
2203
3300
0M20
0000
,
1031
02M0
1301
0MM2
,
1013
2MM0
3011
0101
,
0110
1010
1100
0110
,
0011
0000
0000
0000
1001
0000
0000
0000
0110
0000
0000
0000
1000
0001
1000
0001
,
1000
0001
1000
0001
1000
0001
1000
0001
1000
0001
1000
0001
0100
0010
1000
0001
,
0010
0100
1000
0010
0100
0010
0100
0001
1000
0100
0010
0001
2000
0000
0000
0000
,
0000
0000
0MMM
0000
0000
0000
0000
0000
3002
0000
0023
0230
0000
0000
0000
0000
,
0000
0000
0000
0000
2300
3020
0230
0302
0000
0000
0000
0000
0000
0000
0023
0230
,
0000
2300
0000
0000
0000
0000
0000
0000
0000
0000
3020
0000
0230
0302
0000
0023
,
0000
0000
0000
0000
0000
0000
0000
0000
0000
0000
0230
0000
0000
0000
0320
0000
0032
0000
0000
0203
0000
0000
0000
0000
0000
0000
0000
0000
0000
0000
0320
0000
,
0000
2030
0000
3200
0000
0320
0000
0031
1MM1
0000
0000
0000
0110
0000
0000
0000
,
0001
0000
0010
0000
0011
0000
0000
0000
1000
0000
0000
1010
0000
0000
0010
0100
,
0001
0000
0010
0100
1000
0000
0000
0000
0001
0000
0000
0000
0101
0000
0000
0000
,
1000
0000
0100
0000
1100
0000
0000
0000
0001
0000
0000
0101
0000
0000
0100
0000
,
0010
1000
0100
0010
0001
0000
0100
0000
0000
0000
0200
0000
0000
0000
0000
0000
,
0000
0000
0000
0300
0020
0000
0000
2030
,
0000
3002
0000
0000
,
0000
0000
0003
0010
0100
0100
0100
0100
,
0400
0300
2000
3000
0040
0030
0200
0300
0001
0010
0100
1000
0001
0100
0010
0100
,
0001
0010
0100
1000
0001
0100
0010
0100
0001
1000
0001
1000
0010
0100
0010
1000
,
0001
1000
0001
1000
0100
0010
0100
1000
0001
0100
0010
1000
0001
0010
0100
0010
,
0001
0100
0010
1000
0001
0010
0100
0010
0001
1000
0001
1000
0100
0010
0001
1000
,
0010
0100
0010
0100
0001
0010
0100
1000
0010
0100
0010
1000
0001
0010
0001
0010
,
0100
1000
0001
1000
0100
0010
0001
1000
0010
0100
0001
1000
0001
0010
0100
0010
,
0001
1000
0010
1000
0001
0100
0010
1000
0010
1000
0001
0010
0001
0010
0100
0010
,
0001
0100
0010
1000
0001
0010
0100
1000
0002
0000
0000
0000
0003
0000
0000
0000
,
1000
0100
0010
0001
0100
0010
1000
0100
1000
0010
0100
0001
0010
0001
0100
0010
,
2000
3001
0100
0010
1000
0100
1000
0010
1000
0001
0010
0001
0100
0001
0010
0100
,
2000
3001
0100
0010
1000
0010
0100
0001
0010
0001
0100
0010
1000
0100
0010
0001
,
2000
3010
0100
0001
0010
0100
1000
0100
0010
0001
0100
0010
1000
0010
0100
0001
,
2000
3100
0010
0001
0100
0010
0100
0001
2000
3010
0100
0001
0010
0100
0010
0001
,
2000
3100
0010
0001
0100
0010
0100
0010
2000
3100
0010
0100
0010
0001
0100
0010
,
2000
3100
0010
0001
2000
3010
0100
0001
2000
3100
0010
0001
2000
3010
0100
0001
,
4000
3000
0000
0000
0000
0000
0400
0000
0300
0000
0000
0000
0040
0000
0000
0030
0000
0000
0004
0000
0000
0000
0003
0000
,
2000
0000
0000
0000
0000
0000
0000
0000
3001
0010
0100
0000
1000
0010
0000
0200
,
0000
0000
0301
0000
0000
0010
0000
0000
0100
1000
0010
0000
0100
0010
0000
0200
,
0000
0000
0310
0000
0000
1000
0000
0000
0100
0010
0001
0000
0100
0010
0000
1000
,
0100
0000
0010
0001
0000
1000
0010
0000
0100
0001
0010
0100
1000
0010
0100
0001
,
2000
0000
3200
0000
0320
0000
0032
0000
0103
0010
1000
0000
0100
0010
0000
0002
,
0000
0000
0013
0000
0000
0100
0000
0000
1000
0010
0100
0000
0001
0010
0000
0002
,
0000
0000
1003
0000
0000
0010
0000
0000
0100
0001
1000
0100
0010
0100
1000
0001
,
0100
0001
1000
0100
0010
0100
2000
0000
0000
0000
3020
0000
0000
0000
0230
0000
,
0000
0000
0302
0000
0000
0000
0013
0000
0100
0000
1000
0000
0010
0100
0000
0002
,
0000
0000
0103
0000
0000
0010
0000
1000
0010
0100
0001
0000
1000
0100
0010
0100
,
2000
0000
3020
0000
2030
0000
3001
0000
0010
0000
0100
0010
0100
0000
1000
0000
,
0020
0000
0230
0302
0000
0000
0000
0000
,
0000
0000
0013
0100
1000
0000
0010
0000
0100
0001
0010
0100
1000
0010
0100
0010
,
1000
0001
0010
0100
1000
0100
0010
0001
0100
0010
0100
0010
1000
0100
1000
0010
,
1000
0001
0010
0100
1000
0010
1000
0001
0100
0010
0100
0010
1000
0100
0010
0001
,
0100
0010
0100
0010
1000
0100
0010
0001
2000
0000
0001
0000
0000
0000
0001
0000
,
0000
0001
0000
3001
1001
0000
0000
0000
;
