#TITLE:Hit & Slap;
#SUBTITLE:;
#ARTIST:Asletics;
#TITLETRANSLIT:;
#SUBTITLETRANSLIT:;
#ARTISTTRANSLIT:;
#CREDIT:;
#BANNER:hitnslap-banner.png;
#BACKGROUND:hitnslap-bg.png;
#LYRICSPATH:;
#CDTITLE:cynic.png;
#MUSIC:Hit'n'slap - Asletics.mp3;
#OFFSET:-0.530;
#SAMPLESTART:27.302;
#SAMPLELENGTH:18.640;
#SELECTABLE:YES;
#BPMS:0.000=103.130;
#STOPS:;
#BGCHANGES:;
// cache tags:
#FIRSTBEAT:8.000;
#LASTBEAT:134.000;
#SONGFILENAME:Songs/Community Keyboard Megapack - Volume 1/(Cynic) Hit 'n Slap/hitnslap.sm;
#HASMUSIC:1;
#HASBANNER:1;
#MUSICLENGTH:80.881;
// end cache tags

//---------------dance-single - ----------------
#NOTES:
     dance-single:
     :
     Hard:
     8:
     0.631,0.555,0.408,0.025,0.606,322.000,33.000,2.000,0.000,0.000:  // measure 1
0000
0000
0000
0000
,  // measure 2
0000
0000
0000
0000
,  // measure 3
0100
0010
0000
1000
0100
0010
0001
0001
,  // measure 4
1000
0000
0010
0000
0000
0000
0100
0000
0001
0100
0001
0010
0100
1000
0010
0100
,  // measure 5
1001
0000
1000
0000
0010
0000
0000
0100
0001
0000
0001
0000
1000
0100
0010
0000
,  // measure 6
0001
0000
0000
0100
0010
0000
1000
0000
1100
0000
1100
0000
0010
0000
0001
0000
,  // measure 7
0101
0000
0100
0010
0000
0100
0001
0000
1000
0000
0100
0000
0010
0000
0001
0000
,  // measure 8
0100
0001
1000
0100
0011
0010
0100
1100
,  // measure 9
1001
0000
0100
0000
0010
0000
0000
0001
1000
0000
0100
0010
0000
0001
0000
0100
,  // measure 10
0010
0000
1000
0100
0000
0010
0000
0001
0100
0000
1010
0000
0101
0000
0011
0000
,  // measure 11
1100
0000
1000
0000
0010
0000
0000
0100
0001
0000
1000
0100
0000
0010
0000
0001
,  // measure 12
0100
0000
0010
0000
0100
0000
0001
0000
1000
0100
0010
0001
0010
0100
1000
0001
,  // measure 13
1001
0000
1000
0100
0010
0000
0001
0100
0001
0000
1000
0100
0000
0010
0001
0000
,  // measure 14
1001
0000
1000
0010
0100
0000
0001
0000
0010
0100
1000
0100
0010
0000
0001
0000
,  // measure 15
1001
0000
0001
0010
0100
0000
1000
0010
1000
0000
0001
0010
0000
0100
1000
0000
,  // measure 16
1001
0000
0001
0100
0010
0000
1000
0000
0100
0010
0001
0010
0100
0000
1000
0000
,  // measure 17
0001
0000
0100
0010
0100
0000
0001
0000
1000
0100
0010
0000
0001
0100
0001
0000
,  // measure 18
1000
0000
0100
0010
0100
0000
0001
0100
0010
0000
1000
0000
0100
0010
0100
0010
,  // measure 19
0001
0000
0100
0001
0100
0000
0010
1000
0100
0000
0010
0000
0001
1000
0100
0000
,  // measure 20
1000
0000
0010
0100
0001
0000
0010
0100
1000
0000
0010
0000
0010
0100
0001
1000
,  // measure 21
0100
0000
0010
0001
0100
0000
0001
1000
0100
0000
0010
0001
0000
0100
0000
0001
,  // measure 22
0010
0000
0100
1000
0001
0000
0100
0010
1000
0000
0001
0010
0000
0100
0000
1000
,  // measure 23
0010
0000
0100
0001
0010
0000
0100
1000
0010
0000
0100
0001
0000
0001
0000
1000
,  // measure 24
0100
0000
0010
0001
1000
0000
0010
0100
0001
0000
1000
0000
1010
0000
0101
0000
,  // measure 25
1001
0000
1000
0100
0010
0000
0001
0000
0011
0000
0010
0100
0000
1000
0100
0000
,  // measure 26
1100
0000
1000
0010
0100
0000
0001
0000
1000
0100
0001
0100
1000
0000
0010
0000
,  // measure 27
0101
0000
0100
0010
1000
0000
0100
0010
0001
0000
0100
0010
0000
0100
0001
1000
,  // measure 28
0100
0000
0010
0001
0010
0000
0100
1000
0010
0000
0100
0010
1000
0000
1010
0000
,  // measure 29
1001
0000
0001
0010
0100
0000
1000
0000
1100
0000
0100
0010
0000
0001
0010
0000
,  // measure 30
0011
0000
0001
0100
0010
0000
1000
0000
0001
0010
1000
0010
0001
0000
0100
0000
,  // measure 31
1010
0000
0010
0100
0001
0000
0010
0100
1000
0000
0010
0100
0000
0010
1000
0001
,  // measure 32
0010
0000
0100
1000
0100
0000
0010
0001
0100
0000
0010
0100
0001
0000
0101
0000
,  // measure 33
1001
0000
1000
0100
0010
0000
0001
0000
0101
0000
1010
0000
1100
0000
0011
0000
,  // measure 34
2002
3003
0000
0000
;

//---------------dance-single - ----------------
#NOTES:
     dance-single:
     :
     Medium:
     6:
     0.442,0.432,0.272,0.433,0.006,193.000,22.000,35.000,0.000,0.000:  // measure 1
0000
0000
0000
0000
,  // measure 2
0000
0000
0000
0000
,  // measure 3
1001
0000
1000
0100
0010
0000
0001
0001
,  // measure 4
2000
0000
0000
0000
3001
0100
0010
0100
,  // measure 5
0001
0000
0011
0000
0100
1000
0100
0000
,  // measure 6
1000
0000
1010
0000
0100
0001
1000
0000
,  // measure 7
0100
0000
0110
0000
0001
0001
0100
0000
,  // measure 8
0110
0000
0100
0001
0100
0010
1000
0100
,  // measure 9
0010
0001
0010
0000
0100
1000
1000
0000
,  // measure 10
0010
0100
0001
0000
0100
0001
0100
0001
,  // measure 11
1000
0100
0010
0000
0001
0001
1000
0000
,  // measure 12
0100
0000
0100
0000
0010
0001
0020
0030
,  // measure 13
1001
0000
0000
0000
0110
0000
0000
0000
0100
0000
0001
0000
0200
0000
0010
0300
,  // measure 14
0001
0000
1000
0000
0100
0000
0020
0000
0001
0030
0001
0000
2000
0000
3001
0000
,  // measure 15
0110
0000
0000
0000
0001
0000
1000
0000
0100
0000
0200
0000
0010
0300
1000
0000
,  // measure 16
0020
0000
0100
0000
1000
0030
0100
0000
0001
0000
1000
0000
0100
0000
0000
0000
,  // measure 17
1001
0000
0200
0000
0301
1000
0001
0000
,  // measure 18
0020
0000
0100
0030
1000
0001
1000
0001
,  // measure 19
0010
0000
0002
0000
1003
0010
0100
0001
,  // measure 20
2000
0000
3020
0000
0130
0000
0001
1000
,  // measure 21
0001
0000
0000
0000
0110
0000
0000
0000
0100
0000
1000
0000
0002
0000
0100
0003
,  // measure 22
0010
0000
1000
0000
0001
0000
0000
0000
2000
0000
0010
3000
0100
0000
0002
0000
,  // measure 23
1003
0000
0000
0000
0120
0000
0000
0030
0100
0000
0001
0000
2000
0000
3000
0000
,  // measure 24
0101
0000
0000
0000
1200
0000
0000
0000
1000
0000
1000
0000
0000
1000
0300
0000
,  // measure 25
1001
0000
0000
0000
0110
0000
0000
0000
0010
0000
1000
0000
0020
0000
0100
0030
,  // measure 26
1000
0000
0001
0000
0010
0000
0200
0000
1000
0300
1000
0000
0002
0000
1003
0000
,  // measure 27
0110
0000
0000
0000
1000
0000
0001
0000
0010
0000
0020
0000
0100
0030
0001
0000
,  // measure 28
0200
0000
0010
0000
0001
0300
0010
0000
1000
0000
0001
0000
0010
0000
0000
0000
,  // measure 29
0110
0000
0000
0000
1001
0000
0000
0000
0001
0000
0010
0000
0002
0000
1000
0003
,  // measure 30
0010
0000
0100
0000
0001
0000
2000
0000
0010
3000
0010
0000
0200
0000
0310
0000
,  // measure 31
1001
0000
0000
0000
0010
0000
0100
0000
0001
0000
0002
0000
1000
0003
0100
0000
,  // measure 32
2000
0000
0001
0000
0100
3000
0001
0000
0010
0000
0100
0000
1000
0000
0000
0000
,  // measure 33
0220
0330
2002
3003
0100
0200
0010
0310
,  // measure 34
2002
3003
0000
0000
;

//---------------dance-single - ----------------
#NOTES:
     dance-single:
     :
     Easy:
     3:
     0.223,0.267,0.136,0.173,0.000,101.000,11.000,14.000,0.000,0.000:  // measure 1
0000
0000
0000
0000
,  // measure 2
0000
0000
0000
0000
,  // measure 3
0010
0000
0100
0001
,  // measure 4
2000
0000
3100
0010
,  // measure 5
0001
0000
0100
0010
,  // measure 6
0100
0000
0001
0010
,  // measure 7
0001
0000
1000
0100
,  // measure 8
1000
0010
0200
0000
,  // measure 9
0301
0000
1000
0010
,  // measure 10
0100
0000
0001
1000
,  // measure 11
0100
0000
0010
0001
,  // measure 12
1000
0000
0020
0130
,  // measure 13
1001
0000
0011
0010
,  // measure 14
0001
0000
0100
0010
,  // measure 15
1001
0000
0001
0010
,  // measure 16
0100
0000
2000
3010
,  // measure 17
0100
0000
0001
0001
,  // measure 18
0001
0000
0010
0100
,  // measure 19
1000
1000
1000
0000
,  // measure 20
0010
0100
0002
1003
,  // measure 21
0010
0000
0100
0001
,  // measure 22
1000
0000
0100
0010
,  // measure 23
0100
1000
0001
0000
,  // measure 24
0100
0010
0220
0330
,  // measure 25
1001
0001
0020
0130
,  // measure 26
1001
0100
0001
0000
,  // measure 27
0101
0010
1000
0010
,  // measure 28
0100
0001
1000
0000
,  // measure 29
0110
0010
1000
0100
,  // measure 30
2000
0000
0001
3001
,  // measure 31
0110
0000
0100
0001
,  // measure 32
2001
3002
2003
3001
,  // measure 33
1000
0000
0001
0000
0100
0100
0010
0000
,  // measure 34
2002
3003
0000
0000
;

//---------------dance-single - ----------------
#NOTES:
     dance-single:
     :
     Beginner:
     1:
     0.122,0.145,0.111,0.025,0.000,58.000,9.000,2.000,0.000,0.000:  // measure 1
0000
0000
0000
0000
,  // measure 2
0000
0000
0000
0000
,  // measure 3
0001
0000
0000
0000
,  // measure 4
1000
0000
0000
0000
,  // measure 5
0010
0000
0100
0000
,  // measure 6
0010
0000
0000
0000
,  // measure 7
0100
0000
0010
0000
,  // measure 8
1000
0000
0001
0000
,  // measure 9
1000
0000
0000
0000
,  // measure 10
0100
0000
0000
0000
,  // measure 11
0010
0000
0001
0000
,  // measure 12
1000
0000
0001
0000
,  // measure 13
1001
0000
0100
0000
,  // measure 14
0010
0000
0100
0000
,  // measure 15
0001
0000
1000
0000
,  // measure 16
0100
0000
0010
0000
,  // measure 17
0110
0000
0000
0000
,  // measure 18
1001
0000
0000
0001
,  // measure 19
1000
0000
0000
0010
,  // measure 20
0100
0000
0001
0000
,  // measure 21
1000
0000
0001
0000
,  // measure 22
0010
0000
0100
0000
,  // measure 23
0010
0000
0001
0000
,  // measure 24
1000
0000
1001
0000
,  // measure 25
1001
0000
0010
0000
,  // measure 26
0100
0000
0010
0000
,  // measure 27
0110
0000
0100
0000
,  // measure 28
0001
0000
1000
0000
,  // measure 29
1001
0000
0001
0000
,  // measure 30
0010
0000
0100
0000
,  // measure 31
0110
0000
0010
0000
,  // measure 32
0001
0000
1000
0000
,  // measure 33
0010
0000
0100
0010
,  // measure 34
0220
0000
0330
0000
;

//---------------dance-single - ----------------
#NOTES:
     dance-single:
     :
     Challenge:
     10:
     1.000,0.863,1.000,0.049,1.000,397.000,177.000,4.000,0.000,0.000:  // measure 1
0000
0000
0000
0000
,  // measure 2
0000
0000
0000
0000
,  // measure 3
1001
0000
0010
1000
0000
0000
0001
0101
1001
0000
1010
0000
1000
0001
1000
0001
,  // measure 4
0011
0000
0020
0200
0000
0000
0000
0330
1001
0100
0010
1000
0101
0010
1000
0100
,  // measure 5
1001
0000
0100
0010
1010
0000
1000
1100
0110
0000
1001
0000
0101
0010
0100
0001
,  // measure 6
1010
0000
0001
0010
1100
0000
1000
0001
0110
0000
0001
1100
0000
1000
0010
0100
,  // measure 7
1001
0000
0001
0101
1010
0000
1000
1100
1001
0000
0101
0000
0011
0100
1000
0010
,  // measure 8
0101
0000
0001
0100
1000
0100
0001
1000
1100
0100
0011
0000
0011
0001
1100
0000
,  // measure 9
1001
0000
0101
0100
0010
0000
1000
0001
0100
0001
1100
0110
0000
0010
1001
0000
,  // measure 10
1001
0010
0101
1001
0000
1010
0100
0001
1100
1000
0011
0000
0011
0010
1100
0000
,  // measure 11
1001
0010
0100
0010
1001
0000
0100
0001
1010
0100
0001
1000
0000
0100
0110
0000
,  // measure 12
1001
0010
0101
0000
1010
0100
1001
0000
1001
0010
1001
0100
0110
0001
0110
1000
,  // measure 13
1001
0000
0100
0110
1010
0000
1000
0001
0101
0000
0100
0110
0000
0010
1000
0000
,  // measure 14
1001
0000
0010
0100
1100
1000
0011
0000
1001
0100
0010
1001
1010
0000
0101
0000
,  // measure 15
1001
0000
0010
0110
0101
0000
0001
1000
1010
0000
0010
0110
0000
0100
0001
0000
,  // measure 16
1001
0000
0100
0010
0011
0001
1100
0000
1001
0010
0100
1001
0101
0000
1010
0000
,  // measure 17
1000
0010
0100
0001
1001
0100
1000
0001
0100
0010
1000
0100
1010
0001
1010
0100
,  // measure 18
1001
0100
1000
0010
0001
1000
0100
1000
0101
0010
1000
0100
1010
0001
0110
1000
,  // measure 19
0101
0010
1000
0001
1000
0100
1010
0001
1100
0001
1000
0100
1001
0010
1100
0001
,  // measure 20
1010
0000
1010
0100
0011
0000
0011
0100
1010
0001
0100
0000
0110
0100
0010
0100
,  // measure 21
1001
0000
0010
0100
0101
0000
0001
0011
0110
0000
1001
0000
1010
0100
0010
1000
,  // measure 22
0101
0000
1000
0100
0011
0000
0001
1000
0110
0000
1000
0011
0000
0001
0100
0010
,  // measure 23
1001
0000
1000
1010
0101
0000
0001
0011
1001
0000
1010
0000
1100
0010
0001
0100
,  // measure 24
1010
0000
1000
0010
0001
0010
1000
0001
0011
0010
1100
0000
1100
1000
0011
0000
,  // measure 25
1001
0000
1010
0010
0100
0000
0001
1000
0010
1000
0011
0110
0000
0100
1001
0000
,  // measure 26
1001
0100
1010
1001
0000
0101
0010
1000
0011
0001
1100
0000
1100
0100
0011
0000
,  // measure 27
1001
0100
0010
0100
1001
0000
0010
1000
0101
0010
1000
0001
0000
0010
0110
0000
,  // measure 28
1001
0100
1010
0000
0101
0010
1001
0000
1001
0100
1001
0010
0110
1000
0110
0001
,  // measure 29
1001
0000
1010
0010
0100
0000
0001
1000
0010
1000
0011
0110
0000
0100
1001
0000
,  // measure 30
1001
0100
1010
1001
0000
0101
0010
1000
0011
0001
1100
0000
1100
0100
0011
0000
,  // measure 31
1001
0100
0010
0100
1001
0000
0010
1000
0101
0010
1000
0001
0000
0010
0110
0000
,  // measure 32
1001
0100
1010
0000
0101
0010
1001
0000
1001
0100
1001
0010
0110
1000
0110
0001
,  // measure 33
1001
0000
0101
0100
0110
0000
1010
0000
1001
0100
1001
0010
1001
0100
0110
0010
,  // measure 34
2002
3003
0000
0000
;
