#TITLE:Flower Forever;
#SUBTITLE:By Keichi;
#ARTIST:DJ Sharpnell;
#TITLETRANSLIT:;
#SUBTITLETRANSLIT:;
#ARTISTTRANSLIT:;
#CREDIT:;
#BANNER:Flower forever-BANNER.PNG;
#BACKGROUND:Flower forever-BG.png;
#LYRICSPATH:;
#CDTITLE:;
#MUSIC:15 Flower Forever.mp3;
#OFFSET:0.180;
#SAMPLESTART:100.000;
#SAMPLELENGTH:12.000;
#SELECTABLE:YES;
#BPMS:0.000=87.240,34.000=175.000,225.000=320.000,232.000=175.000,360.000=21.880,364.000=43.740,372.000=87.500,402.000=175.000,405.750=319.999,412.000=175.000,524.000=319.999,528.000=175.000,782.000=320.001,784.000=257.201,785.000=175.001,847.000=87.501,848.000=175.021,976.000=87.501,980.000=47.501;
#STOPS:36.500=0.340
,411.000=0.180
,527.500=0.560
;
#BGCHANGES:;
// cache tags:
#FIRSTBEAT:1.000;
#LASTBEAT:980.500;
#SONGFILENAME:Songs/new cc/Flower Forever/Flower Forever.SM;
#HASMUSIC:1;
#HASBANNER:1;
#MUSICLENGTH:376.476;
// end cache tags

//---------------pump-single - ----------------
#NOTES:
     pump-single:
     :
     Hard:
     15:
     1.000,1.000,1.000,1.000,1.000,2997.000,549.000,772.000,0.000,216.000:
00000
00000
00000
00000
00100
10000
00001
00100
02000
00000
03000
00000
00100
00001
10000
00100
,
00020
00000
00030
00000
01000
00010
10000
00001
00010
00100
00010
01000
10000
00100
00010
00001
,
11000
00000
00000
00000
00001
00010
00100
10000
00020
00000
00030
00000
10000
01000
00100
00001
,
02000
03000
00010
00100
00000
00000
01010
00000
20002
00000
00000
00000
00000
00000
00000
00000
,
00000
00000
30003
00000
01000
00100
00010
00100
02000
00000
03000
00000
00010
00100
01000
00100
,
00020
00000
00030
00000
10000
00100
00010
00100
01000
00010
10000
00001
01010
00000
01010
00000
,
10101
00000
00000
00000
00001
00100
10000
00100
00002
00000
00003
02000
00000
03000
20000
30000
,
00002
00000
00000
00000
00000
00000
00003
00000
00000
00020
00000
00000
00000
00000
00000
00030
00000
00000
00100
00000
00000
01000
00000
00000
00100
00000
00000
10000
00000
00000
00100
00000
10000
00000
00100
00000
10000
00000
00100
00000
10000
00000
00100
00000
10000
00000
00100
00000
,
10000
00100
10000
00100
10000
00100
10000
00100
00001
00100
00001
00100
00001
00100
00001
00100
01010
00000
00000
00000
00000
00000
00000
00000
00000
00000
00000
00000
00000
00000
00000
00000
,
00000
00000
00000
00000
10000
01000
00100
00000
00001
00100
00001
00000
10000
01000
00100
00000
,
00001
00100
00001
00000
10000
01000
00100
00000
00001
00100
00001
00000
10000
01000
00100
00000
,
00001
00100
00001
00000
00010
00100
10000
00000
00001
00100
00001
00000
00010
00100
10000
00000
,
00001
00100
00001
00000
00010
00100
10000
00000
00001
00100
00001
00000
00010
00100
10000
00000
,
00001
00100
00001
00000
01000
00010
00100
00000
10000
00001
01010
00000
01000
00010
00100
00000
,
10000
00001
01010
00000
01000
00010
00100
00000
10000
00001
01010
00000
01000
00010
00100
00000
,
10000
00001
01010
00000
10000
01000
00100
00000
00001
00010
00100
00000
10000
01000
00100
00000
,
00001
00010
00100
00000
01000
00010
00100
01000
00011
00000
00011
00000
00010
01000
00100
00010
,
11000
00000
11000
00000
01110
10000
00010
00100
00001
01100
10100
00000
01000
00100
00010
00001
,
01110
00000
10001
00000
01110
00001
01000
00100
10000
00110
00101
00000
00010
00100
01000
10000
,
01110
00000
10001
00000
01110
10000
00010
00100
00001
01100
10100
00000
01000
00100
00010
00001
,
01110
00000
10001
00000
01110
00001
01000
00100
10000
00110
00101
00000
00010
00100
01000
10000
,
01110
00000
10001
00000
10000
00100
10000
00100
00010
00100
00001
00100
10000
01000
00100
00000
,
00011
00000
01010
00000
00001
00100
00001
00100
01000
00100
10000
00100
00001
00010
00100
00000
,
11000
00000
01010
00000
01000
00100
10000
00010
00100
00001
10000
00100
10000
00001
00100
00001
,
01000
00000
00000
00010
00000
00000
01000
00000
00010
00000
01000
00000
00010
00000
01000
00000
00010
00000
01000
00000
00010
00000
01000
00000
00010
00000
01000
00000
00010
00000
01000
00000
00010
00000
01000
00000
00010
00000
01000
00000
00010
00000
01000
00000
00010
00000
01000
00000
,
00010
00000
00000
00000
01010
00100
01001
00000
01010
00100
10010
00000
01010
00100
01001
00000
,
01010
00100
10010
00000
10001
00100
01001
00000
10001
00100
10010
00000
10001
00100
01001
00000
,
10001
00100
10010
00000
00011
00100
01000
00000
11000
00100
00010
00000
00011
00100
01000
00000
,
11000
00100
00010
00000
01000
00010
10001
00000
00010
01000
10001
00000
01000
00010
10001
00000
,
00010
01000
10001
00000
10000
00001
01010
00000
00001
10000
01010
00000
10000
00001
01010
00000
,
00001
10000
01010
00000
01110
00001
10000
00000
01110
10000
00001
00000
01110
00001
10000
00000
,
01110
10000
00001
00000
10101
00010
01000
00000
10101
01000
00010
00000
10101
00010
01000
00000
,
10101
01000
00010
00000
10000
01000
00011
00000
00001
00010
11000
00000
10000
01000
00011
00000
,
00001
00010
11000
00000
11000
00010
00001
00000
00011
01000
10000
00000
11000
00010
00001
00000
,
00011
01000
10000
00000
00010
01000
00100
00000
00100
01000
00010
00000
00010
01000
00100
00000
,
00100
01000
00010
00000
10000
00001
00100
00000
00100
00001
10000
00000
10000
00001
00100
00000
,
00100
00001
10000
00000
10000
01100
00011
00000
00001
00110
11000
00000
10000
01100
00011
00000
,
00001
00110
11000
00000
10000
01100
00011
00000
00001
00110
11000
00000
10000
01100
00011
00000
,
00001
00110
11000
00000
01000
00010
00100
10000
00010
01000
00100
00001
10000
00001
10000
00100
,
01010
00001
10000
00001
01010
00001
01000
00001
00010
10000
00010
01000
00100
01000
00010
00100
,
00010
00000
00000
10000
00000
00000
00100
00000
00000
10000
00000
00000
00001
00000
00000
00100
00000
00000
00001
00000
00000
01000
00000
00000
00010
00000
01000
00000
00010
00000
01000
00000
00010
00000
01000
00000
00010
00000
01000
00000
00010
00000
01000
00000
00010
00000
01000
00000
,
00010
01000
00010
01000
00010
01000
10001
00000
00000
00000
00000
00000
01000
00000
00000
00010
00000
00000
00000
00000
00000
01000
00000
00000
,
00010
01000
00100
00000
00010
01000
00000
00001
,
00010
00100
01000
00000
01000
00100
00000
00010
,
00100
01000
10000
00000
01000
00100
00010
00001
,
00010
00100
01000
00000
10000
01000
00000
10000
,
01000
00100
00010
00000
00001
00010
00000
00010
,
00001
00010
00100
00000
10000
01000
00000
01000
,
10000
01000
00100
00010
00001
00010
00100
01000
,
10000
01000
10101
00000
01000
00010
00000
00001
,
10000
00010
10000
00000
01001
00000
00000
00000
10010
00000
01101
00000
00000
00000
10000
00000
,
00010
00100
00010
00000
10010
00000
00000
00000
01001
00000
10110
00000
00000
00000
01000
00100
,
01000
00000
00000
00000
00001
00000
00010
00000
10000
00000
01000
00000
00010
00001
00010
00000
,
01000
00000
00000
00000
20000
30000
00000
00000
00001
00100
00001
00000
00000
00000
00020
00030
,
01000
00100
01000
00020
00030
00000
00000
00000
00020
00030
10000
00000
00001
00100
00001
10000
,
00100
10000
00000
00010
01000
00100
00001
10000
00001
10000
00001
10000
00001
10000
00001
10000
,
00001
10000
00001
10000
02020
00000
00000
00000
00000
00000
00000
00000
00000
00000
00000
00000
,
00000
00000
00000
03030
,
20000
30010
00100
01000
00002
00003
00020
00030
10000
00100
02000
03010
00200
00301
00020
10030
,
02200
03300
00001
10000
00200
02320
03030
10000
01000
00100
00022
00033
00200
00300
22000
33000
,
00022
00033
10000
00100
10002
00003
02000
03001
00100
00001
00200
00000
02320
00000
03130
00000
,
00001
01000
00001
00010
10000
00010
00100
01000
00100
00100
00010
00100
10000
00100
00001
00100
,
00002
01003
00100
00010
20000
30000
02000
03000
00001
00100
00020
01030
00200
10300
02000
03001
,
00220
00330
10000
00001
00200
20302
30003
00001
00010
00100
22000
33000
00200
00300
00022
00033
,
22000
33000
00001
00100
20001
30000
00020
10030
00100
10000
00200
00000
20302
00000
30103
00000
,
10000
00010
10000
01000
00001
01000
00100
00010
00100
00100
01000
00100
00001
00100
10000
00100
,
02000
03000
00010
00100
00001
00010
00100
01000
10000
00000
11000
00000
01010
00000
00101
00000
,
02020
03030
10000
01000
00100
00010
00001
00010
00100
00000
00101
00000
01010
00000
10100
00000
,
20002
30003
00010
00100
01000
00010
00100
01000
00100
00010
01000
00100
00010
01001
10010
00000
,
02220
03330
00101
00000
10001
00000
10100
00000
11000
00000
01100
00000
01010
00000
00110
00000
,
20002
30003
10000
01000
00001
00010
00200
00300
10000
00100
10000
00010
00001
00010
00100
01000
,
02020
03030
10000
01000
10000
00001
00200
00300
00000
00000
02020
03030
00202
00303
20200
30300
,
02020
03030
00000
00000
00001
00100
10000
00000
00000
00000
01000
10000
01000
00001
00010
00100
,
01000
00100
01000
00010
00100
00010
01010
00100
00100
00000
00020
00030
02000
03000
00200
00300
,
10001
00000
01000
00100
00010
00100
01000
00000
00010
00000
00010
10000
01000
00001
00010
00100
,
01110
00000
00001
00100
10000
01000
00100
00010
00100
01000
00100
00000
01110
00000
01110
00000
,
10101
00000
00010
00100
01000
00100
02000
03000
01000
00100
00010
00100
01000
10000
02000
03000
,
00020
00030
00001
00010
00100
01000
00100
10000
01000
00100
01010
00000
01110
00000
01110
00000
,
20002
30003
00001
00010
10000
01000
00200
00300
00000
00010
01000
00010
00100
01000
00100
00000
,
00011
00000
00010
00100
00010
00100
02000
03000
00000
00100
10000
01000
00100
00001
00010
00100
,
01110
00001
10000
01000
00100
00010
00002
00003
00001
00010
00100
01000
10000
00100
01000
00010
,
01010
00001
00100
00001
10000
00100
10000
00010
00100
01000
00100
00010
01000
00100
00010
00100
,
20002
30003
10000
01000
00001
00010
00200
00300
00000
01000
00010
01000
00100
00010
00100
00000
,
11000
00000
01000
00100
01000
00100
00020
00030
00000
00100
00001
00010
00100
10000
01000
00100
,
10101
10000
00001
00010
00100
01000
20000
30000
10000
01000
00100
00010
00001
00100
00010
01000
,
10001
10000
00100
10000
00001
00100
00001
01000
00100
00010
00100
01000
00010
00100
01000
00100
,
01010
00000
00001
00010
00100
01000
10000
00000
00000
00000
10000
01000
00100
00010
00001
00000
,
00111
00000
00010
01000
00100
10000
00001
00000
00000
00000
00001
10000
00100
01000
00010
00000
,
01000
00001
01000
00010
10000
00010
01000
00100
01000
00010
00100
00010
10000
00100
00001
00010
,
00100
01000
00001
01000
00010
10000
00010
01000
00001
01000
00010
10000
00010
01000
00001
01000
00010
10000
00010
01000
00001
01000
00000
00000
,
01110
00000
00000
00000
00010
00001
00010
10000
02000
03000
00000
00000
01000
10000
00010
00001
00010
00000
00000
00100
00000
00000
01000
00100
00010
00000
00000
00000
00010
00100
01000
00001
00020
00030
00000
00000
10000
01000
00100
00110
00011
00000
00000
01110
00000
00000
11100
00000
20202
30303
00000
00000
02020
00000
00000
00000
13131
00000
00000
00000
01000
00010
00100
01000
,
10001
00000
00000
00000
01000
00010
00100
10000
00020
00030
00000
00000
10000
01000
00100
00010
00001
00000
00000
00001
00000
00000
00001
00010
00100
00000
00000
00000
01000
00010
00100
10000
,
02000
03000
00000
00000
00001
00010
00001
00010
00100
00000
01000
10000
00000
00000
01000
00000
00200
00000
00000
00000
01010
00000
00000
00000
10001
00000
00000
00300
00010
01000
00100
01010
,
20102
00000
30013
01000
00000
10000
00010
00100
00001
00000
00010
00100
00000
10000
00010
10000
,
00001
00000
00010
00100
00000
01000
00100
00010
00100
01000
00010
00100
01000
00100
00010
00001
,
11100
00000
00010
00111
00000
01000
00010
00100
10101
00000
00100
01010
00000
00100
01000
00010
,
11100
00000
00000
00000
01110
00000
00000
00000
00111
00000
00000
00000
10100
00101
01010
10001
,
01110
00000
00000
00000
00000
00000
00000
00000
00000
00000
00000
00000
00000
00000
00000
00000
00000
00000
00000
00000
00000
00000
00000
00000
00000
00000
00000
00000
00000
00000
00000
00000
00000
00000
00000
00000
00000
00000
00000
00000
00000
00000
00000
00000
00000
00000
00000
00000
00010
00000
00000
00000
00000
00000
00000
00000
00000
00000
00000
00000
00100
00000
00000
00000
00000
00000
00000
00000
00000
00000
00000
00000
01000
00000
00000
00000
00000
00000
00000
00000
00000
00000
00000
00000
10000
00000
00000
00000
00000
00000
00000
00000
00000
00000
00000
00000
01110
00000
00000
00000
00000
00000
00000
00000
00000
00000
00000
00000
00000
00000
00000
00000
00000
00000
00000
00000
00000
00000
00000
00000
00000
00000
00000
00000
00000
00000
00000
00000
00000
00000
00000
00000
00000
00000
00000
00000
00000
00000
00000
00000
00000
00000
00000
00000
01000
00000
00000
00000
00000
00000
00000
00000
00100
00000
00000
00000
00000
00000
00000
00000
00000
00000
00010
00000
00000
00000
00000
00000
00000
00000
00000
00000
00000
00000
00001
00000
00000
00000
00000
00000
00000
00000
00000
00000
00000
00000
00000
00000
00000
00000
00000
00000
,
00020
00000
00030
02000
00000
03000
00020
00030
01110
00000
00000
00000
20000
00000
00002
00000
,
00020
00000
00000
02000
00000
33133
00000
00000
01110
00000
00000
10001
00000
00000
01010
00000
,
00100
01000
00100
00010
00100
01000
00100
00010
00100
01000
00100
00010
00100
01000
00100
00010
,
00100
01000
00100
00010
00100
01000
00100
00011
00000
00000
00000
00000
00000
00000
00000
00000
,
00000
00000
00000
00000
,
11000
00010
00100
00000
01000
00100
00010
01000
00100
10000
01000
00000
10000
01000
00000
10000
,
00100
00000
00001
00100
00000
00001
00100
00000
00010
01000
00010
00100
01000
00100
00010
00100
,
01000
10000
00000
22200
33300
00000
00222
00000
00000
00000
00333
00000
00100
00000
01010
00000
,
00000
10000
00010
00000
00001
01000
00000
00100
00010
00100
01000
00100
00001
00100
10000
00100
,
01010
01000
00100
00000
00010
00100
01000
00010
00100
00001
00010
00000
00001
00010
00000
00001
,
00100
00000
10000
00100
00000
10000
00100
00000
01000
00010
01000
00100
00010
00100
01000
00100
,
00010
00001
00000
00222
00333
00000
22200
00000
00000
00000
33300
00000
00100
00000
10101
00000
,
00000
00001
01000
00000
10000
00010
00000
00100
01000
00100
00010
00100
01000
10000
01000
00100
,
01110
00001
00010
00100
10000
01000
00010
00001
01110
00010
01000
00100
10101
00010
01000
00001
,
01110
01000
00010
10000
10101
01000
00010
00100
10001
00010
00100
00010
00100
00001
00100
00001
,
00101
01000
00100
01000
10000
00100
00010
00100
00010
01000
00010
10000
00001
10000
00001
01000
,
00010
01000
00100
10000
01000
00100
10000
01000
00100
00001
00010
00100
00001
00010
00100
01000
,
10101
01000
00100
01000
00100
01000
00100
01000
10000
00100
10000
00100
10000
00100
10000
00100
,
00010
00100
00010
00100
00010
00100
00010
00100
00001
00100
00001
00100
00001
00100
00001
00100
,
00010
01000
00100
00010
00001
00010
01000
00100
01000
00100
10000
01000
00100
01000
00010
00100
,
00001
00010
10000
01000
00100
01000
00010
00001
00010
00001
00100
00010
01000
00100
10000
00001
,
01110
00000
01000
00010
01000
00010
10000
00001
10000
00001
10000
01000
00100
01000
00010
00100
,
01000
10000
00010
00001
00100
01000
00001
00100
01000
00001
10000
01000
00100
00010
00100
10000
,
01110
00000
00010
01000
00010
01000
00001
10000
00001
10000
00001
00010
00100
00010
01000
00100
,
00010
00001
01000
10000
00100
00010
10000
00100
00010
10000
00001
00010
00100
01000
00100
00001
,
01110
10000
01000
00001
00010
00100
00010
00100
01000
00010
00100
01000
00100
01000
10000
01000
,
01110
00001
00010
10000
01000
00100
01000
00100
00010
01000
00100
00010
00100
00010
00001
00010
,
01110
10000
00011
00100
01000
00100
00010
00100
11000
00100
10000
00011
00100
01000
00100
00010
,
10101
00001
11000
00100
00010
00100
01000
00100
00011
00100
00001
11000
00100
00010
00100
01000
,
10101
01000
10000
00100
01000
10000
00100
01000
10011
00100
00010
00001
00100
00010
00001
10000
,
01110
00010
00001
00010
00100
00001
00010
00100
11000
00001
00010
00100
10000
01000
00100
00010
,
10101
11000
10001
00101
,
00011
00000
10100
00000
00011
00000
10100
00000
00011
10100
00011
10100
00011
10100
00011
10100
,
11111
00000
00000
00000
,
01110
00001
00010
00100
00010
00001
00010
00001
11100
01000
00100
00010
01000
00100
00010
01000
,
10101
01000
00100
00010
00100
01000
10000
01000
00111
10000
00001
10000
01000
00010
01000
00100
,
02220
00000
03330
20002
00000
30003
02020
00000
00000
00000
00000
00200
03030
00000
01310
10000
,
00001
00010
00100
00010
01000
00100
00010
01000
00010
00100
01000
00100
00010
01000
00010
00100
,
10101
00010
00001
00100
00001
00010
00001
00010
11100
10000
00100
00001
10000
00100
00001
10000
,
01110
10000
00100
00001
00100
10000
01000
10000
00111
01000
00010
01000
10000
00001
10000
00100
,
20202
00000
30303
02020
00000
03030
20002
00000
00000
00000
00000
00200
30003
00000
10301
01000
,
00010
00001
00100
00001
10000
00100
00001
10000
00001
00100
10000
00100
00001
10000
00001
00100
,
01110
10000
00100
01000
00020
00030
20000
30100
00010
00001
02000
13000
00200
10300
00020
10030
,
20202
00000
00000
00000
30303
00000
01000
00000
00000
00100
00000
00000
00002
00000
00000
10003
00000
00000
02000
00000
00000
03010
00000
00000
00100
00000
00000
10000
00000
00000
01002
00000
00000
00103
00000
00000
00020
00000
00000
00130
00000
00000
02000
00000
00000
03000
00000
00000
,
02220
03330
00001
01000
20000
30010
00002
01003
00100
01000
00200
00301
02000
03001
00200
00301
,
00020
00031
00100
01000
20000
30000
00200
00300
00002
00003
00020
00030
00100
01000
10000
01000
,
01110
00001
00100
00010
02000
03000
00002
00103
01000
10000
00020
00031
00200
00301
02000
03001
,
20202
00000
00000
00000
30303
00000
00010
00000
00000
00100
00000
00000
20000
00000
00000
30001
00000
00000
00020
00000
00000
01030
00000
00000
00100
00000
00000
00001
00000
00000
20010
00000
00000
30100
00000
00000
02000
00000
00000
03100
00000
00000
00020
00000
00000
00030
00000
00000
,
02220
03330
10000
00010
00002
00013
20000
30010
00100
00010
00200
10300
00020
10030
00200
10300
,
02000
13000
00100
00010
00002
00003
00200
00300
20000
30000
02000
03000
00100
00010
00001
00010
,
01110
00010
00100
00001
00010
00100
01000
00100
00011
01000
00100
10000
01000
00100
00010
00100
,
11000
00001
00010
01000
00010
00100
00010
01000
10101
10000
01000
00010
01000
00100
01000
00010
,
01110
00001
00010
10000
01000
00001
00010
00001
10110
10000
01000
00001
00010
10000
01000
10000
,
01101
10000
00100
00100
10000
10000
00010
00100
11011
00001
00100
00100
00001
00001
01000
00100
,
20000
30010
00100
01000
00021
00030
12000
03000
00100
01000
00012
00003
21000
30000
02010
03000
,
10201
00300
00010
01000
00002
00003
01200
10300
01000
00100
02010
03000
01020
00030
00100
00010
,
02000
03001
00010
00100
02000
03000
10200
00300
00001
00010
02000
03100
20000
30010
00200
01300
,
00002
10003
00200
00310
02000
13000
00200
01300
00020
00031
00200
00310
01000
00100
00020
00130
,
00002
01003
00100
00010
12000
03000
00021
00030
00100
00010
21000
30000
00022
00033
01020
00030
,
01210
00300
01000
00010
20000
30000
00210
00301
00010
00100
01020
00030
02010
03000
00100
01000
,
00020
10030
01000
00100
00020
00030
00201
00300
10000
01000
00020
00130
00002
01003
00200
00310
,
20000
30001
00200
01300
00020
00031
00200
00310
02000
13000
00200
01300
00010
00100
02000
03100
,
02220
00000
03330
00100
20000
30100
00020
00130
00000
00000
00200
00300
00200
00300
00020
00031
,
00200
00301
00000
00000
02000
13000
00200
10300
00000
00000
00002
01003
00200
00310
20000
30001
,
02000
03001
00200
00301
00020
00031
00002
10003
00020
10030
00200
10300
02000
13000
20000
30000
,
01000
00001
00100
00001
01000
00001
00100
00001
01000
00001
00100
00001
01000
00001
00100
00001
,
11100
00010
00100
01000
00100
01000
00100
00010
00002
00103
00020
00130
20000
30100
02000
03100
,
20202
00000
30303
00000
00100
01000
00010
00100
02020
03030
20200
30300
00202
00303
02020
03030
,
10200
00300
02001
03000
10020
00030
00201
00300
12000
03000
00201
00300
21012
30003
00100
00000
,
01110
10000
00001
00010
10000
01000
00100
00000
01010
00100
01010
00000
10001
00100
10001
00000
,
01110
01000
00100
00010
00100
00010
00100
01000
20000
30100
02000
03100
00002
00103
00020
00130
,
02220
00000
03330
00000
00100
00010
01000
00100
20002
30003
00202
00303
20200
30300
20002
30003
,
00201
00300
10020
00030
02001
03000
10200
00300
00021
00030
10200
00300
12021
03030
00100
00000
,
10101
00001
10000
01000
00001
00010
00100
00000
10001
00100
10001
00000
01010
00100
01010
00000
,
01110
00001
00100
10000
00100
10000
00100
00001
00020
00130
00002
00103
02000
03100
20000
30100
,
02220
00000
03330
00000
00100
10000
00001
00100
20002
30003
02200
03300
00220
00330
20002
30003
,
01200
00300
20010
30000
01002
00003
00210
00300
21000
30000
00210
00300
12021
03030
00100
00000
,
10101
01000
00010
00001
01000
10000
00100
00000
01001
00100
10010
00000
01001
00100
10010
00000
,
01000
00100
10000
01000
00100
10000
00001
00010
00001
00010
00001
00010
01000
00100
01000
00100
,
00010
10000
00010
10000
00010
10000
00100
00010
01000
00100
00010
00100
10001
01000
00010
01000
,
00100
00000
20000
30000
00200
00300
00002
00003
20000
30000
00200
00300
00002
00003
20000
30000
00200
00300
00002
00003
20000
30000
00200
00300
00002
00003
20000
30000
00200
00300
00002
00003
,
00200
00300
00002
00003
00200
00300
20000
30000
00002
00003
00200
00300
20000
30000
00002
00003
00200
00300
20000
30000
00002
00003
00200
00300
20000
30000
00002
00003
00200
00300
20000
30000
,
10201
00000
00300
00010
02000
03000
00200
00300
00001
01000
00020
00030
00200
00300
02000
03000
,
00200
00300
01000
00100
00002
00003
02000
03000
00010
00100
20000
30000
00020
00030
00200
00300
,
02000
03000
00100
01000
20000
30000
00002
00003
00100
00010
00002
00003
00020
00030
00200
00300
,
20000
30000
02000
03000
00200
00300
00020
00030
00002
00003
00020
00030
00200
00300
02000
03000
,
10201
00000
00300
01000
00020
00030
00200
00300
10000
00010
02000
03000
00200
00300
00020
00030
,
00200
00300
00010
00100
20000
30000
00020
00030
01000
00100
00002
00003
02000
03000
00200
00300
,
00020
00030
00100
00010
00002
00003
20000
30000
00100
01000
20000
30000
02000
03000
00200
00300
,
00002
00003
00020
00030
00200
00300
02000
03000
20000
30000
02000
03000
00200
00300
00020
00030
,
02220
03330
01000
00100
00020
00130
21000
30100
00010
00000
02100
03000
00102
00003
10200
00300
,
02001
03100
01000
00100
00021
00030
21000
30100
00010
00100
02000
03100
00020
00130
00200
00301
,
02000
13000
00100
00010
21000
30000
01200
00300
00010
00100
01002
00003
01200
00300
21000
30000
,
02100
03000
00210
00300
00021
00030
02100
03000
10200
00300
10020
00030
10002
00003
10120
00030
,
02020
03030
00100
00100
02020
03030
20002
30003
01000
00010
02002
03003
20020
30030
02202
03303
,
20220
30330
01000
00100
00022
00133
22000
33000
00100
00001
02120
03030
20102
30003
02120
03030
,
20102
30003
00001
00100
10000
00100
00001
00100
10000
00100
00001
01000
00100
00010
00100
01000
,
00100
00010
00100
01000
00100
00010
00100
01000
00100
00010
00100
01000
00200
00000
00000
00000
00000
00000
00000
00000
00000
00000
00000
00000
,
00000
00000
00300
00000
20002
31003
00100
00010
01000
00100
00010
00100
01010
10001
00010
00100
,
01000
00001
00100
10010
00200
10301
01000
00010
00002
00103
02000
03010
00100
01000
20000
30100
,
00020
00031
00100
01000
20102
30013
01000
00100
00020
10030
02000
03001
00100
10000
02010
03100
,
00020
10030
01002
00103
00010
00100
01000
00010
20200
30301
02020
03031
00202
10303
00010
01000
,
02120
03030
00100
01000
00010
00100
01000
00100
01010
10001
01000
00100
00010
10000
00100
01001
,
00200
10301
00010
01000
20000
30100
00020
01030
00100
00010
00002
00103
02000
13000
00100
00010
,
20102
31003
00010
00100
02000
03001
00020
10030
00100
00001
00020
01130
02000
03001
20010
30100
,
01000
00100
00010
01000
00202
10303
02020
13030
20200
30301
01000
00010
01110
10001
01010
00100
,
10101
10000
01000
00100
00111
01000
00010
00100
00001
00010
00100
01000
11100
00010
00100
01000
,
10000
00100
00010
01000
00111
00100
00010
00001
00100
01000
10000
01000
10010
01001
10010
01001
,
10010
00100
00100
00100
01110
00010
00001
00100
01000
10000
00100
00010
01000
00100
10000
00100
,
00020
01030
02000
03010
10101
00010
01000
00100
01000
00100
00010
00100
00010
00100
01000
00100
,
10001
01010
00100
00100
11011
00001
00100
10000
02020
03130
20002
30103
00010
01000
00100
00010
,
02002
03103
00010
01000
20220
30331
00100
10000
02000
03010
02202
13313
01000
10000
00001
00010
,
02020
03130
20002
30103
01110
00001
00010
00100
10000
00010
20202
30313
01000
00100
00010
00001
,
01100
00000
00001
00000
00110
00000
10000
00000
01100
00000
00001
00000
00010
00000
10000
00000
01000
00000
00001
00000
00010
00000
00100
00000
10010
01001
01010
10001
01110
00000
10101
00000
,
02220
13330
00010
01000
00022
01033
20200
30310
01000
00001
20200
31300
00022
01033
02200
03310
,
01010
00001
00100
01000
20002
30103
02020
03130
00001
10000
02020
13030
00202
00313
20200
30310
,
01110
10000
01000
00100
00011
00100
11000
00100
00010
00001
11100
00010
10001
01000
10001
00100
,
02020
03130
01000
00010
10001
00100
01001
00010
00101
01000
00011
10000
00101
00010
01001
00010
,
20002
30103
01000
00010
22000
33010
00202
01303
00010
10000
00202
00313
22000
33000
00220
01330
,
01010
10000
00100
00010
20002
30103
02020
03130
10000
00001
02020
03031
20200
31300
00202
01303
,
01110
00001
00010
00100
11000
00100
00011
00100
01000
10000
11100
01000
10001
00010
10001
00100
,
02020
03130
00010
01000
10001
00100
10010
01000
10100
00010
11000
00001
10100
01000
10010
01000
,
20202
30303
00010
00000
00100
00000
00010
00000
00100
00000
01000
00000
20000
30000
00200
00300
00001
00000
00010
00000
02000
03000
00100
00000
00002
00003
10000
00000
00020
00030
00100
00000
,
20000
30000
01000
00000
00001
00000
00010
00000
00200
00300
10000
00000
02020
03030
00001
00000
00010
00000
00100
00000
20000
30000
00010
00000
02000
03000
00001
00000
00200
00300
10000
00000
,
02002
03003
00100
00000
01000
00000
00100
00000
20020
30030
00100
00000
02002
03003
00010
00000
10000
00000
01000
00000
00200
00300
00010
00000
02000
03000
00100
00000
00020
00030
10000
00000
,
00200
00300
00001
00000
20000
30000
00100
00000
00002
00003
01000
00000
00020
00030
00100
00000
02000
03000
00001
00000
00200
00300
10000
00000
00002
00003
01000
00000
00200
00300
00001
00000
,
02120
03030
00001
00000
00100
00000
00001
00000
00100
00000
10000
00000
02000
03000
00200
00300
00010
00000
00001
00000
20000
30000
00100
00000
00020
00030
01000
00000
00002
00003
00100
00000
,
02000
03000
10000
00000
00010
00000
00001
00000
00200
00300
01000
00000
20002
30003
00010
00000
00001
00000
00100
00000
02000
03000
00001
00000
20000
30000
00010
00000
00200
00300
01000
00000
,
20020
30030
00100
00000
10000
00000
00100
00000
02002
03003
00100
00000
20020
30030
00001
00000
01000
00000
10000
00000
00200
00300
00001
00000
20000
30000
00100
00000
00002
00003
01000
00000
,
00001
00100
10000
00001
00100
10000
01000
00100
00010
01000
00100
00010
00001
00100
10000
00001
00100
10000
01000
00100
00010
00001
00010
00100
,
20202
30303
00000
00000
00000
00000
00000
00000
00020
00030
00200
00300
02000
03000
00200
00300
,
00020
00030
00000
00000
00000
00000
00000
00000
00002
00003
00020
00030
20000
30000
02000
03000
,
00202
00303
00000
00000
00000
00000
00220
00330
00000
00000
00000
00000
02200
03300
00022
00033
,
02200
03300
00000
00000
00000
00000
00000
00000
20000
30000
02000
03000
00200
00300
00002
00003
,
00200
00300
00000
00000
00000
00000
00000
00000
20000
30000
00200
00300
00002
00003
00200
00300
,
02020
03030
00000
00000
00000
00000
20002
30003
00000
00000
00000
00000
02020
03030
00000
00000
,
02020
00000
20002
00000
,
00200
00000
00000
00000
33333
00000
00000
00000
20200
30300
00022
00033
20200
30300
00022
00033
,
02220
03330
00000
00000
00000
00000
00000
00000
00202
00303
20002
30003
20200
30300
02200
03300
,
00220
00330
00000
00000
00000
00000
00000
00000
02002
03003
20020
30030
02202
03303
20220
30330
,
20202
30303
00000
00000
00000
00000
02220
03330
00000
00000
00000
00000
22002
33003
20022
30033
,
20202
30303
00000
00000
00000
00000
00000
00000
00002
00003
00200
00300
20000
30000
02000
03000
,
00022
00033
00000
00000
00000
00000
00022
00033
00000
00000
00000
00000
00222
00333
00000
00000
,
22200
33300
00000
00000
00000
00000
20202
30303
00000
00000
00000
00000
00020
00030
02000
03000
,
02220
03330
00000
00000
00000
00000
02000
03000
00000
00000
00000
00000
00020
00030
00200
00300
,
20220
00000
00000
30330
00000
00000
00000
00000
20002
30003
00000
02020
03030
00200
00300
00000
,
20202
00000
00000
00000
,
00000
30303
00000
00000
00000
00000
00000
00000
;
