#TITLE:JET WORLD;
#SUBTITLE:-Boss Edition-;
#ARTIST:Mutsuhiko Izumi;
#TITLETRANSLIT:;
#SUBTITLETRANSLIT:;
#ARTISTTRANSLIT:;
#CREDIT:;
#BANNER:JET WORLD.png;
#BACKGROUND:JET WORLD-bg.png;
#LYRICSPATH:;
#CDTITLE:kyo-cdtitle.png;
#MUSIC:JET WORLD.mp3;
#OFFSET:-0.215;
#SAMPLESTART:3.560;
#SAMPLELENGTH:12.000;
#SELECTABLE:YES;
#BPMS:0.000=137.970;
#STOPS:;
#BGCHANGES:;
// cache tags:
#FIRSTBEAT:4.000;
#LASTBEAT:197.521;
#SONGFILENAME:Songs/new cc/JET WORLD -Boss Edition-/JET WORLD.sm;
#HASMUSIC:1;
#HASBANNER:1;
#MUSICLENGTH:88.241;
// end cache tags

//---------------dance-single - yipe!----------------
#NOTES:
     dance-single:
     yipe!:
     Challenge:
     9:
     0.722,0.923,0.238,0.215,0.510,405.000,21.000,19.000,0.000,3.000:
0000
0000
0000
0000
,
1001
0010
0110
1000
1001
0000
0020
0000
,
0130
0000
0200
0000
0310
1000
0010
0100
,
0001
0100
0020
0000
1030
0001
0100
1000
,
0010
0100
1000
0000
0010
0100
0001
0100
,
0001
0100
0010
1000
0001
0010
0100
0010
0100
0001
0100
0010
0100
0010
1000
0010
,
1000
0000
0020
0000
1000
0000
0100
0030
0000
0000
0100
0010
0002
0000
0000
0003
,
0100
0010
0100
1000
0010
0100
2000
0000
,
3100
0010
0100
0000
0001
0000
0100
0000
0010
0000
0200
0000
0001
0000
0000
0000
,
0010
0300
0100
0000
1000
0000
0100
0000
0100
1000
0000
0001
0100
0000
0001
0000
,
0100
0001
0000
0100
0010
0000
1000
0010
0000
0100
0010
0000
0100
0000
0001
0000
,
0100
0010
0000
0100
0010
0000
0100
0001
0000
0100
0010
0000
1000
0000
0010
0000
,
1000
0010
0000
1000
0010
0000
0100
0010
0000
0100
0001
0000
0100
0000
0010
0000
,
0100
0001
0000
0100
0001
0000
0010
1000
0100
0000
1000
0100
0000
0001
0100
0000
,
0020
0000
1000
0000
0100
0000
0031
0100
1000
0000
0010
0000
0100
0000
1000
0000
,
0100
0010
0100
0001
0100
0010
0200
0000
,
1000
0010
0001
0310
,
0001
0100
0010
1000
0002
0000
0103
0000
,
1100
0101
0110
0101
,
1000
0000
0100
0000
0010
0000
0100
0010
0000
0100
0010
0000
0001
0000
0100
0000
,
0020
0000
1000
0000
0100
0000
1000
0030
,
0001
0000
0100
0001
0000
0000
0100
0000
1000
0000
0100
1000
0000
0000
0001
0000
,
0100
0100
0010
0100
0001
0100
0010
1000
,
0100
1000
0100
1000
0100
1000
0100
1000
,
0100
1000
0001
0100
1000
0100
0001
0100
,
1000
0010
0001
0010
1000
0010
0001
0010
,
0100
0001
0010
0100
1000
0100
1000
0010
,
1010
0000
0110
0000
0001
0100
0110
0000
,
0001
0000
0100
0000
1010
0000
1000
0010
0000
0100
0010
0000
0001
0000
0100
0000
,
0010
0000
0100
0000
1000
0000
0100
0010
0000
0100
0001
0000
0100
0000
0010
0000
,
1000
0000
1000
0000
0010
0000
1000
0010
0000
1000
0010
0000
0001
0000
0100
0000
,
0010
0000
0100
0000
0010
0000
0200
0000
0000
0000
0000
0000
0002
0003
0300
0000
,
1000
0100
0001
0100
0010
0100
1000
0100
1000
0000
0001
0000
0100
0000
0010
0000
,
0001
0000
0100
0010
1000
0010
0010
0100
0010
1000
0000
0010
0001
1000
0100
0000
,
0010
0100
0010
0100
0001
0100
0000
0010
0100
1010
0010
1000
0010
0100
0010
0100
,
0001
0100
0010
0100
0010
1000
0010
1000
0010
0100
0010
0100
0001
0100
0010
0100
,
0001
0000
0002
0000
0010
0000
0100
0000
1000
0000
0010
0003
2000
0000
0010
0000
,
0100
0000
0001
3000
0100
0001
0000
0100
0000
0001
0100
0000
0010
0000
1000
0000
,
0020
0000
1000
0000
0101
0000
0000
0031
0000
0000
0100
0001
0000
0000
0000
1101
,
0100
0000
0000
0100
0000
0000
1100
0000
0101
0000
0000
0101
0000
0000
0110
0000
,
1000
0000
0010
0000
0100
0000
0010
0000
0100
0000
0001
0100
0000
0001
0100
0000
,
1000
0000
0100
0000
1000
0000
0010
0000
1000
0000
0000
1000
0010
1000
0010
0000
,
1000
0000
0010
0000
0100
0000
0010
0000
0100
0000
0001
0100
0010
0100
0000
0001
,
0100
0010
1000
0100
0001
0100
0010
1000
,
0200
0000
0000
0000
2000
0000
0000
0000
0001
0000
0000
0000
0000
3300
0000
0000
,
0101
0000
0000
0100
0101
0000
0101
0000
,
1000
0000
0100
0000
1000
0000
1000
0010
0000
1000
0010
0000
0100
0000
0010
0000
,
0100
0000
0001
0000
0100
0000
0010
1000
0000
1000
0010
0000
0001
0000
0100
0000
,
0010
0000
0100
0000
0001
0000
0100
0010
0000
0100
0001
0000
0100
0000
0010
0000
,
1000
0000
0000
0000
0000
0000
0000
0000
0000
0000
0000
0000
0100
0000
0000
0000
0000
0000
0000
0000
0000
0000
0000
0000
0010
0000
0000
0000
0000
0000
0000
0000
0000
0000
0000
0000
0100
0000
0000
0000
0000
0000
0000
0000
0000
0000
0000
0000
0001
0000
0000
0000
0000
0000
0000
0000
0000
0000
0000
0000
0100
0000
0000
0000
0000
0000
0000
0000
0000
0000
0000
0000
0020
0030
0000
0000
0000
0000
0000
0000
0000
0000
0000
0000
0000
0000
0000
0000
0000
0000
0000
0000
0000
0000
0000
0000
0000
0000
0000
0000
0000
0000
0000
0000
0000
0000
0000
0000
0000
0000
0000
0000
0000
0000
0000
0000
0000
0000
0000
0000
0000
0000
0000
0000
0000
0000
0000
0000
0000
0000
0000
0000
0000
0000
0000
0000
0000
0000
0000
0000
0000
0000
0000
0000
0000
0000
0000
0000
0000
0000
0000
0000
0000
0000
0000
0000
0000
0000
0000
0000
0000
0000
0000
0000
0000
0000
0000
0000
0000
0000
0000
0000
0000
0000
0000
0000
0000
0000
0000
0000
0000
0000
0000
0000
0000
0000
0000
0000
0000
0000
0000
0000
;
