#TITLE:Heart of A Dragon;
#SUBTITLE:Valley Of The Damned;
#ARTIST:Dragonforce;
#TITLETRANSLIT:;
#SUBTITLETRANSLIT:;
#ARTISTTRANSLIT:;
#CREDIT:;
#BANNER:dragonfull.png;
#BACKGROUND:dragonfull-bg.png;
#LYRICSPATH:;
#CDTITLE:mslogo.png;
#MUSIC:dragonfull.mp3;
#OFFSET:-0.215;
#SAMPLESTART:78.000;
#SAMPLELENGTH:20.000;
#SELECTABLE:YES;
#BPMS:0.000=195.000,352.000=196.000,384.000=194.800,412.000=195.000,928.000=195.500;
#STOPS:;
#BGCHANGES:;
// cache tags:
#FIRSTBEAT:0.000;
#LASTBEAT:1040.000;
#SONGFILENAME:Songs/CMDKDF Pack/Heart Of A Dragon (Mysticsnake)/dragonfull.sm;
#HASMUSIC:1;
#HASBANNER:1;
#MUSICLENGTH:322.909;
// end cache tags

//---------------dance-single - ----------------
#NOTES:
     dance-single:
     :
     Challenge:
     15:
     1.000,1.000,1.000,0.307,1.000,2976.000,675.000,99.000,0.000,1.000:

1010
1000
1000
1000
,
1000
0000
0000
0000
1000
0000
0000
0000
1000
0000
0100
0010
1000
0000
0000
0000
,
1010
0010
0010
0010
,
0010
0000
0000
0000
0010
0000
0000
0000
0010
0000
0100
1000
0010
0000
0000
0000
,
0101
0100
0100
0100
,
0100
0000
0000
0000
0100
0000
0000
0000
0100
0000
0001
0010
0100
0000
0000
0000
,
1001
0000
0000
0000
0001
0000
0000
0000
0001
0000
0000
0000
0001
0010
0100
0010
,
0001
0010
0001
0000
1100
0000
0110
0000
,
0011
0000
0000
0000
0010
0000
0000
0000
0010
0000
0000
0000
0010
0100
1000
0100
,
1010
0000
0000
0000
1000
0000
0000
0000
1000
0000
0000
0000
1000
0100
0010
0100
,
0011
0000
0000
0000
0001
0000
0000
0000
0001
0000
0000
0000
0001
0100
0010
0100
,
1001
0000
0000
0000
1000
0000
0000
0000
1000
0000
0000
0000
1000
0100
0010
0100
,
1010
0000
0000
0000
0010
0000
0000
0000
0010
0000
0000
0000
0010
0001
1000
0001
,
0110
0000
0000
0000
0100
0000
0000
0000
0100
0000
0000
0000
0100
0010
0001
1000
,
0210
0010
0001
0010
0001
0010
0001
0010
,
0001
0010
0001
0010
0301
0000
0010
0000
,
1100
0000
0100
0000
0010
1000
0110
0000
0100
0000
0010
0000
0011
0100
1000
0000
,
0101
0000
0010
0000
1010
0100
0110
0000
0010
0000
0001
0000
0010
0100
1000
0000
,
1010
0000
0010
0000
1000
0100
0011
0000
1000
0000
0010
0000
1100
0010
0001
0000
,
1001
0000
0010
0000
1100
0001
0101
0000
0010
0000
1000
0000
0110
1000
0001
0000
,
1001
0000
0010
0000
0100
0010
1001
0000
0100
0000
0010
0000
1100
0001
1000
0000
,
0011
0000
1000
0000
0001
1000
0110
0000
0001
0000
0010
0000
1100
0010
0100
0000
,
1001
0000
0010
0000
0001
0010
0100
0000
1000
0000
0010
0000
1000
0100
0010
0000
,
1001
0010
0100
1000
0001
0010
0100
0010
1100
0010
1000
0001
0110
1000
0100
1000
,
0011
0000
0010
0000
0010
0100
1010
0000
0010
0000
0100
0000
1100
0010
0001
0000
,
0011
0000
0010
0000
0100
1000
0001
0000
1100
0000
0100
0000
0110
0001
1000
0000
,
0011
0000
1000
0000
0001
1000
0011
0000
0100
0000
0010
0000
1001
0010
0100
0000
,
0011
0000
0010
0000
1000
0100
0010
0000
1010
0000
0100
0000
0110
0001
1000
0000
,
0011
0000
1000
0000
0001
1000
0110
0000
0010
0000
1000
0000
0011
0100
1000
0000
,
1001
0000
0010
0000
0100
1000
0011
0000
0010
0000
1000
0000
0110
0001
1000
0000
,
1100
0000
0100
0000
0001
0010
0100
0000
1000
0000
0100
0000
0001
0010
0100
0000
,
0011
1000
0100
0010
0001
0100
0010
1000
0110
0001
0010
0001
0110
1000
1100
0000
,
1010
0000
1010
0000
0000
1010
0000
0000
1010
0000
0100
0000
1001
0000
1000
0000
,
0101
0010
1010
1001
0010
0100
1010
0010
,
0101
1100
0010
1000
0101
0010
1010
0001
,
0011
0010
1100
0011
0100
0010
1100
0100
,
0011
0000
0000
0011
0000
0000
0011
0000
1000
0000
0100
0000
1001
0000
0010
0000
,
1100
0100
1010
0101
0010
1000
1001
0100
,
0011
0000
0100
0000
1000
0000
0101
0000
0001
0000
0100
0000
1001
0010
1000
0000
,
1010
0001
0010
0100
1000
0001
0010
0100
1000
0100
0010
0001
0010
0100
1000
0100
,
0011
0000
0100
0000
1001
0010
1001
0000
0010
0000
1000
0000
1100
0010
0001
0000
,
0011
0000
1000
0000
0110
0001
1100
0000
0001
0000
0010
0000
1100
0001
0100
0000
,
1010
0000
1000
0000
1100
0010
1001
0000
1000
0000
0001
0000
0110
0001
1000
0000
,
0011
0000
1000
0000
0110
0001
1010
0000
0001
0000
0010
0000
1100
0001
0010
0000
,
0011
0000
1000
0000
1100
0010
0101
0000
0010
0000
0001
0000
1100
0010
0001
0000
,
0011
0000
0110
0000
0001
0010
1100
0000
0010
0000
1000
0000
0011
0100
1000
0000
,
0110
0000
0001
0000
0010
0001
1100
0000
0010
0000
0100
0000
1010
0100
0010
0000
,
0101
0010
1000
0100
0010
0001
1000
0100
0010
0001
0010
0100
1000
0000
0010
0000
,
1100
0010
0001
0010
0001
0010
0101
0010
0100
0010
0100
0010
1100
0010
0100
0010
,
1001
0100
0001
0100
0001
0100
0001
0100
1010
0001
1000
0001
0110
1000
0100
1000
,
0011
1000
0001
1000
0001
1000
0110
0001
0010
0001
0010
0001
1100
0010
0100
0010
,
0101
0010
1000
0010
1000
0010
1000
0010
0101
0010
0100
0010
1100
0001
0100
0001
,
1010
0100
0001
0100
0001
0100
1001
0010
0001
0010
0001
0010
1100
0010
0100
0010
,
1100
0001
1000
0001
1000
0001
0110
0001
0010
0001
0010
0001
1100
0010
0001
0010
,
1100
0010
1000
0010
1000
0010
0101
0010
1000
0010
1000
0010
1001
0100
0010
0100
,
1001
0010
0100
0010
0100
0010
0100
0010
1001
0100
1000
0100
0011
1000
0010
1000
,
0101
0010
1000
0010
1001
0010
0100
0010
0100
0010
1100
0010
0100
0010
0100
0010
,
1001
0010
0001
0010
0001
0010
0001
0010
1100
0001
0010
0001
0110
1000
0100
1000
,
0011
1000
0001
1000
0001
1000
0110
0001
0010
0001
0010
0001
1100
0010
1000
0010
,
1001
0100
0010
0100
0010
0100
0010
0100
0010
0100
0010
0100
1010
0001
0100
0001
,
0110
1000
0001
1000
0001
1000
0110
0001
0010
0001
0010
0001
1100
0001
0100
0001
,
1010
0100
0001
0100
0001
0100
0011
0100
1000
0100
1000
0100
1010
0100
0010
0100
,
0011
1000
0100
0010
0001
0100
0010
1000
0100
0010
0001
0100
0010
1000
0100
0010
,
0001
0010
0100
1000
0010
0100
0001
0010
0100
1000
0100
0010
0100
1000
0001
0010
,
2200
0000
3300
0022
0000
0033
2002
3003
,
0220
0000
0330
0000
2200
3300
0202
0000
0000
0000
0000
0000
0000
0000
0303
0000
,
1010
0000
0001
0000
1000
0000
0110
0000
0001
0000
0100
0000
1010
0000
0100
0010
,
1001
0000
0010
0000
1100
0000
0101
0000
0010
0000
0001
0000
1100
0000
0001
1000
,
0110
0000
0001
0000
0010
0000
1100
0000
0010
0000
0100
0000
1001
0000
0100
0001
,
1010
0100
1010
0010
1001
0100
1010
0100
,
1001
0010
1000
0010
1000
0010
1000
0010
1000
0010
1000
0010
1000
0100
0010
0100
0010
0100
0010
0001
0010
0001
0010
0001
,
0010
0100
1000
0100
1000
0100
1000
0100
0010
0100
0010
0100
0010
0001
0010
0001
0010
0001
0110
0000
0000
0000
0000
0000
,
1100
0000
0010
0000
0100
1000
0011
0000
0100
0000
0001
0000
1010
0100
0010
0000
,
0101
0000
0010
0000
1000
0001
0010
0000
1100
0000
0001
0000
0110
0001
1000
0000
,
0011
0000
0100
0000
0010
0100
1001
0000
0010
0000
0100
0000
1010
0001
0100
0000
,
0101
0000
0010
0000
1000
0100
0010
0000
1100
0000
0010
0000
0011
0100
1000
0000
,
0110
0000
0001
0000
1000
0001
0110
0000
0001
0000
0100
0000
0011
0100
1000
0000
,
0101
0000
0010
0000
0100
0001
1010
0000
0100
0000
0001
0000
1100
0010
0001
0000
,
1001
0000
0100
0000
0001
0010
0100
0000
1000
0000
0001
0000
0010
0100
1000
0000
,
1000
0100
0010
0001
1000
0100
0010
0001
1010
0100
1000
0010
1100
0001
0010
0100
,
1010
0000
0100
0000
0001
0010
1100
0000
0010
0000
1000
0000
0011
0100
1000
0000
,
1100
0000
0010
0000
0001
0010
0100
0000
0110
0000
1000
0000
0011
0100
1000
0000
,
1001
0000
0100
0000
1000
0100
1001
0000
0100
0000
0010
0000
1100
0010
0001
0000
,
0011
0000
0100
0000
0001
0010
0100
0000
1100
0000
0010
0000
0110
0001
1000
0000
,
0011
0000
0100
0000
0001
1000
0110
0000
0010
0000
0100
0000
1100
0010
0001
0000
,
0011
0000
1000
0000
0010
1000
0101
0000
0010
0000
0100
0000
1010
0100
0001
0000
,
1001
0000
0010
0000
1000
0100
0010
0000
1000
0000
0001
0000
0010
0100
1000
0000
,
1000
0100
0010
0001
1000
0100
0010
0001
0100
0010
1000
0100
1010
0100
1000
0100
,
1010
0000
0100
0000
1010
0000
1010
0000
0000
1000
0100
0010
1001
0000
0010
0000
,
0101
0000
0010
0000
1100
0000
1010
0000
0000
0100
0010
0001
0110
0000
0001
0000
,
1100
0000
0001
0000
0110
0000
0011
0000
0000
0010
0100
1000
0110
0000
1000
0000
,
0011
0000
1000
0000
0110
0000
1100
0000
0000
1000
0100
0010
0101
0000
0010
0100
,
1010
0001
1010
0100
1000
0000
0001
0000
0110
0001
1000
0100
0011
0000
1000
0000
,
0011
0000
0110
0000
0001
0000
1100
0000
0000
0010
1000
0001
0110
0000
1000
0100
,
0011
0100
1000
0000
0010
0000
0101
0000
0010
0000
0100
0000
1001
0000
0100
0000
,
1010
0001
0010
0100
1000
0001
0010
0100
1001
0100
0010
0100
1010
0001
0010
0100
,
1010
0000
0110
0000
0001
0010
0100
0000
1001
0000
0100
0000
0011
0100
1000
0000
,
1001
0000
0010
0000
1100
0010
0101
0000
0010
0000
1000
0000
0101
0010
1000
0000
,
1100
0000
1010
0000
1001
0010
0100
0000
0011
0000
0010
0000
1100
0010
0001
0000
,
0011
0000
1001
0000
0001
0010
1100
0000
0001
0000
0010
0000
1100
0010
0001
0000
,
0011
0000
0100
0000
1010
0001
0101
0000
0010
0000
1000
0000
0110
0001
1000
0000
,
0011
0000
0110
0000
0001
0010
1100
0000
0010
0000
0001
0000
1100
0010
0001
0000
,
0011
0000
0100
0000
1000
0001
0110
0000
0010
0000
0001
0000
1100
0010
0001
0000
,
0101
1000
0100
0010
0001
0010
0100
0010
0101
1000
0100
0010
1100
0000
0010
0000
,
0011
1000
0001
1000
0001
1000
0110
1000
0010
1000
0010
1000
0101
0010
1000
0010
,
0101
1000
0001
1000
0001
1000
0001
1000
0110
0001
1000
0001
1010
0100
0001
0100
,
1001
0010
0100
0010
0100
0010
0101
0010
1000
0010
1000
0010
0101
1000
0001
1000
,
0101
0010
0100
0010
0100
0010
0100
0010
1001
0100
0010
0100
1010
0100
0001
0100
,
1010
0100
0001
0100
0001
0100
1001
0100
0010
0100
0010
0100
0011
0100
1000
0100
,
1001
0100
0001
0100
0001
0100
1010
0100
0001
0100
0001
0100
0011
0100
1000
0100
,
1010
0100
0001
0100
0001
0100
0011
0100
1000
0100
1000
0100
1001
0010
0100
0010
,
1100
0010
0001
0010
0001
0010
0001
0010
0101
0010
1000
0010
0101
0010
1000
0010
,
0101
0010
0001
0010
0001
0010
1100
0001
1000
0001
1000
0001
1010
0100
0001
0100
,
1010
0001
1000
0001
1000
0001
0110
0001
1000
0001
1010
0100
0001
0100
0011
0100
,
1000
0100
1000
0100
1001
0010
0100
0010
0100
0010
0101
0010
1000
0010
1100
0010
,
0001
0010
0001
0010
0001
0010
0001
0010
0001
0010
1001
0010
0100
0010
1100
0010
,
0001
0010
0001
0010
1100
0010
0001
0010
0001
0010
1001
0100
1000
0100
0011
0100
,
0010
0100
0010
0100
0011
1000
0001
1000
0001
1000
0110
0001
0100
0001
0110
0001
,
1000
0001
1000
0001
1000
0001
1000
0001
1000
0001
1000
0001
1000
0010
1000
0100
,
1000
0100
0010
0001
1000
0100
0010
0001
0100
0010
1000
0100
0010
0001
0010
0100
,
2002
0000
3003
2200
0000
3300
0022
0033
,
2200
0000
3300
0000
0022
0033
2200
0000
3300
0010
0100
1000
0100
0010
0001
0010
,
1100
0000
0100
0000
0010
0000
0011
0100
1000
0000
0010
0000
1001
0000
0001
0010
,
1100
0000
0010
0000
0011
0000
1100
0000
0010
0000
1000
0010
0101
0000
0010
0000
,
1010
0000
0001
0000
0100
0000
1001
0000
0010
0000
0100
0000
0011
0000
0001
0010
,
1100
0101
0010
0001
1100
0010
1001
0100
,
0011
1000
0100
1000
0100
1000
0100
0010
0100
0010
0100
0010
0100
0010
0001
0010
0001
0010
0001
0010
0100
0010
0100
0010
,
0100
1000
0100
1000
0100
1000
0100
0010
0001
0010
0001
0010
0001
1000
0001
1000
0001
1000
0001
0000
0000
0010
0000
0000
,
1100
0010
1000
0110
0001
1000
0011
0100
,
1100
0010
0001
0000
1000
0000
0001
0000
0110
0000
1000
0000
0011
0000
0100
0000
,
1001
0000
0100
0000
0001
0010
1100
0000
0010
0000
1000
0000
0011
0000
0100
0000
,
1001
0000
0010
0000
1000
0100
0001
0000
1010
0000
0010
0000
0101
0000
0010
0000
,
1001
0000
0010
0000
0001
0010
0100
0000
0110
0000
1000
0000
0011
0000
0100
0000
,
1010
0000
0001
0000
0010
1000
0101
0000
1000
0000
0100
0000
1001
0000
0001
0000
,
0110
0000
0010
0000
1000
0100
0010
0000
0001
0000
1000
0000
0010
0000
1000
0000
,
0001
0010
0100
1000
0001
0010
0100
1000
0101
0010
0100
1000
0101
0010
0100
0010
,
1001
0000
0010
0000
0001
0010
1100
0000
0010
0000
0100
0000
0011
0100
1000
0000
,
1001
0000
0100
0000
1000
0100
0010
0000
0101
0000
0010
0000
1010
0100
0001
0000
,
1001
0000
0010
0000
0010
0100
1001
0000
0010
0000
0001
0000
1100
0010
0001
0000
,
0011
0000
0100
0000
1000
0100
0010
0000
1100
0000
0001
0000
0110
1000
0001
0000
,
0011
0000
0100
0000
1000
0010
0101
0000
0010
0000
0100
0000
1010
0100
0001
0000
,
1001
0000
0100
0000
1000
0100
0011
0000
0001
0000
1000
0000
0110
0001
1000
0000
,
1001
0000
1000
0000
0010
0100
1000
0000
0001
0000
1000
0000
0010
0100
1000
0000
,
1000
0100
0010
0001
0100
0010
1000
0100
0010
0001
0010
0100
1000
0000
0000
0000
,
1100
0010
0001
1000
0100
0000
1100
0010
0001
1000
0100
0000
1100
0010
0001
1000
,
0110
0001
1000
0100
0010
0000
0110
0001
1000
0100
0010
0000
0110
0001
1000
0100
,
0011
1000
0100
0010
0001
0000
0011
1000
0100
0010
0001
0000
0011
1000
0100
0010
,
0101
1000
0100
0010
0001
0000
0101
1000
0100
0010
0001
0000
0101
0010
1000
0100
,
1010
0100
0010
0001
0010
0000
1010
0100
0010
0001
0010
0000
1010
0001
0100
0010
,
1001
0100
0010
0001
0010
0000
1001
0100
0010
0001
0010
0000
1001
0100
0010
0001
,
1100
0010
1000
0001
1000
0010
1000
0100
1000
0010
1000
0001
1000
0010
1000
0100
,
1000
0100
0010
0100
1000
0100
0010
0001
0010
0100
1000
0100
0010
0000
0000
0000
,
1200
0300
1000
0002
1003
0000
1020
0030
,
0021
0000
0030
0000
0001
0000
2000
0000
3001
0000
0100
0010
0002
0000
0013
0000
,
0120
0030
0100
2000
3100
0000
0120
0030
,
2001
0000
3000
0000
0001
0000
0200
0000
0301
0000
0000
0000
0002
0013
0100
1000
,
0120
0030
0100
2000
3100
0000
0102
0003
,
2010
3000
0010
0002
0013
0000
0210
0300
,
1010
0100
1010
0100
1010
0100
1010
0100
,
1010
0100
0001
0010
0100
1000
0010
0100
0001
0010
0100
1000
0100
0000
0000
0000
,
1100
0000
0101
0000
0110
0110
0101
0000
0010
0000
0100
0000
1000
0001
0100
0000
,
0110
0000
1001
0000
0011
0011
0101
0000
1000
0000
0100
0000
0010
0001
1000
0000
,
0101
0000
0110
0000
1000
0001
1100
0000
0110
0000
1001
0000
1010
0001
0110
0000
,
1000
0100
0010
0100
1000
0100
0010
0000
0001
0000
1010
0000
0011
1000
0110
0000
,
0001
0010
0001
0010
0100
1000
0100
1000
0100
0010
0100
0010
0001
0010
0100
1000
,
0100
0010
0001
0010
0001
0010
0100
1000
0100
0010
0001
0010
0100
0010
0001
0010
,
0100
1000
0100
0010
0001
0100
0010
1000
0100
0010
0001
0010
0100
1000
0100
0010
,
0001
1000
0100
0010
0001
0100
0010
1000
0100
0010
0001
0010
0100
1000
0010
0100
,
1001
0000
0110
0000
0011
0011
0101
0000
1000
0000
0100
0000
0011
1000
0001
0000
,
1010
0001
0010
0000
1010
0001
0110
0000
1010
0000
0110
0000
1010
0001
0110
0000
,
2001
0000
3100
0000
0010
0100
2001
0000
3100
0000
0010
0000
2001
0001
3100
0000
,
0011
0000
1100
0000
0110
1000
0110
0000
0101
0000
1100
0000
0110
1000
0101
0000
,
1001
0000
0110
0000
0011
1000
0110
0000
1001
0000
0110
0000
0101
1000
0110
0000
,
1001
0000
0101
0000
1010
0001
1100
0000
0011
0000
1100
0000
0110
0001
1010
0000
,
0011
0000
0000
1100
0000
0110
0110
0000
0000
0101
0000
0000
1010
0000
0000
0101
0000
0000
0011
0000
0000
0110
0000
0000
,
1001
0000
0110
0000
1010
0000
1100
0001
1000
0001
1000
0001
1000
0001
1000
0001
,
1010
0000
0100
0000
0001
0010
2100
0000
3010
0000
0100
0000
1001
0100
0011
0000
,
1010
0000
0010
0000
0001
0010
1100
0000
0011
0000
0010
0000
0100
1000
0010
0000
,
1100
0000
0101
0000
1010
0000
0001
0010
0100
1000
0100
1000
0010
1000
0100
0010
,
0001
1000
0001
0000
0110
1000
0101
0000
1010
0000
0001
0000
0100
1000
0001
0000
,
1000
0100
1000
0100
1000
0100
0010
0100
0010
0001
0010
0001
0010
0100
1000
0100
,
1000
0100
0010
0100
0010
0001
0010
0001
0010
0100
0010
0100
0010
0000
0001
0000
,
1100
0000
1100
0000
0110
1000
0110
0000
0011
0000
0011
0000
0101
0000
0101
0000
,
1010
0100
1010
0001
0110
0001
0110
0001
1001
0010
0100
1000
0100
0010
0001
0000
,
1100
0000
0010
0000
0001
0010
0100
0000
1000
0000
0010
0000
1100
0010
1100
0000
,
0011
0000
0100
0000
0001
1000
0010
0000
0100
0000
0001
0000
1100
0010
0101
0000
,
1000
0010
0100
0001
1000
0010
0100
0001
1000
0100
0010
0001
1000
0100
0010
0100
,
1000
0100
0010
0001
0010
0100
1000
0100
0010
0000
0001
0000
0110
1000
0001
0000
,
1000
0000
0010
0000
0001
0010
0100
0000
1000
0000
0010
0000
1000
0100
0010
0000
,
0001
0000
1000
0000
0001
1000
0010
0000
0100
0000
0001
0000
1000
0010
0100
0000
,
0001
0010
0100
1000
0001
0010
0100
1000
0010
0100
0001
0010
0100
1000
0100
0010
,
0001
0100
0010
1000
0100
0010
0001
0010
0100
0010
0001
1000
0100
0010
0100
0010
,
1000
0100
0010
0001
0010
0100
1000
0100
0010
0100
1000
0100
0010
0001
0010
0100
,
0010
0001
0010
0100
1000
0100
0010
0100
1000
0100
0010
0001
0010
0100
0010
0001
,
0010
0100
1000
0100
0010
0100
1000
0100
0010
0001
0010
0100
1010
0001
0101
0000
,
1010
0000
0100
0000
0001
0010
1001
0000
0010
0000
0001
0000
1100
0010
0001
0000
,
0011
0000
0100
0000
0001
0010
1100
0000
0010
0000
0101
0000
1000
0010
0101
0000
,
1010
0100
0010
0001
0010
0100
1000
0100
0010
0000
1100
0000
0110
0000
0101
0000
,
1001
0000
0010
0100
1000
0100
1001
0000
0010
0000
1100
0000
1010
0000
0101
0000
,
1001
0010
0100
0001
0010
0100
1000
0100
0010
0001
0010
0100
0010
0001
1000
0100
,
0010
0001
1000
0000
0100
0010
0001
1000
0100
0000
0010
0001
1000
0100
0010
0000
,
0100
0010
0001
1000
0100
0000
0100
0010
0001
1000
0100
0000
0100
0010
0001
1000
,
0100
0010
0001
0000
0010
0100
1000
0100
0000
0011
0000
0101
0000
0011
1100
0000
,
0110
0000
1000
0000
1000
0100
0011
0000
0010
0000
0001
0000
1100
0010
0001
0000
,
1000
0100
0010
0001
1000
0100
0010
0001
1000
0100
0010
0001
1000
0100
0010
0001
1000
0100
0010
0001
1000
0100
0010
0001
,
1000
0100
0010
0001
1000
0100
0010
0001
1000
0100
0010
0001
1000
0100
0010
0001
1000
0100
0010
0001
1000
0100
0010
0001
,
1100
0000
0110
0000
0001
0010
0100
0000
0101
0000
1000
0000
0001
0100
1010
0000
,
0101
0000
1100
0000
0010
1000
0101
0010
1100
0010
1001
0100
0011
0100
1001
0100
,
1010
0001
0010
0100
1000
0010
0100
0001
0010
0100
1000
0100
0010
0001
0100
0010
,
1000
0100
0010
0100
1000
0100
0010
0001
0010
0100
0010
0001
0010
0100
1000
0010
,
0100
0001
0010
0100
1000
0100
0010
0100
1000
0100
0010
0100
1000
0010
1000
0010
,
0100
0001
0010
0001
0100
0001
0010
0001
0010
0100
1000
0100
0010
0001
0010
0100
,
1000
0100
0010
0001
0010
0100
1000
0010
1000
0010
1000
0100
1000
0010
0100
0010
,
0100
0001
0010
0001
0010
0001
0100
0001
0010
0001
0010
0100
1000
0100
0010
0001
,
0010
0100
1000
0100
0010
0001
0010
0100
1000
0100
0010
0100
1000
0100
0010
0001
,
0010
0100
1000
0100
0010
0001
0100
0010
1000
0100
0010
0001
0010
0100
1000
0100
,
1010
0110
0011
0110
1100
0110
0011
1010
,
0110
0011
0101
1100
0011
1001
1100
0110
,
1100
0110
1010
0101
1010
1001
1100
0110
,
0011
0000
0110
0000
1100
0000
0110
1000
0100
0010
0101
0000
1010
0000
1001
0010
,
0001
0010
0001
0100
0001
1000
0001
0010
0001
0100
0001
0010
0001
1000
0001
0010
,
0001
0100
0001
0010
0001
1000
0001
0010
0001
0100
0001
0010
0001
1000
0001
0100
,
0010
0100
0010
1000
0010
0100
0010
1000
0010
0100
0010
0100
0010
1000
0010
0100
,
1000
0100
0010
0001
0100
0010
1000
0100
0010
0001
0010
0100
1000
0100
0010
0001
,
2200
0000
3300
0220
0000
0330
0022
0033
,
2200
0000
3300
0000
0022
0033
2200
0000
0000
0000
0000
0000
0000
0000
3300
0000
,
0202
0000
0303
2020
0000
3030
0022
0033
,
2002
0000
3003
0000
2020
3030
0202
0000
0000
0000
0303
0000
2002
0000
3003
0000
,
2200
0000
3300
0022
0000
0033
2020
3030
,
0202
0303
2200
0000
0000
0000
3300
0000
0220
0000
0330
0000
0022
0000
0033
0000
,
1001
1000
1000
1000
1000
1000
1000
1000
,
2200
0300
3100
0220
0030
0310
0022
0003
,
1031
0000
0010
0100
1000
0100
1010
0000
0010
0000
1000
0000
0101
0000
0010
0000
,
1010
0010
0101
1100
0001
0010
0100
0010
,
1001
0000
0010
1000
0001
0010
1100
0000
0010
0000
1000
0000
0011
0000
0100
0000
,
1010
0000
0010
1000
0101
1000
0110
0000
1000
0000
0001
0000
1010
0000
0010
0000
,
0101
0000
1000
0000
0001
0010
1100
0000
0010
0000
1000
0000
0011
0000
1000
0100
,
0011
1100
0001
0010
1100
0001
0110
1000
,
0011
0000
1000
0000
0001
0010
0100
0000
1000
0000
0010
0000
1000
0000
0010
0000
,
1000
0100
0010
0001
0100
0010
1000
0100
1010
0001
0010
0100
1001
0010
0100
0001
,
1010
0100
1000
0011
0100
0001
1010
0010
,
0101
0000
0010
0000
0001
1000
0010
0000
1100
0000
0001
0000
0110
0000
1000
0000
,
0011
1000
0001
0110
0001
0010
1100
1000
,
0011
0000
1000
0000
0010
1000
0100
0000
1010
0000
0001
0000
0110
1000
0001
0000
,
0011
0001
1000
0110
0001
0100
1010
0010
,
0101
0000
0001
0000
1000
0000
0110
0000
0100
0000
0001
0000
1010
0100
0001
0000
,
0011
0000
0001
0000
0100
0000
1010
0000
0001
0010
1000
0000
0110
0000
1000
0000
,
0011
0000
0100
0000
1000
0010
0101
0000
1000
0000
0001
0000
1100
0000
1000
0000
,
0011
0000
1000
0000
0001
0010
0100
0000
1000
0000
0010
0000
1000
0100
0010
0000
,
0010
0000
0100
0000
0001
0010
0100
0000
0110
1000
0001
0000
1100
0010
0001
0000
,
1010
0001
0010
0001
0010
0001
0010
0001
0010
0001
0010
0001
0010
0001
0010
0001
,
1010
0001
1000
0001
1000
0001
1000
0001
0110
0001
0010
0001
0010
0001
0010
0001
,
1100
0010
0001
1000
0100
0010
0001
0010
0100
1000
0100
0010
0100
1000
0100
0010
,
0001
0010
0100
0010
0001
0010
0100
1000
0010
0100
0001
0010
0100
1000
0100
0010
,
0001
0010
0100
1000
0010
1000
0100
1000
0010
1000
0100
0010
0001
0010
0001
0100
,
0001
0010
0100
1000
0100
0010
0001
0010
0100
1000
0100
0010
0100
1000
0001
1000
,
0001
1000
0010
0100
0010
0100
1000
0100
1000
0100
0010
0001
0010
0001
0010
0100
,
1000
0100
0010
0001
0010
0100
1000
0010
1000
0100
0010
0001
0100
0001
0010
0100
,
1000
0010
1000
0100
0010
0001
0010
0100
1000
0100
0010
0001
0010
0100
1000
0100
,
2020
0000
0000
3030
2200
3300
0022
0000
0000
0000
0000
0000
0000
0000
0000
0000
,
0033
0000
0000
0000
;
