#TITLE:Double the Dragon;
#SUBTITLE:;
#ARTIST:corecontax & Swampy Boy;
#TITLETRANSLIT:;
#SUBTITLETRANSLIT:;
#ARTISTTRANSLIT:;
#CREDIT:;
#BANNER:double bn.png;
#BACKGROUND:double bg.png;
#LYRICSPATH:;
#CDTITLE:;
#MUSIC:corecontax.ogg;
#OFFSET:-0.020;
#SAMPLESTART:100.040;
#SAMPLELENGTH:12.000;
#SELECTABLE:YES;
#BPMS:0.000=192.000;
#STOPS:;
#BGCHANGES:;
// cache tags:
#FIRSTBEAT:32.000;
#LASTBEAT:368.000;
#SONGFILENAME:Songs/SSSC Pack 2/Double the Dragon - [Zimlord]/corecontax.sm;
#HASMUSIC:1;
#HASBANNER:1;
#MUSICLENGTH:122.107;
// end cache tags

//---------------dance-single - zimlord----------------
#NOTES:
     dance-single:
     zimlord:
     Challenge:
     14:
     1.000,1.000,0.811,0.246,0.680,778.000,99.000,30.000,39.000,0.000:

0000
0000
0000
0000
,
0000
0000
0000
0000
,
0000
0000
0000
0000
,
0000
0000
0000
0000
,
0000
0000
0000
0000
,
0000
0000
0000
0000
,
0000
0000
0000
0000
,
0000
0000
0000
0000
,
1010
1001
0001
1000
0001
1000
0001
1000
,
0001
1000
0001
0020
0000
0130
1100
1100
,
0011
1001
0001
0010
0001
0010
0001
0010
,
0001
0010
0001
0100
0010
1000
0001
0010
,
0110
1001
1000
0001
1000
0001
1000
0001
,
1000
0001
1000
0020
0000
0130
0101
0101
,
1010
1001
1000
0010
1000
0010
1000
0010
,
1000
0010
1000
0001
0010
0100
1000
0001
,
1000
0000
1000
0000
1010
0000
0010
1000
0010
1000
0001
0000
1000
0001
1000
0001
,
0010
0000
0001
0000
1000
0100
1000
0000
1010
0000
0000
0000
0010
0000
0010
0000
,
1000
0000
1000
0000
0001
1000
0001
1000
0100
0000
0010
0001
1000
0000
1000
0000
,
0001
0010
0001
0010
0001
0010
0100
0000
1000
0000
0010
0000
0200
0000
0301
0000
,
0010
0000
0010
0000
0011
0000
0001
0100
0001
0100
0010
0000
0100
0001
0100
0001
,
MMM0
0000
1000
0000
0001
0010
0001
0000
1000
0000
0001
0000
2MM2
0000
3003
0000
,
1000
0000
1000
0000
0010
0100
0010
0100
0001
0000
0100
0001
1000
0000
1000
0000
,
0010
1000
0010
1000
0010
1000
0001
0000
1000
0000
0100
0000
MM22
0000
0033
0000
,
1000
0000
1000
0000
0001
0000
0100
0000
0001
0100
0001
0100
M02M
0000
0030
0000
,
0100
0000
0100
0000
0001
1000
0001
0000
0010
0000
0001
0000
1000
0100
0000
0100
,
1000
0000
0001
0000
1000
0010
1000
0000
0001
1000
0001
0000
0010
0000
0001
0000
,
1000
0100
M02M
0000
0031
0000
1000
0000
0001
0000
0001
0000
0010
0000
0010
0000
,
0100
0000
1000
0000
1001
0000
0001
0000
0101
0000
0100
0001
0100
0001
0010
0000
,
0011
0000
0001
0000
1001
0000
1010
0000
1000
0001
0010
0000
2MM2
0000
3003
0000
,
0011
0000
1001
0000
1000
0001
1000
0001
0010
0000
0100
0000
1000
0000
1001
0000
,
0001
0100
0001
0000
1000
0001
0010
0000
1100
0000
1000
0001
M2M0
0000
0300
0000
,
0001
0000
0101
0000
0100
0010
0100
0010
1000
0000
1001
0000
0001
1000
0100
0000
,
0020
0000
0000
0000
0000
0000
0031
0000
1000
0000
0001
0000
1000
0000
0000
0000
0000
0000
0001
0000
0000
0000
0000
0000
0011
0000
0000
0000
0000
0000
1001
0000
0000
0000
0000
0000
1000
0000
0000
0001
0000
0000
0010
0000
0000
0000
0000
0000
,
0002
0000
1003
0000
1001
0000
0001
0100
0001
0100
0010
0000
1010
0000
0000
0000
,
1000
0100
1000
0000
0001
0100
0001
0000
11MM
0000
0000
1M1M
0000
0000
11MM
0000
,
1MM1
0000
0000
1000
0000
0000
0001
0100
0001
0100
0000
0000
1001
0000
0000
1000
0000
0000
0100
0000
0000
0110
0000
0000
,
2002
0000
3003
0000
0001
0000
0011
0000
0010
0001
0010
0001
1000
0000
1001
0000
,
0001
0000
0000
0100
0000
0000
0001
0000
0000
0000
0000
0000
0100
0000
0000
0000
0000
0000
0001
0000
0000
0000
0000
0000
1010
0000
0000
0000
0000
0000
0010
0000
1000
0000
0010
0000
1000
0000
0000
0000
0000
0000
0001
0000
0000
1000
0000
0000
,
0001
0000
1001
0000
1000
0100
1000
0000
0001
0000
1000
0000
0010
0000
1010
0000
,
1000
1000
1001
0000
0000
0001
0011
0000
,
1000
0000
1000
0000
0101
0000
1000
0001
1000
0001
0010
0000
0001
0000
0001
0000
,
0010
0010
0011
0000
0000
0001
0101
0000
,
0100
0000
0100
0000
1010
0000
0010
1000
0001
0000
0010
0000
0100
0000
1000
0000
,
0001
0000
0001
0000
1001
0000
1000
0100
1000
0000
0001
0000
1000
0001
1000
0000
,
2020
3030
0010
1000
0001
0001
1100
0100
,
1000
0000
0001
0000
0100
0000
0100
0000
0001
0010
0001
0000
1000
0000
0001
1000
,
0001
0000
1000
0000
0001
0010
0001
0000
1000
0100
0010
0001
1000
0100
0010
0001
,
2MM0
3000
0001
2MM2
3003
1000
2MM2
3003
,
0001
0000
0001
0000
1000
0100
1000
0000
0001
0000
1000
0001
0010
0000
0010
0000
,
0001
0000
0001
0000
0101
0000
0100
0001
0100
0001
0010
0000
0100
1000
0100
1000
,
0001
0000
0000
0101
0000
0000
0101
0000
1MM1
0000
0000
1MM1
0000
0000
0002
0000
,
1003
0000
0100
0000
0011
0000
1000
0100
0010
0000
0001
0000
0101
0000
0100
0000
,
0001
0000
0010
0000
1100
0000
0001
0010
0100
0000
0010
0000
0011
0000
0001
0000
,
1000
0000
0010
0000
0101
0000
1000
0010
0100
0000
0001
0000
1001
0000
1000
0000
,
0100
0000
0010
0000
0011
0000
0001
1000
0100
0000
1000
0000
1001
0000
0000
0000
,
0001
0100
0010
0100
0001
1000
0001
1000
0100
0010
0001
1000
0100
1000
0001
0100
,
0010
1000
0001
1000
0100
1000
0001
1000
0010
1000
0001
1000
0100
1000
0001
0010
,
010M
1000
0100
1000
0100
1000
010M
1000
0001
0000
1000
0000
1MM1
0000
0001
1000
,
0010
0000
0000
0000
0000
0000
0010
0000
0000
0000
0000
0000
0100
0000
0000
0001
0000
0000
0100
0000
0000
0000
0000
0000
1001
0000
0000
0000
0000
0000
1000
0000
0000
0000
0000
0000
0001
0000
1000
0000
0001
0000
1000
0000
0001
0000
1000
0000
,
0001
0000
1000
0000
0010
0000
0100
0001
0100
0001
1000
0000
0100
0000
0010
0000
,
0002
0000
1003
0100
1000
0000
0001
0000
1000
0001
1000
0000
2M2M
0000
3030
0000
,
0010
0000
0010
0000
0100
0000
0100
0000
0001
0000
0001
0000
1000
0000
0001
0100
,
0001
0000
1000
0000
0100
0000
0010
0000
0001
0010
0001
0000
1001
0000
0000
0000
,
1000
0000
0001
0000
1000
0100
1000
0100
0010
0000
0001
0100
0001
0100
0020
0000
,
0030
0000
0101
0000
0000
0101
0000
0000
1001
0000
0000
1000
0100
0000
1000
0000
,
0001
0010
0001
0010
0001
1000
0001
1000
0010
0100
0010
0100
0001
1000
0100
1000
,
0001
0010
0100
1000
0001
0010
0100
1000
0001
0000
0100
0000
0010
0000
1000
0000
,
1001
0000
0000
0101
0000
0000
0011
0000
,
0000
0000
0001
0000
0001
0000
1000
0100
1000
0000
0001
0000
0100
0000
0100
0000
,
0101
0000
0000
1010
0000
0000
1100
0000
,
1000
0000
1000
0000
0001
1000
0001
0000
0100
0000
0100
0000
0101
0000
0000
0000
,
1001
0000
0000
1100
0000
0000
0011
0000
,
0000
0000
0010
0000
0010
0000
0001
1000
0001
0000
1000
0000
0010
0000
0010
0000
,
0110
0000
0000
0101
0000
0000
1001
0000
,
1000
0000
1000
0000
0100
1000
0100
0000
0010
0001
1000
0100
0010
0001
1000
0100
,
0010
0000
0001
0000
1001
0000
1000
0001
1000
0001
0100
0010
1000
0000
0001
0000
,
0101
0000
0100
0000
0001
0000
1000
0000
0001
1000
0001
0000
0011
0000
0010
0000
,
0001
0010
0100
1000
0001
0000
1000
0000
1000
0000
1010
0000
0010
0000
1000
0100
,
0010
0001
1000
0000
0001
1000
0001
0000
0100
0000
0100
0000
0001
0000
0001
0000
,
1001
1000
1100
1000
0001
0001
0101
0100
,
0001
0010
0001
0010
0100
1000
0100
1000
0001
0000
0000
1001
0000
0000
1001
0000
,
1000
0001
0010
0100
1000
0000
0001
0000
1000
0001
0010
0000
0010
0000
0100
0000
,
1000
0000
1000
0000
0001
0100
0001
0000
1000
0000
0100
0000
2002
0000
3003
0000
,
0001
0100
0010
1000
0001
0010
0100
0010
,
0001
1000
0100
0010
0001
1000
0010
1000
,
0010
0100
0001
1000
0010
1000
0100
1000
,
0001
0010
0100
1000
0010
0100
0001
0100
,
0010
1000
0100
0010
0001
1000
0010
1000
,
0001
0100
0010
1000
0100
0010
0001
0010
,
0100
1000
0001
0010
0001
1000
0010
1000
,
0001
0100
0001
0100
0010
0100
0010
0100
0001
1000
0001
1000
0100
0010
0001
1000
,
0001
0000
0000
0000
;
