#TITLE:Decipher;
#SUBTITLE:;
#ARTIST:Phantasma;
#TITLETRANSLIT:;
#SUBTITLETRANSLIT:;
#ARTISTTRANSLIT:;
#CREDIT:;
#BANNER:Decipher-BN.png;
#BACKGROUND:Decipher-BG.png;
#LYRICSPATH:;
#CDTITLE:!CaT[Q].png;
#MUSIC:Phantasma - Decipher.mp3;
#OFFSET:-1.592;
#SAMPLESTART:121.520;
#SAMPLELENGTH:12.000;
#SELECTABLE:YES;
#BPMS:0.000=146.000,192.000=73.000,224.000=146.000,288.000=73.000,296.000=146.000;
#STOPS:;
#BGCHANGES:;
// cache tags:
#FIRSTBEAT:0.000;
#LASTBEAT:296.000;
#SONGFILENAME:Songs/Community Keyboard Megapack - Volume 3/(Cat[Q]) Decipher/Decipher.sm;
#HASMUSIC:1;
#HASBANNER:1;
#MUSICLENGTH:144.360;
// end cache tags

//---------------dance-single - ----------------
#NOTES:
     dance-single:
     :
     Hard:
     11:
     1.000,1.000,0.423,0.021,1.000,1247.000,61.000,3.000,0.000,0.000:
1001
0100
0001
1000
0010
0100
1000
0001
0100
0010
1000
0100
0010
0001
0100
0010
,
1000
0001
0100
0001
1000
0010
0100
0010
1000
0001
0100
1000
0001
0100
0010
1000
,
0001
0100
0010
1000
0100
1000
0010
0100
0001
1000
0001
0100
1010
0000
0100
0000
,
0001
0000
0000
1000
0000
0000
0010
0000
0000
0100
0000
0000
0001
0000
0000
1000
0000
0000
0010
0000
0000
0001
0000
0000
0100
0000
0000
0000
1000
0000
0000
0000
0100
0000
0000
0000
0001
0000
0000
0000
0010
0000
0000
0000
0100
0000
0000
0000
,
1000
0001
0100
0010
1000
0010
0001
0100
0010
1000
0010
0100
0001
0010
0001
0100
,
0001
1000
0010
0100
0001
0100
1000
0001
0100
0010
1000
0100
0001
1000
0010
0100
,
0001
1000
0100
0010
0001
0100
0010
1000
0001
0100
0010
0001
1000
0010
0100
1000
,
0010
0100
0001
1000
0010
0100
0001
0010
1000
0001
1000
0100
0010
0000
0110
0000
,
1001
0100
0010
0001
1000
0100
0010
0001
0100
0010
1000
0010
0100
0001
0100
0010
,
1000
0001
0010
0100
1000
0001
0010
0100
1000
0010
0100
0001
0100
0010
1000
0001
,
1000
0001
0100
1000
0010
0100
0001
1000
0010
0100
0001
1000
0010
0100
0010
1000
,
0101
0000
1000
0001
0100
0010
1000
0010
0101
0000
1000
0010
0100
0001
1000
0010
,
0100
1000
0001
0100
0010
1000
0001
0100
0010
1000
0001
0100
0010
1000
0100
0010
,
0001
0100
0010
1000
0001
0010
0100
1000
0001
0010
0100
1000
0010
0100
0010
1000
,
0001
1000
0001
1000
0001
1000
0001
0010
0100
1000
0010
0100
0010
0100
0010
0100
,
0001
0010
0100
1000
0001
1000
0001
1000
0001
1000
0001
0100
0010
0100
0010
0100
,
1001
0100
0010
0001
1000
0100
0010
0001
0100
0010
1000
0001
0100
0010
1000
0001
,
0100
1000
0010
0100
0001
0100
1000
0010
0100
0001
1000
0010
0100
0001
0100
0010
,
1000
0100
0001
0100
1000
0010
0100
0001
0100
0010
1000
0001
1010
0000
0001
0100
,
0010
0000
0000
1000
0000
0000
0001
0000
0000
0010
0000
0000
0100
0000
0000
1000
0000
0000
0010
0000
0000
0100
0000
0000
0001
0000
0000
1000
0000
0000
0010
0000
0000
0000
0000
0000
0101
0000
0000
0000
0001
0000
0000
0000
0100
0000
0000
0000
,
1000
0010
0100
0001
1000
0100
0010
0001
1000
0100
0010
0001
0100
0010
0001
1000
,
0010
0100
0001
0100
1000
0010
0100
0001
0010
0100
1000
0001
0100
1000
0010
0100
,
0001
0010
0100
1000
0001
0010
0100
1000
0100
0010
0001
1000
0100
0010
0001
0100
,
0010
1000
0010
0100
0001
1000
0001
0010
0101
0000
1000
0010
1100
0001
0100
0000
,
0101
0010
1000
0100
0010
0001
0100
0010
1000
0100
0001
0100
1000
0010
0100
0001
,
0010
0001
0100
0010
1000
0100
1000
0010
0100
0001
0100
0010
1000
0010
0100
0001
,
0100
1000
0100
0001
0100
0010
1000
0001
0010
0100
1000
0001
0010
0100
1000
0010
,
0101
0000
1000
0010
0101
0010
1000
0001
1010
0100
0001
1000
0010
0000
0100
0000
,
1001
0100
0010
0001
1000
0010
0100
0001
1000
0100
0010
0001
0100
0010
1000
0100
,
0010
0100
1000
0010
0100
0001
0100
0010
0100
0001
1000
0010
0100
0001
1000
0010
,
0100
0010
0100
0010
0100
0010
0001
1000
0001
1000
0001
1000
0001
0010
0100
1000
,
1010
0000
0000
0011
0000
0000
1010
0000
0000
0011
0000
0000
1010
0000
0101
0000
1010
0000
0101
0000
0101
0000
0110
0000
,
1001
0100
0010
0001
0100
0010
1000
0010
0100
0001
0010
0001
0100
0010
1000
0100
,
1000
0010
0100
0001
0100
0010
1000
0100
0010
0001
1000
0100
0010
0001
0100
0010
,
1000
0010
0100
0001
0010
0100
1000
0001
0100
0010
0100
0001
1000
0010
0100
0001
,
1000
0010
0100
0001
1000
0100
0010
0001
0100
0010
1000
0010
0100
0001
0010
0100
,
1000
0010
0100
0001
0010
0100
1000
0010
0100
0001
0010
0001
0100
0010
1000
0100
,
1000
0010
0100
0001
0010
0001
0100
0010
1000
0010
0100
0001
0100
0010
1000
0100
,
0010
0001
0100
0010
1000
0100
0010
0001
0100
0010
1000
0001
0010
0100
1000
0001
,
0010
0100
1000
0100
0010
0001
1000
0100
0010
0001
0100
0010
1000
0010
0100
0001
,
1000
0010
0100
0010
1000
0010
0100
0001
0010
0001
0100
0010
1000
0100
1000
0010
,
0100
0001
0010
0100
1000
0010
0100
0001
0010
0100
1000
0010
0100
0001
0010
0001
,
0100
0010
1000
0010
0100
0001
0010
0001
0100
0010
1000
0001
0100
0010
1000
0010
,
0100
0001
0010
0100
1000
0010
0100
0001
0010
0100
1000
0010
0100
0001
0010
0100
,
1000
0100
0010
0001
0100
0010
1000
0100
1000
0010
0100
0001
0100
0010
1000
0010
,
0100
0001
0010
0100
1000
0010
0100
0001
0100
0010
1000
0010
0100
0001
0010
0100
,
1000
0001
1000
0001
1000
0001
0010
0100
0010
0100
0010
0100
0010
0001
1000
0001
,
1000
0001
1000
0001
1000
0001
0010
0100
0010
0100
0010
0100
0010
0100
0010
0100
,
0001
0100
0010
1000
0001
0100
0010
1000
0100
0010
0001
1000
0100
0010
0001
0100
0010
1000
0100
1000
0010
0100
0001
0010
0001
0010
0100
1000
0001
0010
0100
1000
,
0010
0000
0000
0000
0000
0000
0100
0000
0000
0000
0000
0000
0001
0000
0000
0000
0000
0000
0100
0000
0000
0000
0000
0000
0010
0000
0000
0000
0000
0000
1000
0000
0000
0000
0000
0000
0010
0000
0000
0000
0000
0000
0001
0000
0000
0000
0000
0000
0100
0000
0000
0000
0000
0000
0010
0000
0000
0000
0000
0000
1000
0000
0000
0000
0000
0000
0010
0000
0000
0000
0000
0000
0101
0000
0000
0000
0000
0000
1000
0000
0000
0000
0000
0000
0001
0000
0000
0000
0000
0000
0100
0000
0000
0000
0000
0000
0010
0000
0000
0000
0000
0000
1000
0000
0000
0000
0000
0000
0010
0000
0000
0000
0000
0000
0100
0000
0000
0000
0000
0000
0001
0000
0000
0000
0000
0000
0010
0000
0000
0000
0000
0000
0100
0000
0000
0000
0000
0000
1000
0000
0000
0000
0000
0000
0001
0000
0000
0000
0000
0000
0000
0000
0100
0000
0000
0000
0000
0000
0000
0000
0010
0000
0000
0000
0000
0000
0000
0000
1010
0000
0000
0000
0000
0000
0000
0000
0001
0000
0000
0000
0000
0000
0000
0000
0010
0000
0000
0000
0000
0000
0000
0000
,
1000
0010
0100
0001
0010
0100
1000
0010
0100
0001
0010
0001
0100
0010
1000
0100
1000
0010
0100
0001
1000
0100
0010
0001
1000
0100
0010
0001
0100
0010
1000
0001
,
0100
0000
0000
0000
0000
0000
0010
0000
0000
0000
0000
0000
0100
0000
0000
0000
0000
0000
0001
0000
0000
0000
0000
0000
1000
0000
0000
0000
0000
0000
0010
0000
0000
0000
0000
0000
0100
0000
0000
0000
0000
0000
0010
0000
0000
0000
0000
0000
1000
0000
0000
0000
0000
0000
0010
0000
0000
0000
0000
0000
0100
0000
0000
0000
0000
0000
0001
0000
0000
0000
0000
0000
0010
0000
0000
0000
0000
0000
0100
0000
0000
0000
0000
0000
1000
0000
0000
0000
0000
0000
0001
0000
0000
0000
0000
0000
0010
0000
0000
0000
0000
0000
0100
0000
0000
0000
0000
0000
1000
0000
0000
0000
0000
0000
0010
0000
0000
0000
0000
0000
0100
0000
0000
0000
0000
0000
0001
0000
0000
0000
0000
0000
0010
0000
0000
0000
0000
0000
0100
0000
0000
0000
0000
0000
1000
0000
0000
0000
0000
0000
0000
0000
0010
0000
0000
0000
0000
0000
0000
0000
0100
0000
0000
0000
0000
0000
0000
0000
0011
0000
0000
0000
0000
0000
0000
0000
1000
0000
0000
0000
0000
0000
0000
0000
0010
0000
0000
0000
0000
0000
0000
0000
,
1000
0010
0100
0001
1000
0100
0010
0001
1000
0100
0010
0001
0100
0010
0100
0001
1000
0010
0100
0001
0010
0100
1000
0001
0010
0100
1000
0010
0100
0010
1000
0010
,
0100
0001
0100
0010
1000
0001
0100
0010
1000
0010
0100
0001
1000
0100
0010
0001
0100
0010
1000
0001
0100
0010
1000
0101
0000
0010
1000
0001
0100
0010
0100
0001
,
1000
0001
1000
0001
1000
0001
1000
0001
1000
0001
0010
0100
1000
0010
0100
0010
0100
0010
0100
0010
1000
0100
0010
0001
1000
0001
1000
0001
1000
0001
1000
0100
,
0010
0000
0000
0000
0000
0000
0001
0000
0000
0000
0000
0000
0010
0000
0000
0000
0000
0000
0100
0000
0000
0000
0000
0000
0010
0000
0000
0000
0000
0000
0100
0000
0000
0000
0000
0000
0010
0000
0000
0000
0000
0000
0100
0000
0000
0000
0000
0000
0010
0000
0000
0000
0000
0000
1000
0000
0000
0000
0000
0000
0100
0000
0000
0000
0000
0000
0010
0000
0000
0000
0000
0000
0001
0000
0000
0000
0000
0000
1000
0000
0000
0000
0000
0000
0001
0000
0000
0000
0000
0000
1000
0000
0000
0000
0000
0000
0101
0000
0000
0000
0000
0000
0000
0000
1010
0000
0000
0000
0000
0000
0000
0000
0101
0000
0000
0000
0000
0000
0000
0000
1100
0000
0000
0000
0000
0000
0000
0000
0011
0000
0000
0000
0000
0000
0000
0000
1010
0000
0000
0000
0000
0000
0000
0000
0101
0000
0000
0000
0000
0000
0000
0000
0000
0000
0000
0000
1010
0000
0000
0000
0000
0000
0100
0000
0000
0000
0000
0000
0101
0000
0000
0000
0000
0000
0000
0000
0000
0000
0000
0000
1010
0000
0000
0000
0000
0000
0000
0000
0000
0000
0000
0000
,
1001
0100
0010
0001
1000
0010
0100
0001
0100
0010
1000
0100
0001
0100
1000
0010
,
0100
0001
0010
0100
1000
0001
0100
1000
0010
0100
0001
1000
0010
0100
0001
0010
,
0001
0100
0010
1000
0100
1000
0010
0100
0001
0010
0100
1000
0001
0010
0100
1000
,
0010
0000
0000
0100
0000
0000
0001
0000
0000
0100
0000
0000
0010
0000
0000
1000
0000
0000
0010
0000
0000
0100
0000
0000
0001
0000
0000
0000
1010
0000
0000
0000
0101
0000
0000
0000
1010
0000
0000
0000
0001
0000
0000
0000
0100
0000
0000
0000
,
1000
0010
0100
0001
0010
0100
1000
0010
0100
0001
0100
0010
1000
0100
0001
0010
,
0100
1000
0010
0100
0001
0100
1000
0010
0100
0001
0010
0100
1000
0010
0100
0001
,
1000
0100
0010
0001
1000
0100
0010
0001
1000
0010
0100
0001
0100
0010
1000
0001
,
0010
0000
0000
0001
0000
0000
0100
0000
0000
0010
0000
0000
1000
0000
0000
0010
0000
0000
0100
0000
0000
1000
0000
0000
0001
0000
0000
0000
0100
0000
0000
0000
0010
0000
0000
0000
1000
0000
0000
0000
0000
0000
0101
0000
0000
0000
0000
0000
,
1000
0010
0100
0001
0010
0100
1000
0010
0100
0001
0100
1000
0010
0100
0001
0010
,
0100
1000
0001
0010
0100
1000
0010
0100
0001
0100
0010
1000
0010
0100
0001
0010
,
0100
1000
0010
0100
0001
0100
0010
1000
0010
0100
0001
0010
0100
1000
0001
0010
,
0100
1010
0000
0100
0010
1000
0010
0100
1001
0000
0010
1000
0001
0100
0010
0100
,
1000
0001
0100
0010
1000
0010
0100
0001
0010
0100
1000
0010
0100
0001
0100
1000
,
0010
0100
0001
0010
0100
1000
0001
0100
1000
0010
0100
0001
1000
0010
0100
0001
,
1000
0001
1000
0001
1000
0001
0010
0100
0010
0100
0010
0100
1000
0100
0010
0001
,
1100
0000
0000
0011
0000
0000
1100
0000
0000
0011
0000
0000
1010
0000
0101
0000
1010
0000
0011
0000
1010
0000
0110
0000
,
2002
0000
0000
0000
0000
0000
0000
0000
0000
0000
0000
0000
0000
0000
0000
0000
3003
0000
0000
0000
0000
0010
0000
0000
1000
0000
0000
0101
0000
0000
0000
0000
0000
0100
0000
0000
1001
0000
0000
0100
0000
0000
0010
0000
0000
1000
0000
0000
,
0000
0000
0000
0000
0001
1000
0200
0000
0000
0000
0000
0000
0000
0000
0000
0000
0000
0000
0000
0000
0000
0000
0000
0000
0000
0000
0000
0000
0000
0000
0000
0000
,
0300
0000
0000
0000
;

//---------------dance-single - ----------------
#NOTES:
     dance-single:
     :
     Challenge:
     12:
     1.000,1.000,1.000,0.021,1.000,1247.000,149.000,3.000,0.000,9.000:
1001
0100
0001
1000
0010
0100
1000
0001
0100
0010
1000
0100
0010
0001
0100
0010
,
1000
0001
0100
0001
1000
0010
0100
0010
1000
0001
0100
1000
0001
0100
0010
1000
,
0001
0100
0010
1000
0100
1000
0010
0100
0001
1000
0001
0100
1010
0000
0100
0000
,
0001
0000
0000
1000
0000
0000
0010
0000
0000
0100
0000
0000
0001
0000
0000
1000
0000
0000
0010
0000
0000
0001
0000
0000
0100
0000
0000
0000
1000
0000
0000
0000
0100
0000
0000
0000
0001
0000
0000
0000
0010
0000
0000
0000
0100
0000
0000
0000
,
1000
0001
0100
0010
1000
0010
0001
0100
0010
1000
0010
0100
0001
0010
0001
0100
,
0001
1000
0010
0100
0001
0100
1000
0001
0100
0010
1000
0100
0001
1000
0010
0100
,
0001
1000
0100
0010
0001
0100
0010
1000
0001
0100
0010
0001
1000
0010
0100
1000
,
0010
0100
0001
1000
0010
0100
0001
0010
1000
0001
1000
0100
0010
0000
0110
0000
,
1001
0100
0010
0001
1000
0100
0010
0001
0100
0010
1000
0010
0100
0001
0100
0010
,
1000
0001
0010
0100
1000
0001
0010
0100
1000
0010
0100
0001
0100
0010
1000
0001
,
1000
0001
0100
1000
0010
0100
0001
1000
0010
0100
0001
1000
0010
0100
0010
1000
,
0101
0000
1000
0001
0100
0010
1000
0010
0101
0000
1000
0010
0100
0001
1000
0010
,
0100
1000
0001
0100
0010
1000
0001
0100
0010
1000
0001
0100
0010
1000
0100
0010
,
0001
0100
0010
1000
0001
0010
0100
1000
0001
0010
0100
1000
0010
0100
0010
1000
,
0001
1000
0001
1000
0001
1000
0001
0010
0100
1000
0010
0100
0010
0100
0010
0100
,
0001
0010
0100
1000
0001
1000
0001
1000
0001
1000
0001
0100
0010
0100
0010
0100
,
1011
0100
0010
0001
1010
0100
0010
0001
0100
0010
1000
0001
1100
0010
1000
0001
,
0100
1000
0010
0100
1001
0100
1000
0010
0100
0001
1000
0010
1100
0001
0100
0010
,
1000
0100
0001
0100
1010
0010
0100
0001
0100
0010
1000
0001
1010
0000
0001
0100
,
0010
0000
0000
1000
0000
0000
0001
0000
0000
0010
0000
0000
0101
0000
0000
1000
0000
0000
0010
0000
0000
0100
0000
0000
0001
0000
0000
1000
0000
0000
0010
0000
0000
0000
0000
0000
0101
0000
0000
0000
0001
0000
0000
0000
0100
0000
0000
0000
,
1000
0010
0100
0001
1010
0100
0010
0001
1000
0100
0010
0001
1100
0010
0001
1000
,
0010
0100
0001
0100
1001
0010
0100
0001
0010
0100
1000
0001
0110
1000
0010
0100
,
0001
0010
0100
1000
0101
0010
0100
1000
0100
0010
0001
1000
0110
0010
0001
0100
,
0010
1000
0010
0100
1001
1000
0001
0010
0101
0000
1000
0010
1100
0001
0100
0000
,
0101
0010
1000
0100
1010
0001
0100
0010
1000
0100
0001
0100
1010
0010
0100
0001
,
0010
0001
0100
0010
1010
0100
1000
0010
0100
0001
0100
0010
1001
0010
0100
0001
,
0100
1000
0100
0001
1100
0010
1000
0001
0010
0100
1000
0001
0110
0100
1000
0010
,
0101
0000
1000
0010
0101
0010
1000
0001
1010
0100
0001
1000
1010
0000
0100
0000
,
1001
0100
0010
0001
1010
0010
0100
0001
1000
0100
0010
0001
0101
0010
1000
0100
,
0010
0100
1000
0010
1100
0001
0100
0010
0100
0001
1000
0010
0110
0001
1000
0010
,
0100
0010
0100
0010
0101
0010
0001
1000
0001
1000
0001
1000
1001
0010
0100
1000
,
1010
0000
0000
0011
0000
0000
1010
0000
0000
0011
0000
0000
1010
0000
0101
0000
1010
0000
0101
0000
0101
0000
0110
0000
,
1101
0100
0010
0001
1100
0010
1000
0010
0100
0001
0010
0001
0101
0010
1000
0100
,
1000
0010
0100
0001
1100
0010
1000
0100
0010
0001
1000
0100
1010
0001
0100
0010
,
1000
0010
0100
0001
0011
0100
1000
0001
0100
0010
0100
0001
1001
0010
0100
0001
,
1000
0010
0100
0001
1010
0100
0010
0001
0100
0010
1000
0010
1100
0001
0010
0100
,
1000
0010
0100
0001
1010
0100
1000
0010
0100
0001
0010
0001
0101
0010
1000
0100
,
1000
0010
0100
0001
1010
0001
0100
0010
1000
0010
0100
0001
1100
0010
1000
0100
,
0010
0001
0100
0010
1001
0100
0010
0001
0100
0010
1000
0001
0110
0100
1000
0001
,
0010
0100
1000
0100
1010
0001
1000
0100
0010
0001
0100
0010
1001
0010
0100
0001
,
1000
0010
0100
0010
1100
0010
0100
0001
0010
0001
0100
0010
1001
0100
1000
0010
,
0100
0001
0010
0100
1001
0010
0100
0001
0010
0100
1000
0010
0101
0001
0010
0001
,
0100
0010
1000
0010
1100
0001
0010
0001
0100
0010
1000
0001
0110
0010
1000
0010
,
0100
0001
0010
0100
1001
0010
0100
0001
0010
0100
1000
0010
1100
0001
0010
0100
,
1000
0100
0010
0001
0101
0010
1000
0100
1000
0010
0100
0001
1100
0010
1000
0010
,
0100
0001
0010
0100
1001
0010
0100
0001
0100
0010
1000
0010
1100
0001
0010
0100
,
1000
0001
1000
0001
1010
0001
0010
0100
0010
0100
0010
0100
1010
0001
1000
0001
,
1000
0001
1000
0001
1100
0001
0010
0100
0010
0100
0010
0100
1010
0100
0010
0100
,
1011
0100
0010
1000
0001
0100
0010
1000
0100
0010
0001
1000
0100
0010
0001
0100
0010
1000
0100
1000
0010
0100
0001
0010
0001
0010
0100
1000
0001
0010
0100
1000
,
0010
0000
0000
0000
0000
0000
0100
0000
0000
0000
0000
0000
0001
0000
0000
0000
0000
0000
0100
0000
0000
0000
0000
0000
0010
0000
0000
0000
0000
0000
1000
0000
0000
0000
0000
0000
0010
0000
0000
0000
0000
0000
0001
0000
0000
0000
0000
0000
0100
0000
0000
0000
0000
0000
0010
0000
0000
0000
0000
0000
1000
0000
0000
0000
0000
0000
0010
0000
0000
0000
0000
0000
0101
0000
0000
0000
0000
0000
1000
0000
0000
0000
0000
0000
0001
0000
0000
0000
0000
0000
0100
0000
0000
0000
0000
0000
0010
0000
0000
0000
0000
0000
1000
0000
0000
0000
0000
0000
0010
0000
0000
0000
0000
0000
0100
0000
0000
0000
0000
0000
0001
0000
0000
0000
0000
0000
0010
0000
0000
0000
0000
0000
0100
0000
0000
0000
0000
0000
1000
0000
0000
0000
0000
0000
0001
0000
0000
0000
0000
0000
0000
0000
0100
0000
0000
0000
0000
0000
0000
0000
0010
0000
0000
0000
0000
0000
0000
0000
1010
0000
0000
0000
0000
0000
0000
0000
0001
0000
0000
0000
0000
0000
0000
0000
0010
0000
0000
0000
0000
0000
0000
0000
,
1000
0010
0100
0001
0010
0100
1000
0010
0100
0001
0010
0001
0100
0010
1000
0100
1000
0010
0100
0001
1000
0100
0010
0001
1000
0100
0010
0001
0100
0010
1000
0001
,
0100
0000
0000
0000
0000
0000
0010
0000
0000
0000
0000
0000
0100
0000
0000
0000
0000
0000
0001
0000
0000
0000
0000
0000
1000
0000
0000
0000
0000
0000
0010
0000
0000
0000
0000
0000
0100
0000
0000
0000
0000
0000
0010
0000
0000
0000
0000
0000
1000
0000
0000
0000
0000
0000
0010
0000
0000
0000
0000
0000
0100
0000
0000
0000
0000
0000
0001
0000
0000
0000
0000
0000
0010
0000
0000
0000
0000
0000
0100
0000
0000
0000
0000
0000
1000
0000
0000
0000
0000
0000
0001
0000
0000
0000
0000
0000
0010
0000
0000
0000
0000
0000
0100
0000
0000
0000
0000
0000
1000
0000
0000
0000
0000
0000
0010
0000
0000
0000
0000
0000
0100
0000
0000
0000
0000
0000
0001
0000
0000
0000
0000
0000
0010
0000
0000
0000
0000
0000
0100
0000
0000
0000
0000
0000
1000
0000
0000
0000
0000
0000
0000
0000
0010
0000
0000
0000
0000
0000
0000
0000
0100
0000
0000
0000
0000
0000
0000
0000
0011
0000
0000
0000
0000
0000
0000
0000
1000
0000
0000
0000
0000
0000
0000
0000
0010
0000
0000
0000
0000
0000
0000
0000
,
1000
0010
0100
0001
1000
0100
0010
0001
1000
0100
0010
0001
0100
0010
0100
0001
1000
0010
0100
0001
0010
0100
1000
0001
0010
0100
1000
0010
0100
0010
1000
0010
,
0100
0001
0100
0010
1000
0001
0100
0010
1000
0010
0100
0001
1000
0100
0010
0001
0100
0010
1000
0001
0100
0010
1000
0101
0000
0010
1000
0001
0100
0010
0100
0001
,
1000
0001
1000
0001
1000
0001
1000
0001
1000
0001
0010
0100
1000
0010
0100
0010
0100
0010
0100
0010
1000
0100
0010
0001
1000
0001
1000
0001
1000
0001
1000
0100
,
0010
0000
0000
0000
0000
0000
0001
0000
0000
0000
0000
0000
0010
0000
0000
0000
0000
0000
0100
0000
0000
0000
0000
0000
0010
0000
0000
0000
0000
0000
0100
0000
0000
0000
0000
0000
0010
0000
0000
0000
0000
0000
0100
0000
0000
0000
0000
0000
0010
0000
0000
0000
0000
0000
1000
0000
0000
0000
0000
0000
0100
0000
0000
0000
0000
0000
0010
0000
0000
0000
0000
0000
0001
0000
0000
0000
0000
0000
1000
0000
0000
0000
0000
0000
0001
0000
0000
0000
0000
0000
1000
0000
0000
0000
0000
0000
0101
0000
0000
0000
0000
0000
0000
0000
1010
0000
0000
0000
0000
0000
0000
0000
0101
0000
0000
0000
0000
0000
0000
0000
1100
0000
0000
0000
0000
0000
0000
0000
0011
0000
0000
0000
0000
0000
0000
0000
1010
0000
0000
0000
0000
0000
0000
0000
0101
0000
0000
0000
0000
0000
0000
0000
0000
0000
0000
0000
1010
0000
0000
0000
0000
0000
0100
0000
0000
0000
0000
0000
0101
0000
0000
0000
0000
0000
0000
0000
0000
0000
0000
0000
1010
0000
0000
0000
0000
0000
0000
0000
0000
0000
0000
0000
,
1101
0100
0010
0001
1100
0010
0100
0001
0100
0010
1000
0100
0011
0100
1000
0010
,
0100
0001
0010
0100
1010
0001
0100
1000
0010
0100
0001
1000
1010
0100
0001
0010
,
0001
0100
0010
1000
0101
1000
0010
0100
0001
0010
0100
1000
0101
0010
0100
1000
,
0010
0000
0000
0100
0000
0000
0001
0000
0000
0100
0000
0000
1010
0000
0000
1000
0000
0000
0010
0000
0000
0100
0000
0000
0001
0000
0000
0000
1010
0000
0000
0000
0101
0000
0000
0000
1010
0000
0000
0000
0001
0000
0000
0000
0100
0000
0000
0000
,
1000
0010
0100
0001
0011
0100
1000
0010
0100
0001
0100
0010
1010
0100
0001
0010
,
0100
1000
0010
0100
0011
0100
1000
0010
0100
0001
0010
0100
1001
0010
0100
0001
,
1000
0100
0010
0001
1010
0100
0010
0001
1000
0010
0100
0001
0110
0010
1000
0001
,
0010
0000
0000
0001
0000
0000
0100
0000
0000
0010
0000
0000
1001
0000
0000
0010
0000
0000
0100
0000
0000
1000
0000
0000
0001
0000
0000
0000
0100
0000
0000
0000
0010
0000
0000
0000
1100
0000
0000
0000
0000
0000
0101
0000
0000
0000
0000
0000
,
1000
0010
0100
0001
1010
0100
1000
0010
0100
0001
0100
1000
0011
0100
0001
0010
,
0100
1000
0001
0010
1100
1000
0010
0100
0001
0100
0010
1000
0011
0100
0001
0010
,
0100
1000
0010
0100
0101
0100
0010
1000
0010
0100
0001
0010
1100
1000
0001
0010
,
0100
1010
0000
0100
0011
1000
0010
0100
1001
0000
0010
1000
0101
0100
0010
0100
,
1000
0001
0100
0010
1001
0010
0100
0001
0010
0100
1000
0010
1100
0001
0100
1000
,
0010
0100
0001
0010
0110
1000
0001
0100
1000
0010
0100
0001
1100
0010
0100
0001
,
1000
0001
1000
0001
1010
0001
0010
0100
0010
0100
0010
0100
1001
0100
0010
0001
,
1100
0000
0000
0011
0000
0000
1100
0000
0000
0011
0000
0000
1010
0000
0101
0000
1110
0000
0111
0000
1011
0000
1101
0000
,
2112
0000
0000
0000
0000
0000
0000
0000
0000
0000
0000
0000
0000
0000
0000
0000
3003
0000
0000
0000
0000
0010
0000
0000
1000
0000
0000
0101
0000
0000
0000
0000
0000
0100
0000
0000
1001
0000
0000
0100
0000
0000
0010
0000
0000
1000
0000
0000
,
0000
0000
0000
0000
0001
1000
0200
0000
0000
0000
0000
0000
0000
0000
0000
0000
0000
0000
0000
0000
0000
0000
0000
0000
0000
0000
0000
0000
0000
0000
0000
0000
,
0300
0000
0000
0000
;
