#TITLE:Hardcore Till I Die;
#SUBTITLE:;
#ARTIST:DJ Hixxy;
#TITLETRANSLIT:;
#SUBTITLETRANSLIT:;
#ARTISTTRANSLIT:;
#CREDIT:owenviau1;
#BANNER:../owenviau1 Simfiles 5-bn.png;
#BACKGROUND:../owenviau1 Simfiles 5-bg.png;
#LYRICSPATH:;
#CDTITLE:../ov1_title.png;
#MUSIC:Dj Hixxy - Hardcore Till I Die.mp3;
#OFFSET:-0.396;
#SAMPLESTART:168.113;
#SAMPLELENGTH:29.999;
#SELECTABLE:YES;
#DISPLAYBPM:173.030;
#BPMS:0.000=173.032,19.000=173.043,20.000=173.032;
#STOPS:;
#BGCHANGES:;
// cache tags:
#FIRSTBEAT:42.000;
#LASTBEAT:965.500;
#SONGFILENAME:Songs/owenviau1 Simfiles 5/Hardcore Till' I Die - [owenviau1] v1.3/Hardcore Till I Die.sm;
#HASMUSIC:1;
#HASBANNER:1;
#MUSICLENGTH:335.751;
// end cache tags

//---------------dance-single - ----------------
#NOTES:
     dance-single:
     :
     Hard:
     8:
     0.631,0.647,0.292,0.051,0.000,1369.000,98.000,17.000,4.000,0.000:
0000
0000
0000
0000
,
0000
0000
0000
0000
,
0000
0000
0000
0000
,
0000
0000
0000
0000
,
0000
0000
0000
0000
,
0000
0000
0000
0000
,
0000
0000
0000
0000
,
0000
0000
0000
0000
,
0000
0000
0000
0000
,
0000
0000
0000
0000
,
0000
0000
MMMM
0000
,
0000
0000
0000
0000
,
0000
0000
0000
0000
,
0000
0000
0000
0000
,
0000
0000
0000
0000
,
0000
0000
0000
0000
,
0000
0000
0000
0000
,
0000
0000
0000
0000
,
0000
0000
0000
0000
,
0000
0000
0000
0000
,
0000
0000
0000
0000
,
0000
0000
0000
0000
,
0000
0000
0000
0000
,
0000
0000
2000
0000
,
0000
0000
0000
3001
,
0000
0010
0100
0000
1000
0001
0010
0000
,
1001
0000
0101
0000
0001
0010
0100
1000
,
0000
0001
0100
0000
0010
1000
0001
0000
,
1100
0000
0011
0000
0100
0001
0010
0100
,
0000
1000
0001
0000
0100
0010
1000
0000
,
1001
0000
0110
0000
0010
1000
0100
0000
,
0101
0001
0100
0000
0010
1000
0001
0000
,
1100
0000
0110
0000
0001
1000
0010
0100
,
0000
0001
0010
0000
0100
1000
0001
0000
,
1010
0000
0110
0000
0001
1000
0001
0100
,
0000
1000
0001
0000
0010
1000
0001
0000
,
0101
0000
1001
0000
0010
1000
0100
0010
,
0000
0001
1000
0000
0010
0100
0001
0000
,
1001
0000
1010
0000
0100
0001
0010
0000
,
1001
1000
0100
0000
0010
1000
0001
0000
,
1010
0000
1001
0000
0010
1000
0001
0100
,
0000
0001
0010
0000
0100
1000
0001
0000
,
0101
0000
0110
0000
1000
0001
0010
0100
,
0000
1000
0001
0000
0010
0100
1000
0000
,
0101
0000
1001
0000
1000
0010
0100
0001
,
0000
0010
0100
0000
1000
0001
0010
0000
,
1001
0000
1010
0000
0001
0010
0100
1000
,
0000
0001
0100
0000
1001
0000
0100
0000
,
0001
1000
0010
0100
,
0001
1000
0010
0000
0100
0000
1000
0000
,
0001
0100
0001
0000
0010
0000
0100
0000
,
1000
0010
0100
0000
0001
0000
0010
0000
,
0001
1000
0001
0000
0100
0000
0010
0000
,
1000
0001
0010
0000
0100
0000
0010
0000
,
1000
0100
0010
0000
0001
0000
0100
0000
,
0010
0100
0001
0000
0010
0000
0100
0000
,
1000
0100
1000
0000
0010
0000
0100
0000
,
0010
0001
0010
0000
0100
0000
0010
0000
,
0100
0010
1000
0000
0010
0000
0100
0000
,
0010
0001
1000
0000
0100
0000
0010
0000
,
1000
0010
0100
0000
0001
0000
0100
0000
,
0010
1000
0001
0000
0200
0000
0000
0000
,
0010
0010
0320
0032
,
2003
0000
3001
1000
,
0001
0100
0010
0000
1000
0000
0001
0000
,
1000
0100
0010
0000
0001
0000
1000
0000
,
0010
0001
0100
0000
0010
0000
1000
0000
,
0100
0010
0001
0000
1000
0000
0010
0000
,
0001
0100
0010
0000
1000
0000
0001
0000
,
0010
0100
1000
0000
0001
0000
0100
0000
,
0010
1000
0001
0000
0010
0000
0100
0000
,
1000
0010
0100
0000
0001
0000
1000
0000
,
0010
0100
0001
0000
0010
0000
0100
0000
,
1000
0100
0010
0000
0001
0000
1000
0000
,
0010
0100
0001
0000
0010
0000
0100
0000
,
1000
0001
0010
0000
0100
0000
1000
0000
,
0001
0100
0010
0000
1000
0000
0001
0000
,
0010
0100
1000
0000
0010
0000
0100
0000
,
0001
0100
0010
0000
1000
0000
0001
0000
,
1000
0100
0010
0000
0002
0000
0000
0000
,
0000
0000
0000
0000
0003
0000
2000
3000
,
0200
0320
0000
0030
2000
0000
0000
0000
,
0000
0000
3200
0000
,
0000
0000
0320
0000
,
0000
0000
0032
0000
,
0000
0000
2003
0000
,
0000
0000
3020
0000
,
0000
0000
0230
0000
,
0000
0000
0302
0000
,
0000
0000
0000
0000
1003
0100
0010
0100
,
0001
0010
0001
1000
0010
0100
0001
0010
,
0100
1000
0010
1000
0001
1000
0010
0100
,
0001
0010
0001
1000
0010
0100
0001
1000
,
0100
0010
0001
0010
0100
1000
0010
0100
,
0001
0100
0010
1000
0010
0100
0001
0010
,
0100
1000
0010
0100
0001
1000
0001
0010
,
0001
0100
0010
1000
0100
1000
0010
0100
,
0001
1000
0100
0010
1001
0001
1000
0010
,
0100
0001
0010
0100
1000
0010
0100
0001
,
0010
0001
1000
0010
0100
0001
0010
0001
,
1000
0010
0100
0001
1000
0001
0010
0001
,
0100
0010
1000
0100
1000
0001
0100
0010
,
1000
0001
1000
0010
1000
0100
0010
0001
,
0100
0001
0010
0100
1000
0010
0100
0001
,
0010
0100
1000
0010
0100
0001
0010
0001
,
0100
0010
1000
0001
0101
1000
0010
1000
,
0001
0010
0100
1000
0010
0100
0001
0010
,
0001
1000
0010
0100
0010
1000
0100
0010
,
0001
0100
0001
1000
0100
1000
0010
0100
,
0001
0010
0001
1000
0100
0010
0001
0100
,
0010
1000
0001
1000
0100
1000
0010
0100
,
0001
0010
0001
1000
0010
0100
0001
0010
,
0001
1000
0010
0100
0010
1000
0100
0010
,
0001
0100
0001
1000
1100
0001
0100
0001
,
1000
0010
0001
0100
1000
0010
0100
0001
,
0010
0100
1000
0010
0100
0001
1000
0001
,
0100
0010
1000
0010
0100
0001
1000
0100
,
0010
0001
0100
0001
1000
0100
0010
0100
,
1000
0010
0100
0001
0010
0001
1000
0100
,
0010
0001
0100
0010
0100
0001
0010
0100
,
1000
0010
1000
0001
0100
0010
0100
0001
,
1000
0100
0010
0001
0011
0100
1000
0001
,
1000
0100
1000
0010
0100
0001
0010
0001
,
1000
0010
0100
0010
1000
0100
0010
0001
,
0100
0010
1000
0010
0001
0010
0100
1000
,
0010
0100
0001
1000
0001
0010
0001
0100
,
0010
1000
0100
1000
0001
0010
0100
1000
,
0010
0100
0001
0010
0100
1000
0010
0100
,
0001
0010
0001
0100
0010
1000
0100
0010
,
0001
0100
0001
1000
0110
1000
0100
0010
,
0001
1000
0010
0100
0001
1000
0001
0100
,
1000
0010
1000
0001
0010
0100
1000
0010
,
0100
0001
0010
0100
1000
0010
0100
0001
,
1000
0001
0010
0001
0100
0010
1000
0100
,
1000
0001
0010
0100
1000
0010
0100
0001
,
1000
0001
0010
0001
0100
0010
1000
0001
,
1000
0010
0100
0001
0100
0010
1000
0100
,
0010
0001
0100
0010
1001
1000
0001
1000
,
0100
1000
0010
0100
0001
0010
0001
0100
,
0010
1000
0100
0010
0001
0100
0010
1000
,
0001
1000
0100
1000
0010
0100
0001
0010
,
0001
1000
0100
0010
0001
0100
0010
1000
,
0100
1000
0001
0010
0001
1000
0010
1000
,
0001
0100
0001
1000
0100
0010
0001
0100
,
0010
1000
0010
0100
0001
0010
0100
1000
,
0010
0100
0001
1000
0011
0001
1000
0100
,
0010
0001
0100
0010
1000
0001
1000
0100
,
1000
0010
0100
0001
0010
0001
1000
0100
,
0010
0001
0100
0010
1000
0001
0100
0001
,
1000
0100
0010
0001
0010
0100
1000
0010
,
0100
0001
0010
0100
1000
0010
0100
0001
,
1000
0001
0010
0100
1000
0100
0010
0001
,
0100
0001
1000
0010
0100
0010
1000
0100
,
0010
0001
0100
0001
1100
1000
0010
0100
,
0001
0010
0001
0100
0010
0100
0001
1000
,
0010
0100
0010
1000
0100
0010
0001
0100
,
0010
1000
0001
1000
0100
1000
0010
0100
,
0001
0010
0001
1000
0010
0100
0001
1000
,
0100
0010
0001
0100
0001
1000
0100
1000
,
0010
0100
0001
0010
0100
1000
0010
0100
,
0001
0010
0001
1000
0010
0100
0001
0010
,
0001
1000
0100
0010
1001
0000
0100
0110
,
0000
0000
0000
0000
1001
0000
0010
1010
,
0000
0000
0000
0000
1001
0000
0100
0110
,
0000
0000
0000
0000
1001
0000
0001
0011
,
0000
0000
0000
1010
0000
0000
0010
0011
,
0000
0000
0000
0000
0101
0000
0010
1010
,
0000
0000
0000
0000
1001
0000
0010
0110
,
0000
0000
0000
0000
0011
0000
0100
0101
,
0000
0000
0000
0000
1010
0000
0001
1001
,
0000
0000
0000
0000
1010
0000
0001
1001
,
0000
0000
0000
0000
1001
0000
0100
0110
,
0000
0000
0000
0000
1010
0000
0010
1010
,
0000
0000
0000
0000
1001
0000
0001
1001
,
0000
0000
0000
0000
0110
0000
0001
0101
,
0000
0000
0000
0000
0101
0000
1000
1001
,
0000
0000
0000
0000
0011
0000
0100
0101
,
0000
0000
0000
0000
1001
0000
0010
1010
,
0000
0000
0000
0000
1001
0000
0100
0110
,
0000
0000
0000
0000
1001
0000
0001
0011
,
0000
0000
0000
0000
1100
0000
0100
0101
,
0000
0000
0000
0000
1001
0000
0010
0110
,
0000
0000
0000
0000
1100
0000
0001
0101
,
0000
0000
0000
0000
1001
0000
0100
0101
,
0000
0000
0000
0000
0101
0000
0010
1010
,
0000
0000
1001
0010
,
1010
0000
1000
0001
0100
0000
0001
0000
,
1001
0000
1000
0010
0100
0000
0001
0000
,
0101
0000
1000
0001
0010
0000
1000
0000
,
1010
0000
1001
0001
0101
0000
0110
0000
,
1010
0000
0001
1000
0010
0000
1001
0000
,
0001
0010
0100
1000
0001
0000
0101
0100
,
0110
0000
1000
0001
0010
0100
0001
1000
,
0100
0010
0001
0100
0010
1000
0001
0010
,
0100
0001
0010
0001
1000
0100
0010
0001
,
0010
0100
1000
0010
0100
0001
0010
0100
,
1000
0010
0100
0001
0100
0010
1000
0010
,
0100
0001
0010
0001
1000
0010
0100
0010
,
1000
0100
0010
0001
0100
0010
1000
0001
,
1000
0100
1000
0010
0100
0001
0010
0001
,
1000
0100
0010
0001
0100
0001
1000
0100
,
0010
0001
0010
1000
1001
0100
0010
0001
,
0010
0100
1000
0010
0100
0001
0010
0100
,
1000
0010
1000
0001
0010
0100
1000
0010
,
0100
0001
0010
0001
0100
0010
1000
0001
,
0010
0100
1000
0010
0100
0001
0010
0100
,
1000
0010
1000
0100
0010
0001
0100
0010
,
1000
0001
0100
0010
0100
0001
1000
0100
,
1000
0010
1000
0001
0010
0100
0010
0001
,
0100
0001
1000
0010
0110
1000
0010
0100
,
0001
0010
0001
1000
0010
0100
0001
0010
,
0100
1000
0010
1000
0100
0010
0001
0100
,
0010
0100
0001
0010
0100
1000
0010
0100
,
0001
1000
0100
1000
0010
1000
0100
0010
,
0001
0100
0001
0010
0001
0100
0010
1000
,
0100
0010
0001
0100
0010
1000
0010
0100
,
0001
0010
0100
1000
0010
0100
0001
0010
,
0001
0100
0010
1000
1001
0100
0001
0010
,
0001
0100
0010
1000
0100
0010
0001
0100
,
0001
1000
0100
1000
0010
1000
0100
0010
,
0001
0100
0001
0010
0001
0100
0010
1000
,
0100
0010
0001
1000
0010
0100
0001
0010
,
0100
1000
0010
0100
0001
0100
0010
1000
,
0010
0100
0001
1000
0100
0010
0001
0100
,
0010
1000
0001
1000
0100
1000
0010
0100
,
0001
0010
0001
0100
1010
1000
0001
1000
,
0010
0100
0001
0010
0100
1000
0010
1000
,
0100
0010
0001
0100
0010
0100
0001
0010
,
0100
1000
0010
1000
0001
1000
0100
0010
,
0001
0100
0001
0010
0100
1000
0010
1000
,
0100
1000
0010
0100
0001
0010
0100
1000
,
0010
1000
0100
0010
0001
0100
0010
0100
,
0001
0010
0100
1000
0010
1000
0100
0010
,
0001
0100
0001
1000
1100
0001
0100
0010
,
1000
0010
0100
0001
0010
0100
1000
0010
,
1000
0001
0010
0100
1000
0010
0100
0001
,
0010
0001
0100
0010
1000
0001
1000
0100
,
1000
0010
0100
0001
0010
0001
1000
0100
,
0010
0001
0100
0010
1000
0010
0100
0001
,
0010
0100
1000
0010
0100
0001
1000
0001
,
0010
0001
0100
0010
1000
0100
1000
0001
,
0010
0100
1000
0010
0000
0000
0000
0000
;

//---------------dance-single - ----------------
#NOTES:
     dance-single:
     :
     Challenge:
     11:
     0.988,1.000,1.000,0.057,0.164,1643.000,659.000,19.000,4.000,9.000:
0000
0000
0000
0000
,
0000
0000
0000
0000
,
0000
0000
0000
0000
,
0000
0000
0000
0000
,
0000
0000
0000
0000
,
0000
0000
0000
0000
,
0000
0000
0000
0000
,
0000
0000
0000
0000
,
0000
0000
0000
0000
,
0000
0000
0000
0000
,
0000
0000
MMMM
0000
,
0000
0000
0000
0000
,
0000
0000
0000
0000
,
0000
0000
0000
0000
,
0000
0000
0000
0000
,
0000
0000
0000
0000
,
0000
0000
0000
0000
,
0000
0000
0000
0000
,
0000
0000
0000
0000
,
0000
0000
0000
0000
,
0000
0000
0000
0000
,
0000
0000
0000
0000
,
0000
0000
0000
0000
,
0000
0000
2004
0000
,
0000
0000
0000
3003
,
0000
0011
1100
0000
1001
0100
0001
1000
,
0011
1010
0100
0010
1001
0100
0010
0001
,
1000
0101
0010
1000
0101
1000
0010
0100
,
1001
0010
0100
0001
1010
0100
0010
0001
,
0010
1100
1001
0100
0011
0100
1000
0010
,
1100
0001
0110
1000
0011
1000
0010
0100
,
1001
0010
0001
0100
1010
0001
0100
0001
,
1100
0010
0100
0001
0110
1000
0100
0010
,
0001
0101
1010
0100
1001
0010
0100
0001
,
0110
1000
0100
0010
1001
0100
0001
1000
,
0100
0011
1100
0000
1001
0100
0001
1000
,
0011
1010
0100
0010
1001
0100
0010
0001
,
1000
0101
0010
1000
0101
1000
0010
0100
,
1001
0010
0100
0001
1010
0100
0010
0001
,
0010
1100
1001
0100
0011
0100
1000
0010
,
1100
0001
0110
1000
0011
1000
0010
0100
,
1001
0010
0001
0100
1010
0001
0100
0001
,
1100
0010
0100
0001
0110
1000
0100
0010
,
0001
0101
1010
0100
1001
0100
0010
1000
,
0110
0001
1000
0001
1100
0010
0001
0100
,
0011
1000
0100
1000
0110
0001
0100
0010
,
1001
0100
0010
1000
0101
0010
0001
1000
,
0110
1000
0010
0001
1100
0010
0100
1000
,
0011
0100
0010
0001
0110
1000
0001
0100
,
1001
0010
1000
0001
0110
1000
0100
0010
,
1100
0001
0100
1000
0110
0001
0100
0010
,
1001
0100
0010
1000
0011
0100
0001
1000
,
0110
0001
0010
0100
1001
0010
1000
0010
,
0101
1000
0010
0100
1010
0001
0100
1000
,
0110
0001
1000
0010
0101
1000
0010
0001
,
1100
0001
0010
1000
0110
1000
0010
0100
,
1001
0010
1000
0100
0011
1000
0001
1000
,
0110
0001
0010
0001
1100
0001
1000
0001
,
0110
1000
0010
0100
1001
0010
1000
0010
,
0101
1000
0010
1000
0011
0100
1000
0010
,
0101
1000
0100
0010
1001
0100
0010
0001
,
0110
1000
0001
0010
2200
0000
0000
0000
,
3311
0100
0110
0100
,
1001
0000
0010
0000
1010
0001
0010
0100
,
1001
0010
1000
0010
0101
1000
0010
0100
,
1010
0001
0100
1000
0110
0001
1000
0010
,
0101
1000
0010
0001
1100
0001
0010
1000
,
0110
1000
0010
0100
1001
0010
1000
0100
,
0011
1000
0001
1000
0110
0001
0010
0001
,
1100
0001
1000
0001
0110
1000
0010
0100
,
1001
0010
1000
0010
0101
1000
0010
1000
,
0011
0100
1000
0010
0101
1000
0100
0010
,
1001
0100
0001
0010
1100
0001
0010
0100
,
1001
0010
1000
0010
0101
1000
0010
0100
,
1010
0001
0100
1000
0110
0001
1000
0010
,
0101
1000
0010
0001
1100
0001
0010
1000
,
0110
1000
0010
0100
1001
0010
1000
0100
,
0011
1000
0001
1000
0110
0001
0010
0001
,
1100
0001
1000
0001
0110
1000
0010
0100
,
1001
0010
1000
0100
2002
0000
0000
0000
,
0000
0000
0000
0000
3003
0000
2020
3030
,
0220
0330
0202
0000
0000
0000
0303
0000
2001
0000
0000
0000
0000
0000
0000
0000
,
0000
0000
3210
0000
,
0000
0000
0321
0000
,
0000
0000
0132
0000
,
0000
0000
2013
0000
,
0000
0000
3120
0000
,
0000
0000
0231
0000
,
0000
0000
1302
0000
,
0000
0000
0000
0000
1103
0010
1001
1000
,
0110
1000
0011
0001
1100
0001
0110
1000
,
0101
0010
1001
0001
0110
0001
1100
0010
,
1001
1000
0110
1000
0011
1000
0101
0010
,
1001
0000
0100
0000
0110
0000
0001
0000
1000
0100
0010
0001
1000
0010
0100
0010
,
1000
0001
0100
0010
0100
0001
1000
0100
0010
0001
0100
0001
0010
0100
1000
0010
,
1000
0001
0010
0001
0100
0010
1000
0100
1000
0010
0100
0001
1000
0100
0010
0001
,
0100
0010
1000
0100
0010
0001
0010
0100
1001
0000
0100
0000
1010
0000
0001
0000
,
0110
1000
0011
0100
1001
0100
1010
0001
,
0110
1000
0011
1000
0101
0010
1001
0100
,
1010
0001
1100
1000
0011
1000
0101
0010
,
1001
0010
1100
0001
0110
1000
0011
1000
,
0110
0001
1100
0010
1001
0100
0110
1000
,
0011
1000
0110
0100
1001
0100
1010
0001
,
1100
0010
1001
0100
0011
1000
1001
0100
,
1010
0001
0110
0010
1001
0010
0101
1000
,
0110
0100
1001
0001
0110
1000
0011
0001
,
1100
0001
1010
0010
0101
1000
0011
0001
,
1100
0001
1010
0100
1001
0010
0110
1000
,
0011
0010
0101
1000
1001
0010
0110
1000
,
0011
0001
1100
0001
0110
0100
1001
0010
,
0110
1000
0011
1000
0110
0100
1001
0010
,
1100
0001
1010
0100
1001
0010
0110
1000
,
0101
0010
1100
0010
1001
0100
0110
1000
,
0001
0010
0100
1000
0010
0100
0001
0010
1001
0000
0100
0000
1010
0000
0001
0000
,
0110
1000
0011
0100
1001
0100
1010
0001
,
0110
1000
0011
1000
0101
0010
1001
0100
,
1010
0001
1100
1000
0011
1000
0101
0010
,
1001
0010
1100
0001
0110
1000
0011
1000
,
0110
0001
1100
0010
1001
0100
0110
1000
,
0011
1000
0110
0100
1001
0100
1010
0001
,
1100
0010
1001
0100
0011
1000
1001
0100
,
1010
0001
0110
0010
1001
0010
0101
1000
,
0110
0100
1001
0001
0110
1000
0011
0001
,
1100
0001
1010
0010
0101
1000
0011
0001
,
1100
0001
1010
0100
1001
0010
0110
1000
,
0011
0010
0101
1000
1001
0010
0110
1000
,
0011
0001
1100
0001
0110
0100
1001
0010
,
0110
1000
0011
1000
0110
0100
1001
0010
,
1100
0000
0001
0000
1010
0000
0100
0000
1001
0000
0010
0000
1000
0010
0100
0001
,
1000
0010
1000
0001
0100
0001
0010
0100
1001
0000
0100
0000
1010
0000
0001
0000
,
1100
0001
1010
0100
0011
1000
0101
0010
,
1001
0010
1100
0001
0110
1000
0011
1000
,
0110
0001
1100
0010
1001
0100
0110
1000
,
0011
1000
0110
0100
1001
0100
1010
0001
,
1100
0010
1001
0100
0011
1000
1001
0100
,
1010
0001
0110
0010
1001
0010
0101
1000
,
0110
0000
0100
0000
1001
0000
0001
0000
0110
0000
1000
0000
0001
1000
0010
0100
,
0001
1000
0010
1000
0001
0100
0010
1000
0101
0000
1000
0000
0011
0000
0001
0000
,
1100
0001
1010
0100
1001
0010
0110
1000
,
0011
0010
0101
1000
1001
0010
0110
1000
,
0011
0001
1100
0001
0110
0100
1001
0010
,
0110
1000
0011
1000
0110
0100
1001
0010
,
1100
0001
1010
0100
1001
0100
0011
0001
,
1100
0001
1010
0100
1001
0010
0110
1000
,
0011
0000
0010
0000
0101
0000
1000
0000
1001
0000
0010
0000
1000
0100
0010
0001
,
0100
0010
1000
0010
0100
0001
1000
0001
0110
0000
0100
0000
1001
0000
0010
0000
,
0110
1000
0011
1000
0110
0100
1001
0010
,
1100
0001
1010
0100
1001
0100
1010
0001
,
0110
1000
0011
0100
1001
0100
1010
0001
,
0110
1000
0011
1000
0101
0010
1001
0100
,
1010
0001
1100
1000
0011
1000
0101
0010
,
1001
0010
1100
0001
0110
1000
0011
1000
,
0110
0001
1100
0010
1001
0100
0110
1000
,
0011
1000
0110
0100
1001
0100
1010
0001
,
1100
0010
1001
0100
0011
1000
1001
0100
,
1010
0001
0110
0010
1001
0010
0101
1000
,
0110
0100
1001
0001
0110
1000
0011
0001
,
1100
0001
1010
0010
0101
1000
0011
0001
,
1100
0001
1010
0100
1001
0010
0110
1000
,
0011
0000
0010
0000
0101
0000
1000
0000
0010
0100
0001
1000
0010
1000
0001
0100
,
0001
1000
0100
0010
0001
0010
0100
1000
0101
0000
0010
0000
1001
0000
1000
0000
,
0110
0001
1100
0010
0101
0000
1100
0110
,
0000
0000
0000
0000
1001
0000
0110
1010
,
0000
0000
0000
0000
1001
0000
1100
0110
,
0000
0000
0000
0000
1001
0000
0101
0011
,
0000
0000
0000
1010
0000
0000
1010
0011
,
0000
0000
0000
0000
0101
0000
0101
1010
,
0000
0000
0000
0000
1001
0000
1001
0110
,
0000
0000
0000
0000
0011
0000
1100
0101
,
0000
0000
0000
0000
1010
0000
0101
1001
,
0000
0000
0000
0000
1010
0000
0110
0011
,
0000
0000
0000
0000
1001
0000
1100
0110
,
0000
0000
0000
0000
1010
0000
0110
1010
,
0000
0000
0000
0000
1001
0000
0101
1001
,
0000
0000
0000
0000
0110
0000
1001
0110
,
0000
0000
0000
0000
1001
0000
1010
0101
,
0000
0000
0000
0000
0011
0000
1100
0011
,
0000
0000
0000
0000
1001
0000
0110
1010
,
0000
0000
0000
0000
1001
0000
1100
0110
,
0000
0000
0000
0000
1010
0000
0110
0011
,
0000
0000
0000
0000
1100
0000
0110
0101
,
0000
0000
0000
0000
1001
0000
0011
0110
,
0000
0000
0000
0000
1100
0000
0011
0101
,
0000
0000
0000
0000
1001
0000
0110
1001
,
0000
0000
0000
0000
1010
0000
0011
1010
,
0000
0000
0000
0000
1001
0100
0010
0001
,
1100
0010
0001
0100
1001
0010
1000
0010
,
0101
1000
0100
0010
0011
1000
0001
0010
,
1100
0001
1000
0001
0110
1000
0100
0010
,
1001
0010
0101
1000
1010
0001
0110
1000
,
0011
1000
0110
0010
1001
0001
1100
0001
,
1010
0100
1001
0010
0110
1000
0101
0010
,
1001
0100
0110
0001
1100
0110
0011
0101
,
1001
0110
1100
0010
1001
0100
1010
0001
,
0110
0010
1001
0010
1100
0001
1010
0100
,
0011
1000
0101
0010
0011
1000
1100
0001
,
0110
0010
1001
0010
1100
0001
0110
1000
,
0101
0010
1001
0100
0110
0001
1010
0100
,
1001
0010
0110
1000
0011
1000
0101
0010
,
1001
0000
0001
0000
0110
0000
0001
0000
1000
0100
0010
0001
1000
0010
0100
0001
,
0010
0001
0100
0010
1000
0001
0100
0010
1001
0000
0100
0000
1010
0000
0001
0000
,
0110
1000
0011
0110
1001
1000
0101
0001
,
0110
1000
0011
1000
0110
0100
1001
0010
,
1100
0001
1010
0100
1001
0100
1010
0001
,
0110
1000
0011
0100
1001
0100
1010
0001
,
0110
1000
0011
1000
0101
0010
1001
0100
,
1010
0001
1100
1000
0011
1000
0101
0010
,
1001
0010
1100
0001
0110
1000
0011
1000
,
0110
0001
1100
0010
1001
0100
0110
1000
,
0011
1000
0110
0100
1001
0100
1010
0001
,
1100
0010
1001
0100
0011
1000
1001
0100
,
1010
0001
0110
0010
1001
0010
0101
1000
,
0110
0100
1001
0001
0110
1000
0011
0001
,
1100
0001
1010
0010
0101
1000
0011
0001
,
1100
0001
1010
0100
1001
0010
0110
1000
,
0011
0010
0101
1000
0011
0100
1001
1000
,
0110
0001
1010
1000
0011
0100
1001
0100
,
0011
1000
0110
0010
1001
0100
1010
0001
,
0110
1000
0011
0110
1001
1000
0101
0001
,
0110
1000
0011
1000
0110
0100
1001
0010
,
1100
0001
1010
0100
1001
0100
1010
0001
,
0110
1000
0011
0100
1001
0100
1010
0001
,
0110
1000
0011
1000
0101
0010
1001
0100
,
1010
0001
1100
1000
0011
1000
0101
0010
,
1001
0010
1100
0001
0110
1000
0011
1000
,
0110
0001
1100
0010
1001
0100
0110
1000
,
0011
1000
0110
0100
1001
0100
1010
0001
,
1100
0000
0010
0000
1001
0000
0100
0000
1000
0001
0100
0010
1000
0100
0010
0001
,
0010
0100
1000
0010
1000
0100
0001
0100
0010
1000
0010
0100
0001
0010
0100
1000
,
0100
0010
0001
1000
0010
0100
0010
1000
0100
0010
0001
0100
0010
0100
0001
1000
,
0100
0010
0001
0100
0010
1000
0001
1000
0001
0100
0010
1000
0001
0100
1000
0001
,
0010
0100
1000
0010
1000
0100
0001
0100
0010
1000
0010
0100
0001
0010
0100
1000
,
0100
0010
0001
1000
0010
0100
0010
1000
0100
0010
0001
0100
0010
0100
0001
1000
,
0100
0010
0001
0100
0010
1000
0001
0100
1001
0000
0100
0000
1010
0000
0001
0000
,
0110
1000
0011
0110
1001
1000
0101
0001
,
0110
1000
0011
1000
0110
0100
1001
0010
,
1100
0001
1010
0100
1001
0100
1010
0001
,
0110
1000
0011
0100
1001
0100
1010
0001
,
0110
1000
0011
1000
0101
0010
1001
0100
,
1010
0001
1100
1000
0011
1000
0101
0010
,
1001
0010
1100
0001
0110
1000
0011
1000
,
0110
0001
1100
0010
0000
0000
0000
0000
;
