#TITLE:OVERBLAST!!;
#SUBTITLE:;
#ARTIST:L.E.D. Light;
#TITLETRANSLIT:;
#SUBTITLETRANSLIT:;
#ARTISTTRANSLIT:;
#CREDIT:;
#BANNER:../fallback - bn.png;
#BACKGROUND:../fallback - bg.png;
#LYRICSPATH:;
#CDTITLE:;
#MUSIC:OVERBLAST!!.ogg;
#OFFSET:0.538;
#SAMPLESTART:39.856;
#SAMPLELENGTH:11.960;
#SELECTABLE:YES;
#BPMS:0.000=147.000;
#STOPS:;
#BGCHANGES:;
// cache tags:
#FIRSTBEAT:2.500;
#LASTBEAT:168.000;
#SONGFILENAME:Songs/Beast Aoreo BEAST!/Overblast!! - [Aoreo]/Overblast.sm;
#HASMUSIC:1;
#HASBANNER:1;
#MUSICLENGTH:70.870;
// end cache tags

//---------------dance-single - J. Nero----------------
#NOTES:
     dance-single:
     J. Nero:
     Challenge:
     11:
     1.000,0.978,0.748,0.071,1.000,460.000,53.000,5.000,8.000,5.000:
0000
0000
0000
0000
0000
0000
0000
0000
0000
0000
1000
0000
0000
0001
0000
0000
,
1001
0000
1000
0010
0100
0000
0001
0010
0100
1000
0010
0100
0001
0000
1000
0100
,
0010
0000
0100
0000
1100
0000
1000
0010
0100
0001
1000
0000
0110
0000
0010
0000
,
1001
0000
1000
0000
0100
0000
0010
0001
0010
0100
1000
0010
0100
0000
0010
0000
,
1010
0000
1000
0000
0000
0001
0000
0000
0100
0000
0000
0001
0000
0000
0010
0000
,
0100
1000
0100
1000
0010
0100
0001
1000
0001
0010
0100
1000
0010
0100
0001
1000
,
0001
0100
0010
1000
0010
0100
0001
0100
0001
0010
0100
1000
0100
1000
0010
1000
,
0010
0100
0001
0100
0001
0010
0100
1000
0100
0010
0001
0100
0010
1000
0001
1000
,
0100
0010
0001
1000
0010
0100
0001
1000
0100
0001
0100
1000
0001
0100
1000
0100
,
0001
0000
1000
0000
0010
0000
0100
0001
0000
0010
0100
0000
1000
0010
0000
0000
,
0110
0000
0100
0000
0001
0010
0000
0100
0000
0000
1000
0000
0001
1000
0011
0000
,
1001
0000
0100
0000
0010
0000
1000
0100
0000
0100
0010
0000
0001
0100
0000
0000
,
0110
0000
0010
0000
1000
0001
0000
0010
0000
0000
0110
0000
0000
1100
0000
0000
,
1001
0000
0001
0100
0010
0000
1000
0010
0100
0001
0010
0100
1000
0010
0000
0100
,
0001
0000
0100
0000
0010
1000
0000
0010
0000
0000
0100
0000
0001
0000
0010
0000
,
0111
0000
0100
1000
0010
0100
0001
0010
0100
1000
0010
0100
0001
1000
0001
0100
,
0011
0000
0000
0000
0100
0000
0010
0000
0000
0000
1010
0000
0000
0110
0000
0000
,
0101
0000
0001
0010
0100
1000
0010
0100
0000
0001
0010
0000
0200
1300
0000
0010
,
0100
0000
0001
0000
1000
0010
0000
0100
0000
0001
1000
0000
0020
0130
0000
0010
,
1010
0000
1000
0010
0100
0001
1000
0001
0010
0000
0100
0000
2002
3003
0000
0100
,
0010
0000
0100
0000
0001
1000
0000
0010
0000
0000
0110
0000
0000
0101
0000
0000
,
1101
0000
1000
0000
0010
0100
0000
0001
0010
0100
1000
0010
0200
0310
0000
0100
,
0001
0000
1000
0000
0100
0010
0000
0100
0000
1000
0010
0000
0101
0000
0100
0000
,
1010
0000
0010
0000
0100
0001
0000
0010
0100
1000
0010
0100
0001
1000
0000
0000
,
1111
0000
0000
0000
1111
0000
0000
0000
1111
0000
0000
0001
1000
0000
0010
0000
,
0110
0000
0100
0001
0010
0100
1000
0010
0000
1000
0100
1000
0001
0010
0100
1000
,
0100
0000
1000
0010
0100
0001
1000
0001
0000
0100
0010
1000
0001
0010
0100
1000
,
0010
0100
0001
0000
1000
0001
0010
0100
1000
0001
0100
0000
0001
0100
0001
1000
,
0100
1000
0010
0100
0000
0001
1000
0100
1000
0010
0100
0001
0010
0000
0100
1000
,
0100
1000
0010
0100
0001
1000
0010
0100
0000
0001
0000
0100
0010
1000
0100
1000
,
0010
0000
0100
0001
0000
0010
0100
0000
1000
0010
0000
0100
0001
0100
0010
1000
,
0100
1000
0010
0100
0001
0010
0100
1000
0010
0100
0001
1000
0010
0100
0010
1000
,
0011
M100
0001
1M00
0011
M100
0010
1M00
0011
M100
0001
1M00
0011
M100
0010
1M00
,
0011
0000
0100
0000
0001
0000
0010
0100
1000
0000
0100
0000
1100
0000
1000
0010
,
0100
0000
0010
0000
0100
0001
0000
1000
0010
0100
0001
1000
0100
0000
0011
0000
,
0110
0000
1000
0000
0010
0100
0000
0001
1000
0000
0100
0000
1000
0010
0000
0100
,
0001
0010
0100
1000
0010
0100
0000
0001
1000
0010
0100
0010
1000
0000
1001
0000
,
0101
0000
0000
0001
0100
0000
0010
0000
1100
0000
0000
1000
0001
0000
0011
0000
,
0110
0000
0100
0000
1000
0010
0000
0000
1000
0100
0000
0100
0010
0000
0001
0000
,
0101
0000
0100
0010
1000
0000
0010
0000
0110
0000
0100
0001
1000
0000
0100
0000
,
1100
0000
1000
0000
1010
0000
0010
0000
1100
0001
1100
0001
1100
0001
1100
0001
,
1100
0000
0000
0000
0000
0000
0000
0000
0000
0000
1001
0000
0000
0110
0000
0000
,
1001
0000
0000
0000
;
