#TITLE:Lost Key;
#SUBTITLE:;
#ARTIST:P*light feat mow*2;
#TITLETRANSLIT:;
#SUBTITLETRANSLIT:;
#ARTISTTRANSLIT:;
#CREDIT:;
#BANNER:;
#BACKGROUND:;
#LYRICSPATH:;
#CDTITLE:;
#MUSIC:Lost Key.mp3;
#OFFSET:-0.230;
#SAMPLESTART:42.592;
#SAMPLELENGTH:12.000;
#SELECTABLE:YES;
#DISPLAYBPM:170.000;
#BPMS:0.000=170.000;
#STOPS:;
#BGCHANGES:;
// cache tags:
#FIRSTBEAT:2.000;
#LASTBEAT:722.000;
#SONGFILENAME:Songs/Owem's Simfiles 08 - 1.2/Lost Key - [Braeden] v1.0.0/Lost Key.sm;
#HASMUSIC:1;
#HASBANNER:0;
#MUSICLENGTH:270.111;
// end cache tags

//---------------dance-single - 16 [Braeden]----------------
#NOTES:
     dance-single:
     16 [Braeden]:
     Challenge:
     16:
     1.000,1.000,0.041,0.285,1.000,2442.000,11.000,77.000,11.000,0.000:
0000
0000
0000
0000
0000
0000
0000
0000
1001
0000
1000
0000
0001
0100
0001
0000
,
4000
0000
0000
0000
3010
0100
0010
0000
1000
0010
1000
0000
0001
0100
0001
0000
,
2000
0000
0000
0000
3040
0000
0430
0000
0310
1000
0010
0000
0100
0001
0100
0000
,
0020
0000
1030
0001
0100
0010
1000
0000
0001
0100
0004
0000
0403
0000
0304
0000
,
0403
0000
0000
0000
0301
1000
0100
0010
0001
1000
0001
0100
0010
1000
0010
0100
,
0001
0010
0001
1000
0010
0100
0010
1000
0100
0010
0100
1000
0001
0100
0010
1000
,
0004
0000
0000
0000
0203
0000
0310
0000
1000
0001
0010
0100
1000
0001
0100
0010
,
0100
0001
1000
0100
0010
0001
1000
0010
0100
0000
0004
0000
0023
0000
0230
0000
,
2300
0000
0000
0000
0000
0000
3001
0000
1000
0000
0001
0000
0400
0000
0000
0000
0000
0000
0000
0000
0000
0000
0000
0000
0310
0000
0000
1000
0000
0000
0001
0000
0000
0010
0000
0000
0100
0000
0000
1000
0000
0000
0010
0000
0000
0100
0000
0000
,
0001
1000
0100
0010
0001
1000
0010
0100
0001
0010
0100
0010
0001
1000
0010
0100
,
0001
1000
0100
0010
0100
1000
0010
0100
0001
0010
0001
1000
0100
0010
0100
1000
,
0001
0100
0010
1000
0100
0010
0001
1000
0010
0100
0001
0010
0001
1000
0100
0010
,
0004
0000
0000
0000
1003
0000
0010
0000
2000
3010
0100
0000
0001
0010
0001
0000
,
1000
0000
0000
0001
0000
0000
1000
0000
0000
0010
0000
0000
0100
0000
0000
0001
0000
0000
0010
0000
0000
0001
0000
0000
1000
0000
0000
0100
0000
0000
1000
0000
0000
0000
0000
0000
0010
0000
0000
0000
0000
0000
0100
0000
0001
0000
0100
0000
,
0001
0000
0000
0000
0000
0000
1000
0000
0100
0000
0010
0000
0001
0000
0000
0000
0000
0000
1000
0000
0010
0000
0100
0000
0001
0000
0000
1000
0000
0000
0010
0000
0000
0100
0000
0000
0001
0000
0000
1000
0000
0000
0100
0000
0010
0000
0001
0000
,
0010
0000
0000
0100
0000
0000
1000
0000
0010
0000
0100
0000
0001
0000
1000
0000
0100
0000
0010
0000
0001
0000
1000
0000
0002
0000
0000
0000
0000
0000
0000
0000
0000
0000
0000
0000
1003
0000
0000
0010
0000
0000
0100
0000
0000
0001
0000
0000
,
1000
0000
0010
0000
1000
0000
0001
0000
0010
0000
0001
0000
1000
0000
0000
0000
0000
0000
0000
0000
0000
0000
0000
0000
0001
0000
0000
0100
0000
0000
0010
0000
0000
1000
0000
0000
0001
0000
0000
0010
0000
0000
0100
0000
0000
0010
0000
0000
,
0001
1000
0100
0010
0100
1000
0001
0100
0010
0100
0001
1000
0100
1000
0001
0100
,
0010
1000
0001
1000
0010
0100
0001
0100
0001
1000
0100
0010
0001
0100
0010
0100
,
0001
0010
0001
1000
0100
0010
0001
0100
0010
1000
0001
0010
0001
0100
0001
1000
,
0001
0010
0100
0010
0001
1000
0001
0010
0100
1000
0001
0010
0001
1000
0100
0010
,
0001
1000
0010
0100
0001
0010
0100
1000
0001
0100
0010
0100
0001
0010
0001
1000
,
0001
0100
0010
0100
0001
0010
0001
0100
0001
1000
0100
0010
0001
1000
0100
0010
,
0001
1000
0010
0100
0001
0010
0100
1000
0001
0100
0001
0010
0001
0010
0100
1000
,
0100
1000
0001
0100
0001
0010
0100
0000
0000
0000
0000
0000
1000
0001
1000
0100
,
1000
0001
0100
0010
0100
0001
0010
0001
1000
0100
0010
0001
1000
0010
0100
0001
,
1000
0100
1000
0001
0100
0010
1000
0010
0100
0001
0010
0001
1000
0100
0010
0001
,
1000
0010
0100
0001
0010
0100
1000
0001
0100
0010
1000
0100
1000
0010
0100
0001
,
0100
0010
1000
0100
0010
0001
0100
0010
1000
0100
0010
0100
1000
0001
0100
0010
,
0100
0001
0010
0001
1000
0100
0010
0001
1000
0010
0100
0001
0010
0100
1000
0010
,
1000
0100
0010
0001
0100
0010
0100
0001
0010
0001
1000
0100
1000
0001
0100
0010
,
0100
0001
0010
0001
1000
0100
0010
0001
0200
0000
0000
0000
0310
1000
0010
0100
,
0001
0000
0010
0000
0001
0000
1000
0000
0100
0000
1000
0000
0010
0000
0000
0000
0000
0000
0000
0000
0000
0000
0000
0000
1000
0000
0000
0001
0000
0000
1000
0000
0000
0100
0000
0000
0010
0000
0000
0001
0000
0000
0100
0000
0000
0010
0000
0000
,
1000
0001
0010
0100
1000
0001
0100
0010
0100
0001
0010
0001
1000
0100
0010
0001
,
0100
0010
1000
0001
0100
0010
0100
0010
1000
0100
0010
0001
0100
0010
1000
0001
,
0010
0100
1000
0001
0100
0010
0100
0001
1000
0100
0010
0001
1000
0001
0010
0001
,
1000
0100
0010
0001
0010
0100
1000
0010
0100
0001
0010
0001
1000
0100
0010
0100
,
1000
0001
0100
0010
0100
0001
0010
0001
1000
0100
0010
0001
0100
0010
1000
0001
,
1000
0100
1000
0100
0010
0001
0100
0010
1000
0100
1000
0001
0100
0010
1000
0100
,
0010
0001
0100
0010
1000
0001
0010
0001
1000
0100
1000
0010
0100
0001
0010
0001
,
0100
0010
1000
0010
0100
0010
1000
0100
0010
0100
1000
0001
0100
0010
1000
0001
,
1000
0100
1000
0001
0100
0010
0100
0001
0010
0001
1000
0100
0010
0100
1000
0001
,
0100
0010
0100
0001
1000
0100
0010
0001
0100
0010
1000
0001
0010
0001
1000
0010
,
1000
0001
0010
0100
1000
0001
0100
0010
1000
0001
0010
0100
1000
0010
0100
0001
,
0100
0010
1000
0100
0010
0001
0100
0010
1000
0100
0010
0001
0010
0100
1000
0001
,
0100
0010
0100
0001
1000
0100
1000
0001
0100
0010
0100
0001
1000
0100
0010
0001
,
1000
0010
1000
0100
0010
0001
0100
0010
1000
0001
0010
0100
1000
0010
0100
0001
,
0010
0001
1000
0100
0010
0001
0100
0010
0100
0001
1000
0010
0100
0010
1000
0100
,
0010
0100
1000
0010
2000
0000
0000
0000
3010
0100
0001
0010
0001
1000
0100
0010
,
0001
1000
0010
0100
0001
0010
0100
1000
0010
0100
0001
1000
0100
0010
0001
1000
,
0010
0100
0001
1000
0100
0010
0100
1000
0010
0100
0001
1000
0100
0010
0001
1000
,
0010
1000
0100
1000
0001
0010
0001
0100
0001
1000
0100
0010
0001
1000
0010
0100
,
0010
1000
0100
0010
0001
1000
0001
0010
0100
1000
0010
0100
0001
1000
0100
0010
,
0001
1000
0010
1000
0100
1000
0001
0010
0001
0100
0001
0010
0100
1000
0001
0100
,
0010
1000
0100
1000
0001
0100
0010
1000
0100
0010
0001
1000
0010
1000
0001
0010
,
0100
0010
0001
1000
0100
0010
0001
1000
0010
0100
0001
0100
0010
1000
0010
0100
,
0001
1000
0010
1000
0100
0010
0001
0100
0010
1000
0001
0010
0100
0010
0001
1000
,
0010
0100
0001
1000
0100
0010
0001
1000
0010
0100
0001
0010
0100
0010
0001
1000
,
0001
0100
0010
1000
0001
0100
0010
1000
0001
0010
0001
0100
0010
0100
0001
1000
,
0100
1000
0001
0100
0010
1000
0100
0010
0001
1000
0010
0100
0010
1000
0100
0010
,
0100
1000
0010
0100
0001
0010
0001
0100
0010
1000
0001
0010
0001
1000
0100
0010
,
0001
1000
0010
0100
0001
0010
0001
1000
0100
0010
0001
1000
0010
0100
0001
0010
,
0001
0000
0000
1000
0000
0000
0100
0000
0000
1000
0000
0000
0001
0000
0000
0100
0000
0000
0010
0000
0000
0100
0000
0000
0001
0000
1000
0000
0100
0000
1000
0000
0001
0000
0010
0000
0001
0000
0000
1000
0000
0000
0100
0000
0000
1000
0000
0000
,
0001
0000
0000
0010
0000
0000
0001
0000
0000
1000
0000
0000
0001
0000
0010
0000
0001
0000
1000
0000
0100
0000
1000
0000
0002
0000
0000
0000
0000
0000
0000
0000
0000
0000
0000
0000
1003
0000
0000
0010
0000
0000
0100
0000
0000
0001
0000
0000
,
1000
0100
1000
0001
0010
0001
1000
0000
0000
0000
0000
0000
0011
0000
0000
0000
0000
0000
0010
0000
0000
0000
0000
0000
,
0100
0000
1000
0010
0000
0100
0000
0001
,
0000
0100
0000
0010
1000
0000
0100
0000
,
0010
0000
0001
0100
0000
0010
0000
1000
,
0000
0100
0010
0100
0020
0000
0032
0000
,
0203
0000
0310
2000
0000
3200
0000
0320
,
0000
0032
0000
0103
0020
0000
0230
0000
,
0302
0000
1003
0020
0000
0230
0000
0302
,
0000
0103
0000
0010
2000
0000
3002
0000
,
2003
0000
0000
0000
3001
0000
0200
0000
0000
0300
0200
0000
0000
0300
0200
0000
,
0000
0300
0010
0000
0000
0000
1000
0000
0002
0000
0000
0003
0002
0000
0000
0003
,
0002
0000
0000
0003
1000
0000
0020
0000
0000
0000
0230
0000
0000
0000
0320
0000
,
0000
0230
0000
0310
0200
0000
0302
0000
,
0203
0000
0310
0200
0000
0302
0000
2003
,
0000
3020
0000
1030
0200
0000
2300
0000
,
3020
0000
1030
0200
0000
2300
0000
3002
,
0000
2003
0000
3001
01M1
0000
00M0
0000
,
00M0
00M0
00M0
00M0
,
00M2
0000
0M00
0000
2M03
0000
0M00
3020
,
0M00
2030
0000
0000
,
3002
0000
0000
0000
2003
0000
0000
3020
,
0000
2030
0000
0000
,
3020
0230
0320
0000
,
0000
0000
2030
0000
3020
0000
0000
2030
,
0000
3200
0320
0001
,
0031
0000
1000
0100
0000
0010
0000
0001
,
0000
0010
0002
2003
3002
0003
0020
0032
,
0000
0023
0032
0203
,
0302
0023
0130
0100
,
0010
0000
0001
1000
0000
1000
0000
1000
,
0000
0000
1000
0000
0000
0000
1000
0000
1000
0010
0100
0001
0010
0001
1000
0100
,
0010
0000
0000
0001
0000
0000
1000
0000
0000
0010
0000
0000
0100
0000
0000
0001
0000
0000
0010
0000
0000
0100
0000
0000
1000
0000
0010
0000
0100
0000
0001
0000
0010
0000
0001
0000
1000
0000
0100
0000
0010
0000
0001
0000
1000
0000
0010
0000
,
0100
0000
0001
0000
0010
0000
0100
0000
0010
0000
0001
0000
0100
0000
0010
0000
1000
0000
0001
0000
0010
0000
0001
0000
0100
0000
0000
0000
0000
0000
0010
0000
0000
1000
0000
0000
0001
0000
0000
0100
0000
0000
0001
0000
0000
0000
0000
0000
,
1000
0000
0000
0001
0000
0000
1000
0000
0100
0000
0010
0000
0001
0000
0000
0000
0000
0000
1000
0000
0010
0000
0100
0000
0001
0000
0000
1000
0000
0000
0100
0000
0000
0010
0000
0000
0001
0000
0000
0100
0000
0000
0001
0000
0010
0000
0100
0000
,
1000
0000
0000
0001
0000
0000
0100
0000
0010
0000
1000
0000
0001
0000
0000
1000
0000
0000
0010
0000
0100
0000
0001
0000
1000
0000
0001
0000
1000
0000
0100
0000
1000
0000
0001
0000
0100
0000
0010
0000
1000
0000
0100
0000
0010
0000
0100
0000
,
1000
0001
0010
0001
1000
0010
1000
0100
0010
0001
0100
0001
0010
0000
0000
0000
0000
0000
0000
0000
0000
0000
0000
0000
,
0000
0000
0000
0000
0000
0000
0000
0000
0100
0010
0001
1000
0010
0100
0001
1000
,
0100
1000
0001
0100
0010
1000
0001
0010
0100
1000
0001
0100
0010
0100
0001
1000
,
0100
0010
0001
1000
0010
1000
0001
0010
0001
0100
0010
1000
0001
0100
0010
1000
,
0001
0010
0100
0010
0001
0100
0010
1000
0100
1000
0010
1000
0001
0100
0010
0100
,
0001
0010
0001
1000
0100
0010
0001
1000
0010
0100
0001
1000
0100
0010
0001
0100
,
0010
0100
0001
1000
0010
0100
0001
0010
0001
1000
0100
1000
0001
0010
0100
1000
,
0001
0100
0010
1000
0100
0010
0001
1000
0100
1000
0001
0010
0001
1000
0010
1000
,
0001
0010
0100
1000
0001
0100
0010
0100
0001
1000
0100
0010
0001
1000
0010
1000
,
0001
0010
0001
0100
0010
1000
0001
0010
0100
0010
0001
1000
0010
0100
0001
0010
,
0001
1000
0100
0010
0001
1000
0010
1000
0001
0010
0001
0100
0010
0100
0001
0010
,
0001
1000
0010
1000
0001
0010
0001
0100
0010
0100
0001
1000
0010
1000
0100
1000
,
0001
0010
0001
0100
0010
1000
0100
0010
0001
0100
0010
1000
0001
0010
0100
0010
,
0001
1000
0100
0010
0001
1000
0010
1000
0001
0010
0100
0010
0001
1000
0100
0010
,
0001
1000
0010
0100
0001
1000
0100
1000
0001
0010
0001
0100
0010
1000
0100
0010
,
0001
0100
0010
1000
0001
0010
0100
0010
0001
1000
0100
0010
0001
1000
0010
0100
,
0001
0010
0001
1000
0100
0010
0001
0100
0010
0000
0100
0000
0010
0000
1000
0000
,
0100
0000
0010
0000
0000
0000
0100
0000
1000
0001
1000
0001
1000
0100
1000
0001
,
0010
0001
0100
0010
1000
0100
0010
0100
1000
0001
0100
0010
1000
0100
0010
0001
,
0010
0100
0010
0001
1000
0010
0100
0001
0010
0001
1000
0010
1000
0001
0010
0001
,
1000
0100
0010
0001
0010
0100
1000
0001
0010
0001
1000
0100
0010
0001
1000
0010
,
1000
0001
0010
0100
1000
0001
0100
0010
1000
0100
0010
0001
0100
0010
1000
0100
,
0010
0001
1000
0010
1000
0001
0010
0100
1000
0001
0100
0010
1000
0100
0010
0001
,
0100
0010
1000
0100
0010
0001
1000
0010
1000
0001
0010
0100
1000
0001
0100
0010
,
0100
0001
0010
0001
1000
0100
0010
0001
1000
0010
0100
0001
0010
0100
0010
0001
,
1000
0100
0010
0001
1000
0010
0100
0001
0010
0100
0010
0001
0100
0010
1000
0100
,
0010
0001
1000
0010
1000
0001
0010
0100
1000
0001
0100
0010
0100
0001
1000
0100
,
0010
0001
1000
0010
1000
0001
0010
0100
1000
0001
0100
0010
0100
0001
1000
0100
,
0010
0001
1000
0010
0100
0001
0010
0100
0010
0001
1000
0010
0100
0001
1000
0100
,
0010
0001
1000
0010
1000
0001
0010
0001
0100
0000
0000
0000
0001
0000
0000
0000
,
0100
0000
0010
1000
1001
0001
0000
0100
,
0000
0000
0000
0010
0000
0000
0000
0000
0000
1000
0000
0000
0001
0100
0010
1000
0001
0010
0100
0010
0001
1000
0010
0100
,
0001
0000
0010
0000
0001
0000
1000
0000
0100
0000
0010
0000
0001
0000
1000
0000
0010
0000
0100
0000
0001
0000
1000
0000
0001
0000
0000
0000
0000
0000
0000
0000
0000
0000
0000
0000
1000
0000
0000
0010
0000
0000
0100
0000
0000
0001
0000
0000
,
1000
0000
0100
0000
1000
0000
0001
0000
0010
0000
0001
0000
1000
0000
0000
0000
0000
0000
0000
0000
0000
0000
0000
0000
0100
0000
0000
0010
0000
0000
0001
0000
0000
0010
0000
0000
0100
0000
0000
1000
0000
0000
0010
0000
0000
0100
0000
0000
,
0001
0100
0010
1000
0100
0010
0001
1000
0010
0100
0001
0010
0100
1000
0010
0100
,
0001
1000
0100
0010
0100
1000
0001
0100
0010
0100
0001
0010
0001
1000
0100
0010
,
0100
1000
0001
0100
0010
0100
0001
0010
0001
1000
0100
0010
0100
1000
0001
0100
,
0010
0100
0001
0010
0001
1000
0100
0010
0001
1000
0010
1000
0001
0010
0001
1000
,
0010
1000
0001
0010
0100
1000
0010
0100
0001
0010
0001
1000
0100
0010
0001
1000
,
0010
1000
0001
0010
0100
1000
0001
0100
0010
0100
0001
1000
0100
0010
0001
1000
,
0010
1000
0001
0010
0001
0100
0010
0100
0001
0010
0100
1000
0010
0100
0001
1000
,
0100
0010
0001
0100
0010
1000
0001
0010
0100
1000
0010
0100
0001
0010
0001
1000
,
0100
0010
0100
1000
0001
0100
0010
0100
0001
0010
0001
1000
0010
1000
0001
0010
,
0001
0100
0010
1000
0001
0010
0100
1000
0010
0100
0001
1000
0100
0010
0100
1000
,
0001
0100
0010
1000
0100
0010
0001
1000
0010
1000
0001
0010
0100
1000
0001
0100
,
0010
1000
0100
0010
0001
1000
0010
1000
0100
1000
0001
0010
0001
0100
0001
0010
,
0100
1000
0010
0100
0001
1000
0100
0010
0001
1000
0010
0100
0001
0010
0100
1000
,
0001
0100
0010
1000
0100
0010
0001
1000
0001
0010
0100
0010
0001
0100
0010
1000
,
0100
0000
0000
0010
0000
0000
0001
0000
0000
1000
0000
0000
0010
0000
0000
0100
0000
0000
0001
0000
0000
1000
0000
0000
0001
0000
0100
0000
0010
0000
1000
0000
0001
0000
0010
0000
0001
0000
1000
0000
0100
0000
0010
0000
0100
0000
1000
0000
,
0001
0000
0100
0000
0010
0000
0100
0000
0001
0000
0010
0000
0001
0000
1000
0000
0100
0000
0010
0000
0001
0000
0100
0000
0001
0000
0000
1000
0000
0000
0001
0000
0000
1000
0000
0000
0100
0000
0000
1000
0000
0000
0001
0000
0000
0010
0000
0000
,
0001
1000
0100
1000
0001
0010
0001
1000
0010
1000
0001
0100
0001
1000
0010
1000
,
0001
0100
0001
1000
0100
1000
0001
0010
0001
1000
0100
0010
0001
0010
0100
1000
,
0001
0100
0010
0100
0001
1000
0100
0010
0001
1000
0010
1000
0001
0010
0100
0010
,
0001
1000
0010
0100
0001
0010
0001
1000
0100
0010
0001
1000
0010
1000
0001
0010
,
0100
0010
0001
1000
0010
0100
0001
0010
0001
1000
0100
0010
0100
1000
0001
0100
,
0010
1000
0001
0100
0001
0010
0001
1000
0010
0100
0001
0010
0100
1000
0100
0010
,
0001
1000
0100
1000
0010
0100
0001
0010
0001
1000
0100
0010
0001
1000
0010
1000
,
0001
0010
0100
0010
0001
1000
0100
0010
0100
1000
0001
0100
0010
0100
0001
1000
,
0100
0010
0100
1000
0001
0100
0010
1000
0001
0010
0001
1000
0100
0010
0001
0100
,
0010
1000
0001
0010
0100
0010
0001
1000
0010
0100
0001
0010
0001
1000
0100
0010
,
0001
1000
0010
1000
0001
0010
0100
0010
0001
1000
0010
0100
0001
1000
0100
0010
,
0001
0100
0010
1000
0100
0010
0001
0100
0010
1000
0100
0010
0001
1000
0010
1000
,
0001
0010
0100
1000
0010
0100
0001
1000
0100
0010
0100
1000
0001
0100
0010
1000
,
0100
0000
0000
0010
0000
0000
0100
0000
0000
1000
0000
0000
0010
0000
0000
0100
0000
0000
0010
0000
0000
1000
0000
0000
0001
0000
0100
0000
0010
0000
1000
0000
0001
0000
0010
0000
0001
0000
1000
0000
0100
0000
0010
0000
0001
0000
1000
0000
,
0010
0000
0100
0000
0001
0000
0010
0000
0100
0000
0010
0000
0001
0000
1000
0000
0010
0000
0100
0000
0001
0000
1000
0000
0100
0000
0000
0000
0000
0000
0000
0000
0000
0000
0000
0000
1000
0000
0000
0010
0000
0000
1000
0000
0000
0001
0000
0000
,
1000
0000
0100
0000
1000
0000
0001
0000
0010
0000
0001
0000
1000
0000
0000
0000
0000
0000
0000
0000
0000
0000
0000
0000
0001
0000
0000
0010
0000
0000
0001
0000
0000
1000
0000
0000
0010
0000
0000
1000
0000
0000
0001
0000
0000
1000
0000
0000
,
0010
1000
0001
0010
0001
1000
0001
0010
0001
1000
0010
1000
0001
1000
0010
1000
,
0001
0010
0001
1000
0001
0010
0001
1000
0010
1000
0001
1000
0010
1000
0001
0010
,
0100
1000
0010
0100
0001
1000
0100
0010
0001
1000
0010
0100
0001
0010
0100
1000
,
0001
0100
0010
0100
0001
1000
0100
0010
0001
1000
0010
1000
0001
0010
0100
1000
,
0010
0100
0001
1000
0100
0010
0100
1000
0001
0100
0010
0100
0001
0010
0001
1000
,
0010
1000
0001
0010
0001
1000
0010
1000
0001
0010
0001
1000
0100
0010
0001
1000
,
0010
0100
0001
0010
0100
1000
0001
0100
0010
0100
0001
0010
0001
1000
0100
0010
,
0001
1000
0010
0100
0001
0010
0001
1000
0100
0010
0001
1000
0010
1000
0001
0010
,
0100
1000
0001
0100
0010
0100
0001
1000
0100
0010
0001
1000
0010
1000
0001
0010
,
0001
1000
0010
1000
0001
0100
0010
1000
0100
0010
0001
0010
0100
1000
0001
0100
,
0010
0100
0001
1000
0100
0010
0001
1000
0010
0100
0001
0010
0100
1000
0001
0100
,
0010
0100
0001
1000
0010
0100
0001
1000
0010
0100
0010
1000
0001
0010
0100
0010
,
0001
1000
0010
0100
0010
1000
0001
0010
0100
1000
0001
0100
0010
1000
0100
0010
,
0001
0000
0000
0100
0000
0000
0001
0000
0000
1000
0000
0000
0010
0000
0000
0100
0000
0000
0001
0000
0000
0010
0000
0000
0001
0000
1000
0000
0001
0000
0010
0000
0001
0000
1000
0000
0100
0000
0010
0000
0001
0000
1000
0000
0001
0000
0100
0000
,
0010
0000
0100
0000
0001
0000
1000
0000
0100
0000
0010
0000
0001
0000
0100
0000
0010
0000
0100
0000
0001
0000
0010
0000
0100
0000
0000
0000
0000
0000
0000
0000
0000
0000
0000
0000
0010
0000
0000
0001
0000
0000
0100
0000
0000
0010
0000
0000
,
1000
0001
0010
0001
1000
0100
1000
0000
0000
0000
0000
0000
0010
0000
0000
0000
0000
0000
0000
0000
0000
0000
0000
0000
;
