#TITLE:Marchen Debut;
#SUBTITLE:;
#ARTIST:Nana Abe;
#TITLETRANSLIT:;
#SUBTITLETRANSLIT:;
#ARTISTTRANSLIT:;
#CREDIT:;
#BANNER:Marchen Debut - bn.png;
#BACKGROUND:Marchen Debut - bg.png;
#LYRICSPATH:;
#CDTITLE:gpopcdtitle.png;
#MUSIC:Marchen Debut.ogg;
#OFFSET:1.423;
#SAMPLESTART:74.825;
#SAMPLELENGTH:11.293;
#SELECTABLE:YES;
#DISPLAYBPM:170.000;
#BPMS:0.000=170.000;
#STOPS:192.000=2.118
;
#BGCHANGES:;
// cache tags:
#FIRSTBEAT:32.000;
#LASTBEAT:340.000;
#SONGFILENAME:Songs/Index Tournament 1/Marchen Debut [Gpop]/Marchen Debut.sm;
#HASMUSIC:1;
#HASBANNER:1;
#MUSICLENGTH:123.499;
// end cache tags

//---------------dance-single - Gpop----------------
#NOTES:
     dance-single:
     Gpop:
     Challenge:
     13:
     1.000,1.000,0.640,0.413,0.964,730.000,79.000,51.000,48.000,12.000:
0000
0000
0000
0000
,
0000
0000
0000
0000
,
0000
0000
0000
0000
,
0000
0000
0000
0000
,
0000
0000
0000
0000
,
0000
0000
0000
0000
,
0000
0000
0000
0000
,
0000
0000
0000
0000
,
0001
1000
0001
1000
0001
1000
0001
1000
0001
0100
0010
1000
0001
0010
0100
1000
,
0002
0000
0103
0010
2000
0000
3200
0000
,
0320
0000
0031
2000
0000
3010
0100
0001
,
0020
0000
0130
1000
0020
0000
0230
0000
,
0301
0000
1000
0000
0100
0000
0010
0000
0001
0010
0100
1000
0001
0100
0010
1000
,
0200
0000
1300
0001
0200
0000
0320
0000
,
2030
0000
0000
0000
3001
0000
0010
0000
0100
0010
0001
0100
0010
1000
0100
0010
,
0001
0101
00M0
0000
1000
1100
00M0
0000
,
1000
0001
0100
0010
1000
0001
0010
0100
1000
0010
0100
0010
1000
0001
0100
0001
,
1000
11M0
01M1
0000
01M1
11M0
01M1
0000
,
2001
0000
3100
0010
0001
1000
0001
0010
,
0M11
1M10
0M11
0000
1M10
0M11
1M10
0000
,
1001
0000
0001
0000
0010
0000
0100
0000
1000
0010
0100
0001
0010
0000
0100
1000
,
0001
0M11
1M10
0000
11M0
01M1
11M0
0000
,
2001
0000
3010
0100
0001
0010
0100
1000
,
0002
0000
0103
0000
2000
0000
3100
0000
0001
1000
0100
0010
0001
0000
1000
0010
,
0000
0000
0110
0000
0000
0000
1001
0000
1000
0100
0010
0001
1000
0100
0010
0001
,
1000
0000
0010
0000
0100
0000
0001
0010
0001
1000
0010
0000
0100
0000
0001
1000
,
0100
0000
0010
0100
1000
0000
0001
0100
0010
0100
0001
0000
1000
0000
0100
0000
,
1000
0000
0001
0100
0010
0000
1000
0100
1000
0001
0100
0000
0010
0000
1000
0001
,
1000
0000
0010
0100
0001
0000
0100
0010
0000
1000
0000
0001
2000
0000
0000
0000
,
3100
0000
0010
0100
1000
0000
0001
0100
0001
0010
0100
0000
1000
0000
0100
0010
,
0001
0000
1000
0010
0100
0000
0010
1000
0001
0100
0001
0000
1000
0000
0100
0010
,
0001
0000
1000
0000
0010
0000
0100
0001
0100
0010
1000
0000
0001
0000
1000
0000
,
0001
0010
0001
0010
0100
1000
0100
1000
0001
0100
0010
1000
0001
0010
0100
1000
,
0001
0100
1000
0100
0110
0000
1001
0000
,
1000
0100
0001
0100
0110
0000
1001
0000
,
0002
0200
M313
0000
2000
0200
331M
0000
,
0001
0000
0010
0000
1000
0000
0010
0000
0001
0100
0001
0100
0010
1000
0010
1000
,
0001
0010
1000
0010
0011
0000
0101
0000
,
0100
0000
0010
0000
0001
0000
0010
0000
1000
0001
1000
0100
0010
0001
0010
0100
,
1000
0000
00M0
0000
0000
0000
0M00
0000
000M
000M
000M
000M
000M
0000
0000
0000
,
1000
0100
0010
0100
1000
0001
0100
0001
1000
0010
0100
0001
0010
0100
1000
0002
,
2000
0000
0000
0010
0010
3003
1001
0000
,
0202
0000
0000
1000
1000
0303
0101
0000
,
0001
1000
0100
0010
0001
0010
0100
1000
,
0001
0100
0010
1000
0100
1000
0010
0100
0001
0010
0100
1000
0100
0000
0000
0000
,
2200
0000
0000
0001
0001
3300
1100
0000
,
2002
0000
0000
0010
0010
3003
1001
0000
,
0002
0203
2300
3200
0302
0023
0230
2300
,
30MM
0000
0000
0000
1001
0000
0000
0101
,
0000
1100
0000
0000
1010
0000
0000
0011
,
0000
0110
0000
0000
2100
0000
3001
0000
,
0102
0000
1003
0000
4000
3400
0340
0034
,
0000
0000
1003
0000
1010
0000
0000
0000
0001
0010
0100
0010
0001
1000
0010
1000
,
0001
0100
0010
1000
0100
0010
0001
1000
0001
1000
0001
1000
0001
0100
0001
1000
,
0010
1000
0001
0010
0100
1000
0010
0100
0010
1000
0001
0100
0001
1000
0100
0010
,
0001
0100
0001
1000
0100
0010
0001
0100
0001
0100
0001
0100
0010
1000
0010
1000
,
0001
0010
0100
1000
0100
0010
0001
1000
0001
0100
0001
1000
0100
1000
0001
0100
,
0010
1000
0001
0010
0100
1000
0100
1000
0001
0100
0010
1000
0010
0100
0010
1000
,
0001
0100
0001
1000
0100
0010
0001
1000
0001
0010
0100
1000
0001
0010
0100
1000
,
0001
0100
0010
1000
0001
0100
0010
1000
0001
0000
0000
0000
0101
0000
0000
0000
,
1101
0000
0001
1000
0001
0000
0000
0000
1000
0100
0010
0100
1000
0001
0100
0010
,
1000
0001
0010
0100
1000
0001
1000
0100
1000
0100
1000
0100
0010
0001
1000
0001
,
0100
0001
1000
0100
0010
0001
1000
0100
1000
0001
0100
0001
1000
0010
0100
0001
,
0010
0100
1000
0001
0010
0100
1000
0001
1000
0001
1000
0001
0100
0001
0100
0001
,
1000
0010
0100
0001
0010
0100
1000
0100
1000
0001
0100
0001
1000
0100
0010
0001
,
0010
0001
1000
0010
1000
0001
0100
0010
1000
0100
0010
0001
1000
0100
1000
0010
,
0100
0001
0010
0100
1000
0010
0100
0010
2000
0000
3002
0000
0003
0MM0
M00M
000M
,
020M
00M0
03M2
00M0
2003
00M0
0000
0000
3001
0010
0001
0000
1000
0000
0100
0000
,
0010
0000
0001
1000
0001
0000
0000
0000
1100
0000
0100
0000
0010
0000
0001
0000
,
0101
0000
0100
0000
0010
0000
1000
0000
0001
0010
0100
1000
0100
0010
0001
0100
,
0010
1000
0010
0100
0010
1000
0001
0100
0001
1000
0000
0000
0100
0000
0000
0010
0000
0000
0100
0000
0000
1000
0000
0000
,
0001
0100
0001
0100
0010
1000
0001
0010
0000
0000
0001
0000
1000
0000
0100
0000
,
1000
0001
0100
0120
000M
1030
0001
0010
,
010M
1000
0100
0010
0001
0100
0010
1000
0M01
0000
0000
0000
0M11
0000
0000
0000
,
1M11
0000
MMMM
0000
1100
0011
1100
0000
,
1100
0011
1100
0000
1002
0000
0103
0010
,
1000
0001
0010
0001
0101
1010
0101
0000
,
0101
1010
0101
0000
1001
0001
0010
0100
,
1000
0100
1000
0010
0100
0000
0001
1000
0100
0000
1001
0000
0110
0000
0000
0000
,
0110
1001
0110
0000
1002
0000
0103
0010
,
1000
0100
1000
0001
2000
3100
0002
0103
,
1000
0010
0100
0001
0010
0000
0100
1000
0000
0000
1100
0000
0000
0000
0101
0000
,
0001
1000
0100
0010
0100
1000
0001
0100
0010
1000
0001
0010
0100
1000
0001
0100
,
0010
1000
0010
0100
0001
1000
0100
0010
0000
0000
0011
0000
1001
0000
1100
0000
,
2002
0000
0000
0000
,
3003
0000
0000
0000
;

//---------------dance-single - FOREVER----------------
#NOTES:
     dance-single:
     FOREVER:
     Edit:
     17:
     1.000,1.000,0.591,0.348,1.000,944.000,73.000,43.000,58.000,52.000:
0000
0000
0000
0000
,
0000
0000
0000
0000
,
0000
0000
0000
0000
,
0000
0000
0000
0000
,
0000
0000
0000
0000
,
0000
0000
0000
0000
,
0000
0000
0000
0000
,
0000
0000
0000
0000
,
0001
1000
0001
1000
0001
1000
0001
1000
0001
0100
0010
1000
0001
0010
0100
1000
,
0002
0000
0103
0010
2000
0000
3200
0000
,
0320
0000
0031
2000
0000
3010
0100
0001
,
0020
0000
0130
1000
0020
0000
0230
0000
,
0301
0000
1000
0000
0100
0000
0010
0000
0001
0010
0100
1000
0001
0100
0010
1000
,
0200
0000
1300
0001
0200
0000
0320
0000
,
2030
0000
0000
0000
3001
0000
0010
0000
0100
0010
0001
0100
0010
1000
0100
0010
,
0001
0101
00M0
0000
1000
1100
00M0
0000
,
1000
0001
0100
0010
1000
0001
0010
0100
1000
0010
0100
0010
1000
0001
0100
0001
,
1100
11M1
11M1
0000
1M11
1M11
1M11
0000
,
0001
1000
0010
0100
0010
1000
0001
0010
0100
1000
0100
0010
0001
0010
0001
1000
,
0011
M111
M111
0000
111M
111M
111M
0000
,
1001
0000
0001
0000
0010
0000
0100
0000
1000
0010
0100
0001
0010
0000
0100
1000
,
0011
1M11
M111
0000
11M1
11M1
111M
0000
,
0001
1000
0100
0010
0100
1000
0001
0100
0001
0100
0010
1000
0001
0010
0100
1000
,
0001
0100
0010
1000
0001
0100
0010
1000
0001
0010
0100
1000
0001
0010
0100
1000
,
0000
0000
0000
0110
0000
0000
0000
0000
0000
1001
0000
0000
1000
0100
0010
0001
0100
0010
1000
0001
0010
0100
1000
0001
,
1000
0001
1000
0100
0010
0100
1000
0001
0100
0010
1000
0001
0010
0001
0100
0010
,
1000
0010
0100
0001
1000
0100
0010
0001
0100
0001
1000
0100
0010
0100
1000
0010
,
0100
0010
1000
0001
0100
0001
1000
0100
0010
0001
0010
0001
1000
0010
0100
0010
,
1000
0010
0100
0001
0010
0100
1000
0001
0010
0001
1000
0010
1000
0001
0100
0001
,
1000
0100
1000
0001
0100
0001
1000
0100
0010
0001
0100
0010
0100
0010
1000
0001
,
0010
0100
1000
0010
0100
0001
0010
0001
1000
0010
0100
0001
0010
0100
1000
0100
,
0010
0001
0100
0010
1000
0100
1000
0010
0100
0001
0010
0100
1000
0100
1000
0010
,
0100
0000
0000
0010
0000
0000
1000
0000
0000
0010
0000
0000
0100
0000
0000
0001
0000
0000
0010
0000
0000
0100
0000
0000
0010
0000
0000
0001
0000
0000
1000
0000
0001
0000
1000
0000
0010
0000
0000
0100
0000
0000
0001
0000
0000
1000
0000
0000
,
0001
0010
0001
1000
0010
0100
0001
1000
0010
1000
0001
0010
0100
0010
0100
0010
,
0001
1000
0010
0100
0001
1000
0100
1000
0010
0100
0001
0010
0100
1000
0100
1000
,
0001
0100
0010
1000
0010
1000
0001
0010
0001
1000
0010
1000
0100
0010
0001
0010
,
0001
0100
0010
1000
0010
0100
0010
0100
0001
1000
0100
0010
0001
1000
0100
0010
,
0001
1000
0010
1000
0001
0010
0001
1000
0100
0010
0001
1000
0010
0100
0001
1000
,
0010
1000
0001
0010
0100
1000
0100
1000
0001
0100
0010
1000
0010
1000
0001
1000
,
0001
0000
0M00
0000
0000
0000
00M0
0000
M000
M000
M000
M000
M000
0000
0000
0000
,
1000
0100
0010
0100
1000
0001
0100
0001
1000
0010
0100
0001
0010
0100
1000
0002
,
2000
0000
0000
0010
0010
3003
1001
0000
,
0202
0000
0000
1000
1000
0303
0101
0000
,
0001
1000
0100
0010
0001
0010
0100
1000
,
0001
0100
0010
1000
0100
1000
0010
0100
0001
0010
0100
1000
0100
0000
0000
0000
,
2200
0000
0000
0001
0001
3300
1100
0000
,
2002
0000
0000
0010
0010
3003
1001
0000
,
0002
0000
0200
0000
2000
0000
0020
0003
0002
0030
0020
0300
0200
3000
2000
0000
,
3333
MMMM
0000
0000
0000
0000
0000
0000
0000
0000
0000
0000
0000
0000
0000
0000
1001
0000
0000
0000
0000
0000
0000
0000
0000
0000
0000
0000
0101
0000
0000
0000
,
0000
1100
0000
0000
1010
0000
0000
0011
,
0000
0110
0000
0000
2100
0000
3001
0000
,
0102
0000
0000
0000
0000
0000
1003
0000
0000
0000
0000
0000
2000
0000
0000
3200
0000
0000
0320
0000
0000
0031
1000
0010
,
0100
0000
0001
0000
0010
0000
0001
0000
0000
0000
0000
0000
1001
0000
0000
0000
0000
0000
0000
0000
0000
0000
0000
0000
0001
0000
0000
0010
0000
0000
0100
0000
0000
0010
0000
0000
0001
0000
0000
1000
0000
0000
0010
0000
0000
0100
0000
0000
,
0001
0000
0000
0010
0000
0000
0001
0000
0000
0100
0000
0000
0010
0000
0000
1000
0000
0000
0100
0000
0010
0000
0001
0000
1000
0000
0010
0000
1000
0000
0010
0000
0100
0000
0001
0000
1000
0000
0001
0000
0010
0000
0100
0000
1000
0000
0001
0000
,
1000
0000
0010
0000
1000
0000
0001
0000
0100
0000
0001
0000
1000
0000
0100
0000
0010
0000
0001
0000
0010
0000
0100
0000
1000
0000
0000
0001
0000
0000
0100
0000
0000
0010
0000
0000
1000
0000
0000
0001
0000
0000
1000
0000
0000
0100
0000
0000
,
0010
0000
0000
0001
0000
0000
0010
0000
0000
0100
0000
0000
1000
0000
0000
0010
0000
0000
0100
0000
0001
0000
0100
0000
0010
0000
0100
0000
0001
0000
1000
0000
0100
0000
0010
0000
0100
0000
1000
0000
0001
0000
0010
0000
0100
0000
1000
0000
,
0010
0100
0001
0010
0001
1000
0100
1000
0010
0100
0001
1000
0001
0010
0100
1000
0100
1000
0001
0100
0001
1000
0010
0100
,
0001
1000
0001
0010
0100
0010
0001
1000
0010
1000
0010
0100
0001
1000
0001
0100
0010
1000
0001
1000
0100
0010
0100
1000
,
0010
0000
0100
0000
0001
0000
1000
0000
0100
0000
1000
0000
0010
0000
0100
0000
0001
0000
1000
0000
0001
0000
0010
0000
0100
0000
0000
1000
0000
0000
0001
0000
0000
0100
0000
0000
0010
0000
0000
1000
0000
0000
0001
0000
0000
0010
0000
0000
,
0001
0100
0010
1000
0100
1000
0001
1000
0010
0000
0000
0000
0101
0000
0000
0000
,
1111
0000
0001
1000
0001
0000
0000
0000
1000
0010
0100
0001
1000
0100
0010
0100
,
1000
0000
0000
0010
0000
0000
0100
0000
0000
0001
0000
0000
0010
0000
0000
0001
0000
0000
0100
0000
0001
0000
0100
0000
0010
0000
1000
0000
0010
0000
1000
0000
0001
0000
0010
0000
0100
0000
1000
0000
0100
0000
0010
0000
0001
0000
1000
0000
,
0001
0000
0010
0000
0001
0000
1000
0000
0010
0000
0100
0000
0010
0000
0100
0000
0001
0000
0010
0000
0100
0000
1000
0000
0001
0000
0000
0100
0000
0000
0001
0000
0000
1000
0000
0000
0100
0000
0000
1000
0000
0000
0001
0000
0000
0010
0000
0000
,
0100
0000
0000
1000
0000
0000
0010
0000
0000
0100
0000
0000
0001
0000
0000
0010
0000
0000
0001
0000
1000
0000
0001
0000
0100
0000
0010
0000
1000
0000
0001
0000
0010
0000
0100
0000
1000
0000
0100
0000
0010
0000
0001
0000
0010
0000
0001
0000
,
0010
0100
1000
0001
0100
0010
1000
0001
0100
0001
1000
0001
0010
0100
0010
0001
1000
0010
0100
0001
1000
0001
0010
0100
,
1000
0100
1000
0001
0100
0010
1000
0010
0100
0001
0010
0100
1000
0001
0010
0001
1000
0010
0100
0001
0100
0010
1000
0001
,
0010
0000
0100
0000
1000
0000
0001
0000
1000
0000
0010
0000
0100
0000
0010
0000
1000
0000
0001
0000
0100
0000
0001
0000
2000
0000
0000
0000
0000
0000
3002
0000
0000
0000
0000
0000
0003
0000
0000
0MM0
0000
0000
M00M
0000
0000
000M
0000
0000
,
020M
00M0
03M2
00M0
2003
00M0
3000
0000
0001
0100
0001
0000
1000
0000
0100
0000
,
0010
0000
0001
1000
0011
0000
0000
0000
1100
0000
0100
0000
0010
0000
0001
0000
,
0101
0000
0100
0000
0010
0000
1000
0000
0001
0010
0100
1000
0100
0010
0001
0100
,
0001
0010
0100
0010
0001
1000
0010
0100
0001
1000
0000
0000
0000
0000
0000
0100
0000
0000
0010
0000
0000
0001
0000
0000
,
1000
0010
1000
0010
0100
0001
1000
0100
0000
0000
1000
0000
0001
0000
0010
0000
,
0001
1000
0010
0210
M000
0301
1000
0100
,
M010
0001
0010
0100
1000
0010
0100
0001
11M0
0000
0000
0000
11M1
0000
0000
0000
,
1111
0000
MMMM
0000
M111
111M
M111
0000
,
M111
0000
111M
0000
M111
0000
0000
0000
0001
1000
0001
0010
0100
0010
0001
1000
,
0010
0100
0001
1000
0010
0100
0001
1000
0M11
0000
11M1
0000
1M11
0000
0000
0000
,
1M11
11M1
1M11
0000
1001
1000
0100
0010
,
0001
0010
0001
0100
0010
0000
1000
0001
1100
0000
1111
0000
1111
0000
0000
0000
,
1111
0000
1111
0000
1111
0000
0000
0000
1000
0100
0010
0100
1000
0001
0100
0010
,
1000
0001
0010
0001
1000
0010
0100
0001
1000
0100
0010
0001
1000
0100
0010
0001
,
0100
0010
1000
0010
0100
0001
1000
0001
0000
0000
0011
0000
0000
0000
1010
0000
,
1000
0000
0001
0000
0010
0000
0001
0000
1000
0000
0010
0000
0100
0000
0001
0000
0010
0000
0100
0000
1000
0000
0001
0000
1000
0000
0000
0001
0000
0000
1000
0000
0000
0100
0000
0000
0010
0000
0000
0001
0000
0000
1000
0000
0000
0010
0000
0000
,
0100
0001
0100
0010
1000
0001
0010
0100
0000
0000
1111
0000
1111
0000
1111
0000
,
2222
0000
0000
0000
0000
0000
0000
0000
0000
0000
0000
0000
0000
3000
0300
0030
,
0003
0000
0000
0000
;
