#TITLE:Grand Victoly;
#SUBTITLE:;
#ARTIST:Kita Khyber;
#TITLETRANSLIT:;
#SUBTITLETRANSLIT:;
#ARTISTTRANSLIT:;
#CREDIT:;
#BANNER:../fallback - bn.png;
#BACKGROUND:../fallback - bg.png;
#LYRICSPATH:;
#CDTITLE:;
#MUSIC:09 Grand Victoly.ogg;
#OFFSET:0.015;
#SAMPLESTART:92.470;
#SAMPLELENGTH:10.000;
#SELECTABLE:YES;
#BPMS:0.000=114.000,39.000=228.000,104.000=114.000,112.000=228.000,240.000=114.000,272.000=228.000,336.000=114.000,400.000=228.000;
#STOPS:39.000=0.263
;
#BGCHANGES:;
// cache tags:
#FIRSTBEAT:8.000;
#LASTBEAT:835.000;
#SONGFILENAME:Songs/Beast Aoreo BEAST!/Grand Victoly - [Aoreo]/Grand Victoly.sm;
#HASMUSIC:1;
#HASBANNER:1;
#MUSICLENGTH:215.792;
// end cache tags

//---------------pump-single - Blank----------------
#NOTES:
     pump-single:
     Blank:
     Hard:
     1:
     0.027,0.726,0.032,0.000,0.000,13.000,7.000,0.000,0.000,7.000:
00000
00000
00000
00000
,
00000
00000
00000
00000
,
11111
00000
00000
00000
,
11111
00000
00000
00000
,
11111
00000
00000
00000
,
11111
00000
00000
00000
,
11111
00000
00000
00000
,
11111
00000
00000
00000
,
00000
00000
00000
00000
,
00000
00000
00000
00000
,
00000
00000
00000
00000
,
00000
00000
00000
00000
,
00000
00000
00000
00000
,
00000
00000
00000
00000
,
00000
00000
00000
00000
,
00000
00000
00000
00000
,
00000
00000
00000
00000
,
00000
00000
00000
00000
,
00000
00000
00000
00000
,
00000
00000
00000
00000
,
00000
00000
00000
00000
,
00000
00000
00000
00000
,
00000
00000
00000
00000
,
00000
00000
00000
00000
,
00000
00000
00000
00000
,
00000
00000
00000
00000
,
00000
00000
00000
00000
,
00000
00000
00000
00000
,
00000
00000
00000
00000
,
00000
00000
00000
00000
,
00000
00000
00000
00000
,
00000
00000
00000
00000
,
00000
00000
00000
00000
,
00000
00000
00000
00000
,
00000
00000
00000
00000
,
00000
00000
00000
00000
,
00000
00000
00000
00000
,
00000
00000
00000
00000
,
00000
00000
00000
00000
,
00000
00000
00000
00000
,
00000
00000
00000
00000
,
00000
00000
00000
00000
,
00000
00000
00000
00000
,
00000
00000
00000
00000
,
00000
00000
00000
00000
,
00000
00000
00000
00000
,
00000
00000
00000
00000
,
00000
00000
00000
00000
,
00000
00000
00000
00000
,
00000
00000
00000
00000
,
00000
00000
00000
00000
,
00000
00000
00000
00000
,
00000
00000
00000
00000
,
00000
00000
00000
00000
,
00000
00000
00000
00000
,
00000
00000
00000
00000
,
00000
00000
00000
00000
,
00000
00000
00000
00000
,
00000
00000
00000
00000
,
00000
00000
00000
00000
,
00000
00000
00000
00000
,
00000
00000
00000
00000
,
00000
00000
00000
00000
,
00000
00000
00000
00000
,
00000
00000
00000
00000
,
00000
00000
00000
00000
,
00000
00000
00000
00000
,
00000
00000
00000
00000
,
00000
00000
00000
00000
,
00000
00000
00000
00000
,
00000
00000
00000
00000
,
00000
00000
00000
00000
,
00000
00000
00000
00000
,
00000
00000
00000
00000
,
00000
00000
00000
00000
,
00000
00000
00000
00000
,
00000
00000
00000
00000
,
00000
00000
00000
00000
,
00000
00000
00000
00000
,
00000
00000
00000
00000
,
00000
00000
00000
00000
,
00000
00000
00000
00000
,
00000
00000
00000
00000
,
00000
00000
00000
00000
,
00000
00000
00000
00000
,
00000
00000
00000
00000
,
00000
00000
00000
00000
,
00000
00000
00000
00000
,
00000
00000
00000
00000
,
00000
00000
00000
00000
,
00000
00000
00000
00000
,
00000
00000
00000
00000
,
00000
00000
00000
00000
,
00000
00000
00000
00000
,
00000
00000
00000
00000
,
00000
00000
00000
00000
,
00000
00000
00000
00000
,
00000
00000
00000
00000
,
00000
00000
00000
00000
,
00000
00000
00000
00000
,
00000
00000
00000
00000
,
00000
00000
00000
00000
,
00000
00000
00000
00000
,
00000
00000
00000
00000
,
00000
00000
00000
00000
,
00000
00000
00000
00000
,
00000
00000
00000
00000
,
00000
00000
00000
00000
,
00000
00000
00000
00000
,
00000
00000
00000
00000
,
00000
00000
00000
00000
,
00000
00000
00000
00000
,
00000
00000
00000
00000
,
00000
00000
00000
00000
,
00000
00000
00000
00000
,
00000
00000
00000
00000
,
00000
00000
00000
00000
,
00000
00000
00000
00000
,
00000
00000
00000
00000
,
00000
00000
00000
00000
,
00000
00000
00000
00000
,
00000
00000
00000
00000
,
00000
00000
00000
00000
,
00000
00000
00000
00000
,
00000
00000
00000
00000
,
00000
00000
00000
00000
,
00000
00000
00000
00000
,
00000
00000
00000
00000
,
00000
00000
00000
00000
,
00000
00000
00000
00000
,
00000
00000
00000
00000
,
00000
00000
00000
00000
,
00000
00000
00000
00000
,
00000
00000
00000
00000
,
00000
00000
00000
00000
,
00000
00000
00000
00000
,
00000
00000
00000
00000
,
00000
00000
00000
00000
,
00000
00000
00000
00000
,
00000
00000
00000
00000
,
00000
00000
00000
00000
,
00000
00000
00000
00000
,
00000
00000
00000
00000
,
00000
00000
00000
00000
,
00000
00000
00000
00000
,
00000
00000
00000
00000
,
00000
00000
00000
00000
,
00000
00000
00000
00000
,
00000
00000
00000
00000
,
00000
00000
00000
00000
,
00000
00000
00000
00000
,
00000
00000
00000
00000
,
00000
00000
00000
00000
,
00000
00000
00000
00000
,
00000
00000
00000
00000
,
00000
00000
00000
00000
,
00000
00000
00000
00000
,
00000
00000
00000
00000
,
00000
00000
00000
00000
,
00000
00000
00000
00000
,
00000
00000
00000
00000
,
00000
00000
00000
00000
,
00000
00000
00000
00000
,
00000
00000
00000
00000
,
00000
00000
00000
00000
,
00000
00000
00000
00000
,
00000
00000
00000
00000
,
00000
00000
00000
00000
,
00000
00000
00000
00000
,
00000
00000
00000
00000
,
00000
00000
00000
00000
,
00000
00000
00000
00000
,
00000
00000
00000
00000
,
00000
00000
00000
00000
,
00000
00000
00000
00000
,
00000
00000
00000
00000
,
00000
00000
00000
00000
,
00000
00000
00000
00000
,
00000
00000
00000
00000
,
00000
00000
00000
00000
,
00000
00000
00000
00000
,
00000
00000
00000
00000
,
00000
00000
00000
00000
,
00000
00000
00000
00000
,
00000
00000
00000
00000
,
00000
00000
00000
00000
,
00000
00000
00000
00000
,
00000
00000
00000
00000
,
00000
00000
00000
00000
,
00000
00000
00000
00000
,
00000
00000
00000
00000
,
00000
00000
00000
00000
,
00000
00000
00000
00000
,
00000
00000
00000
00000
,
00000
00000
00000
00000
,
00000
00000
00000
00000
,
00000
00000
00000
00000
,
00000
00000
00000
00000
,
00000
00000
00000
00000
,
00000
00000
00000
00000
,
00000
00000
00000
00000
,
00000
00000
00000
00000
,
00000
00000
00000
10000
,
00000
00000
00000
00000
,
00000
00000
00000
00000
,
10000
00000
00000
00000
,
00000
00000
00000
00000
,
00000
00000
00000
00000
,
10000
00001
10000
00001
00000
00000
11111
00000
;

//---------------dance-single - J. Nero----------------
#NOTES:
     dance-single:
     J. Nero:
     Challenge:
     12:
     0.875,1.000,0.185,0.056,0.357,1269.000,40.000,12.000,56.000,0.000:
0000
0000
0000
0000
,
0000
0000
0000
0000
,
1001
0000
0000
0000
0000
0000
0000
0101
0000
0000
0110
0000
0000
0000
0000
0000
,
1010
0000
0000
0000
0000
0000
0000
0101
0000
0000
1001
0000
0000
0000
0000
0000
,
0110
0000
0000
0000
0000
0000
0000
0101
0000
0000
1010
0000
0000
0000
0000
0000
,
0110
0000
0000
0000
0000
0000
0000
0101
0000
0000
1100
0000
0000
0000
0000
0000
,
1000
0001
0010
0100
1000
0010
0100
0001
0010
0100
1000
0010
1000
0001
1000
0100
,
0010
0001
0010
0100
1000
0010
1000
0001
0010
0100
0010
0001
0100
0010
1000
0100
,
1000
0100
0010
0001
0100
0010
1000
0100
1000
0001
0100
0010
0100
0001
1000
0100
,
0010
0100
1000
0010
0100
0001
1000
0001
1000
0010
0100
0001
2000
0000
3000
0000
,
0001
1000
0000
1000
0010
0000
0100
0001
,
0000
0000
0001
0000
0010
0000
0000
0000
0100
0000
1000
0001
1000
0000
0001
0000
,
0100
0010
0000
0010
1000
0000
0100
1000
,
0000
0000
1000
0000
0010
0000
0000
0000
0100
0000
0001
0100
0001
0000
0100
0000
,
0010
1000
0000
1000
0100
0000
0010
0001
,
0000
0000
0001
0000
0100
0000
0000
0000
0010
0000
1000
0010
1000
0000
0010
0000
,
0100
0001
0000
0001
0010
0000
0100
1000
,
0000
0000
1000
0001
1000
0000
0001
0000
0100
0000
0000
0000
0000
0000
0000
0000
,
0001
1000
0100
0010
0001
0010
0100
1000
,
0010
0000
0100
0000
0001
0000
1000
0000
0010
0000
1000
0001
1000
0000
0001
0000
,
0100
0001
0010
0100
1000
0010
0100
0001
,
0010
0000
0100
0000
1000
0000
0001
0000
1000
0000
0010
0100
0010
0000
0100
0000
,
0001
0010
0100
1000
0001
1000
0100
1000
,
0010
0000
0100
0000
0001
0000
0010
0000
0100
0000
1000
0001
1000
0000
0001
0000
,
100M
MM1M
M1MM
MMM1
,
1MM1
0000
1MM1
0000
1MM1
1MM1
1MM1
1MM1
,
1MM1
0000
0000
0000
,
0000
0000
0000
0000
,
1000
0010
0100
0010
1000
0001
0010
0100
,
1000
0000
0001
0000
0100
0000
0010
0000
1000
0000
0100
1000
0100
0000
1000
0000
,
0010
0100
0001
0010
0100
1000
0001
0100
,
0010
0000
0100
0000
0001
0000
1000
0000
0100
0000
1000
0001
0100
0000
0010
0000
,
0100
0001
0010
0100
1000
0010
0100
0001
,
1000
0000
0100
0000
0010
0000
0001
0000
0100
0000
0010
1000
0010
0000
1000
0000
,
0001
0010
0100
1000
0010
1000
0001
0010
,
0100
0000
0010
0001
0100
0000
0100
0000
0001
0000
0100
0000
0100
0000
0010
0000
,
1010
1000
0100
0010
0011
0001
0100
0010
,
1000
0000
0100
0000
0010
0000
0001
0000
0100
0000
0010
1000
0010
0000
1000
0000
,
0100
0010
0001
0100
0001
1000
0100
1000
,
0010
0000
0100
0000
0001
0000
0010
0000
0100
0000
1000
0001
1000
0000
0001
0000
,
0100
0010
0100
0001
0010
0100
1000
0010
,
0100
0000
0001
0000
1000
0000
0010
0000
0100
0000
0001
1000
0001
0000
1000
0000
,
0100
0010
0100
1000
0001
0100
0010
1000
,
0010
0000
0100
0001
1000
0000
1000
0000
0010
0000
0100
0000
0100
0000
0001
0000
,
1001
0000
1000
0000
1001
0000
0001
0100
,
0000
0000
0100
0000
0010
0000
0000
0000
0100
0000
0010
1000
0010
0000
1000
0000
,
0100
0010
0000
0010
0001
0000
0100
0001
,
0000
0000
0001
0000
1000
0000
0000
0000
0010
0000
0100
0001
0100
0000
0001
0000
,
1000
0100
0000
0100
0010
0000
0100
1000
,
0000
0000
1000
0000
0010
0000
0000
0000
0100
0000
0001
0100
0001
0000
0100
0000
,
0010
1000
0000
1000
0001
0000
0010
0100
,
0000
0000
1000
0001
0100
0000
0010
0000
0100
0000
0000
0000
0000
0000
0000
0000
,
0001
1000
0000
1000
0100
0000
0010
0001
,
0000
0000
0001
0000
0100
0000
0000
0000
0010
0000
1000
0100
1000
0000
0100
0000
,
1000
0100
0000
0100
0010
0000
0001
0100
,
0000
0000
0100
0000
0010
0000
0000
0000
1000
0000
0001
0100
0001
0000
0100
0000
,
0010
1000
0000
1000
0001
0000
0010
0100
,
0000
0000
0100
0000
1000
0000
0000
0000
0100
0000
0010
0001
0010
0000
0001
0000
,
0100
0010
0000
0010
1000
0000
0001
0100
,
0000
0000
0100
0001
0100
0000
0001
0000
1000
0000
0000
0000
0000
0000
0000
0000
,
1000
0100
0010
0001
0100
0010
1000
0001
0100
0100
0001
1000
1000
0010
0100
0100
,
0001
0000
1000
0100
1000
0000
0100
0000
0010
0000
0001
0000
1000
0000
0010
0000
0100
0000
0100
0000
0001
0000
1000
0000
1000
0000
0010
0000
0100
0010
0100
0000
,
0001
0001
1000
0010
0010
0100
0001
0001
1000
0100
0010
0100
1000
0001
0010
0100
,
0010
0000
0010
0000
0001
0000
0100
0000
0100
0000
0010
0000
1000
0000
1000
0000
0010
0000
0100
0001
0100
0000
0001
0000
1000
0100
1000
0100
1000
0000
0000
0000
,
0010
1000
0100
0100
1000
0010
0010
0100
0001
0001
1000
0010
0010
0100
0001
0001
,
0100
0000
0010
1000
0010
0000
1000
0000
0001
0000
0001
0000
0100
0000
0010
0000
0010
0000
1000
0000
0001
0000
0001
0000
0100
0000
0010
0000
1000
0010
1000
0000
,
0001
0001
1000
0010
0010
0100
0001
0001
0010
0010
0100
0100
1000
1000
0001
0100
,
0010
0000
0010
0000
1000
0000
0001
0000
0001
0000
0100
0000
0010
0000
0010
0000
1000
0000
0100
1000
0100
0000
1000
0000
0001
0100
0001
0000
0100
0000
0001
0000
,
1000
0001
0010
0100
1000
0010
0100
0001
,
1000
0100
1000
0010
0100
0001
0010
0010
,
0100
0000
1000
0010
0100
0000
0001
0000
0010
0000
0100
0000
1000
0000
0010
0000
,
0100
0000
0001
0000
1000
0000
0100
0000
1000
0000
0010
0000
0100
0001
0100
0000
,
0001
0010
0010
0100
1000
1000
0010
0100
,
0100
0001
0010
0100
1000
0010
0100
0001
,
1000
0010
0100
0001
0010
0100
1000
0010
,
0100
0001
1000
1000
0010
0100
0100
0001
,
1001
1000
0010
0100
0101
0001
0010
0100
,
1000
0100
1000
0010
0100
0001
0010
0100
,
1000
0000
0010
1000
0010
0000
0100
0000
0010
0000
1000
0000
0100
0000
0010
0000
,
0001
0000
0100
0000
0010
0000
1000
0000
0001
0000
0010
0000
0100
1000
0100
0000
,
1000
0010
0010
0100
0001
0001
0010
0100
,
1000
0010
0100
0001
1000
0001
0100
0010
,
1000
0001
0010
0100
0010
0001
1000
0010
,
0100
0001
1000
1000
0010
0100
0100
0001
,
0202
0000
0000
0000
,
0000
0000
0303
2000
0000
0000
0000
0000
0000
0000
0000
0000
0000
0000
0000
0000
0000
0000
0000
0000
0000
0000
0000
0000
,
0000
3020
0000
0000
0000
0000
0000
0000
,
0000
0230
0000
0000
0000
0000
0000
0000
,
0000
0302
0000
0000
0000
0000
0000
0000
,
0000
0023
0000
0000
0000
0000
0000
0000
,
0000
0230
0000
0000
0000
0000
0000
0000
,
0000
2300
0000
0000
0000
0000
0000
0000
,
3001
1000
0010
0100
0001
0010
0100
1000
,
0001
0100
0010
0100
0001
1000
0100
1000
,
0001
0100
0010
0100
0001
0010
0100
1000
,
0001
0100
0010
0100
0001
1000
0100
0001
,
0100
1000
0010
0100
0010
1000
0001
0010
,
0100
0010
0001
1000
0001
0100
0010
1000
,
0001
0010
0100
0010
0001
0100
0001
0010
,
0100
0000
0000
0000
0000
0000
1000
0000
0000
0000
0000
0000
0001
0000
0000
0000
0000
0000
0100
0000
0000
0000
0000
0000
0010
0000
0000
0000
0010
0000
0000
0000
0010
0000
0000
0000
1000
0000
0000
0001
0000
0000
0010
0000
0000
0100
0000
0000
,
1000
0010
0100
0010
1000
0001
0010
0100
,
1000
0001
0100
0010
1000
0100
1000
0010
,
0100
0001
0010
0100
1000
0010
0100
0001
,
1000
0001
0010
0100
0010
0100
1000
0010
,
0100
0001
0010
0100
1000
0010
0100
0001
,
1000
0100
0010
0001
0100
0010
1000
0001
,
0010
0100
0010
0001
1000
0001
0100
0001
,
1000
0000
0010
0000
0100
0000
0100
0000
0001
0000
0100
0000
0100
0000
0010
1000
,
0010
1000
0100
0010
0011
0001
0100
0010
,
1000
0100
0010
0001
0100
0010
1000
0001
,
0010
0100
1000
0010
0100
0001
1000
0100
,
1000
0010
0100
0001
1000
0001
0010
0100
,
1000
0010
0100
0001
0010
0100
1000
0010
,
0100
0001
1000
0010
0100
0001
1000
0100
,
1000
0010
0100
0001
0010
0100
0010
0100
,
1000
0000
0010
0000
0100
0000
0001
0000
0001
0000
0100
0000
0100
0000
0001
0100
,
0001
1000
0010
0100
0010
1000
0001
0010
,
0100
1000
0001
0100
0010
1000
0100
1000
,
0010
0100
0001
0010
0100
1000
0010
0100
,
0001
1000
0001
0010
0100
0010
0100
1000
,
0010
0100
0001
0010
0100
1000
0010
0100
,
0001
1000
0010
0100
0001
1000
0010
1000
,
0001
0010
0100
0010
0001
1000
0001
0100
,
0001
1000
0010
0100
0100
0001
0100
0100
,
0101
0001
0010
0100
1100
1000
0010
0100
,
0001
0010
0001
0100
0010
1000
0100
0010
,
0001
0100
1000
0100
0001
1000
0100
0001
,
0100
1000
0010
0100
0010
0100
1000
0100
,
1000
0100
0001
0100
0001
1000
0100
1000
,
0100
0001
0100
0001
0100
1000
0010
0100
,
0001
1000
0010
0100
0010
0001
0010
0100
,
0001
1000
0100
0100
1000
0010
0010
1000
,
1010
0010
0000
0100
0001
0000
0010
0100
,
0000
0000
0100
0000
1000
0000
0000
0000
0001
0000
0100
0001
1000
0000
0100
0000
,
1000
0010
0000
0010
0100
0000
0001
0010
,
0000
0000
0010
0000
0100
0000
0000
0000
1000
0000
0001
0010
0100
0000
1000
0000
,
0010
0100
0000
0001
1000
0000
0001
0100
,
0000
0000
0100
0000
0010
0000
0000
0000
1000
0000
0100
1000
0100
0000
1000
0000
,
0010
0100
0000
0001
0010
0000
0100
1000
,
0000
0000
0001
1000
0001
0000
0100
0000
0010
0000
0000
0000
0000
0000
0000
0000
,
1000
0001
0010
0100
1000
0100
0010
0001
,
0100
0000
0010
0000
1000
0000
0001
0000
0100
0000
0001
1000
0001
0000
1000
0000
,
0010
1000
0100
0010
0001
0100
0010
1000
,
0100
0000
0010
0000
0001
0000
1000
0000
0001
0000
0100
0010
0100
0000
0010
0000
,
1000
0100
0010
0001
1000
0001
0010
0001
,
0100
0000
0010
0000
1000
0000
0100
0000
0010
0000
0001
1000
0001
0000
1000
0000
,
M001
M1MM
MM1M
1MMM
,
1MM1
0000
1MM1
0000
1MM1
1MM1
1MM1
1MM1
,
1001
0001
0100
0010
1000
0001
0010
0100
,
1000
0000
0001
0000
0100
0000
0010
0000
1000
0000
0100
1000
0100
0000
1000
0000
,
0010
0100
0001
0010
0100
1000
0001
0100
,
0010
0000
0100
0000
0001
0000
1000
0000
0100
0000
1000
0001
0100
0000
0010
0000
,
0100
0001
0010
0100
1000
0010
0100
0001
,
1000
0000
0100
0000
0010
0000
0001
0000
0100
0000
0010
1000
0010
0000
1000
0000
,
0001
0010
0100
1000
0010
1000
0001
0010
,
0100
0000
0010
0001
0100
0000
0100
0000
0001
0000
0100
0000
0100
0000
0010
0000
,
1010
1000
0100
0010
0011
0001
0100
0010
,
1000
0000
0100
0000
0010
0000
0001
0000
0100
0000
0010
1000
0010
0000
1000
0000
,
0100
0010
0001
0100
0001
1000
0100
1000
,
0010
0000
0100
0000
0001
0000
0010
0000
0100
0000
1000
0001
1000
0000
0001
0000
,
0100
0010
0100
0001
0010
0100
1000
0010
,
0100
0000
0001
0000
1000
0000
0010
0000
0100
0000
0001
1000
0001
0000
1000
0000
,
0100
0010
0100
1000
0001
0100
0010
1000
,
0010
0000
0100
0001
1000
0000
1000
0000
0010
0000
0100
0000
0100
0000
0001
0000
,
2MM2
0000
0MM0
0000
,
0MM0
0000
0MM0
0000
,
0MM0
0000
0000
0000
,
0000
0000
0000
0000
,
3003
0000
0000
0000
;
