#TITLE:Move Into Light;
#SUBTITLE:(Koven & Nightstep Remix);
#ARTIST:Juventa feat. Erica Curran;
#TITLETRANSLIT:;
#SUBTITLETRANSLIT:;
#ARTISTTRANSLIT:;
#CREDIT:owenviau1;
#BANNER:;
#BACKGROUND:;
#LYRICSPATH:;
#CDTITLE:;
#MUSIC:Nightstep - Move Into Light.mp3;
#OFFSET:-1.621;
#SAMPLESTART:114.552;
#SAMPLELENGTH:29.999;
#SELECTABLE:YES;
#BPMS:0.000=170.000;
#STOPS:;
#BGCHANGES:;
// cache tags:
#FIRSTBEAT:0.000;
#LASTBEAT:615.000;
#SONGFILENAME:Songs/owenviau1 (2016) (Pad & Index)/Move Into Light - [owenviau1] v1.0.0/Move Into Light.sm;
#HASMUSIC:1;
#HASBANNER:0;
#MUSICLENGTH:218.976;
// end cache tags

//---------------dance-single - 13.76 (14-) (owenvia----------------
#NOTES:
     dance-single:
     13.76 (14-) (owenvia:
     Hard:
     14:
     1.000,1.000,0.064,0.648,1.000,1696.000,14.000,142.000,12.000,0.000:
1000
0100
0010
0001
0100
0010
1000
0001
,
0010
0001
0100
0010
1000
0100
0010
0001
,
1000
0010
1000
0001
0100
0010
0100
0001
,
1000
0100
0010
0001
0100
0010
1000
0010
,
0100
0001
0010
0001
1000
0100
0010
0001
,
0100
0010
0100
0001
1000
0010
0100
0001
,
1000
0100
0010
0001
0100
0010
0100
0001
,
1000
0010
1000
0100
0010
0001
0100
0010
,
1001
1000
0010
0100
0010
1000
0001
0010
,
0110
0100
1000
0010
0100
0101
0001
1000
,
1010
0010
0100
0001
1000
0100
1000
0010
,
0110
0100
0001
1000
0100
0110
0010
0001
,
0101
0100
0010
1000
0001
0010
0100
1000
,
1010
0010
0100
0001
0100
0110
0010
1000
,
1100
0100
0010
0001
0100
0010
0100
0001
,
1001
1000
0010
0110
0200
0301
0020
0130
,
2000
3010
0100
0001
1000
0100
1000
0010
,
0200
0301
2000
3100
0020
0031
0200
0310
,
1000
0001
0010
0001
10M0
0100
1000
0010
,
0100
0001
1000
0100
0010
0002
0203
0320
,
1030
0002
0013
0200
1300
0002
0013
0002
,
1003
0200
0310
0002
0103
0020
1030
0001
,
0100
0001
1M00
0010
0100
0010
1000
0001
,
0010
0001
1000
0100
0020
0031
0200
0310
,
2000
3010
0100
0001
1000
0100
1000
0010
,
0200
0301
2000
3100
0020
0031
0200
0310
,
1000
0001
0020
0032
1003
0100
1000
0010
,
0100
0000
0000
0000
0001
0000
0000
0000
1000
0000
0000
0000
0100
0000
0000
0000
0010
0000
0000
0000
0001
M000
0000
0000
0100
0000
0000
0000
0020
0000
0000
0000
,
1030
0002
0013
0200
1300
0002
0013
0002
,
1003
0200
0310
0002
0103
0020
1030
0001
,
0100
0001
1000
0010
0100
0010
1000
0001
,
0010
0001
1000
0100
0010
0002
0203
0310
,
2000
3001
0010
0001
0100
0020
2030
3002
,
0013
0200
1300
0010
0100
0001
0100
0010
,
2000
3002
1003
0200
0310
0002
0203
0310
,
0100
0001
10M0
0100
1000
0001
0020
0031
,
0200
0310
1000
0001
0010
0200
2300
3002
,
0013
0002
1003
0200
0310
0002
0103
0001
,
1000
0010
0100
0010
1000
0001
0100
0010
,
0100
0001
1000
0100
0010
0001
1000
0010
,
1MM1
0001
0100
0010
0100
0001
0010
0100
,
2000
3010
0100
0002
1003
0001
0010
0100
,
1000
0010
0100
0001
1000
0100
0010
0001
,
0200
0301
1000
0200
0310
0001
0100
0010
,
1000
0001
0010
0001
1000
0100
1000
0010
,
0200
0301
1000
0200
0310
0001
0010
0100
,
1000
0001
1000
0100
0020
0000
0000
0000
,
0000
0000
0032
0000
1003
0100
0010
0001
,
1000
0010
0100
0001
0100
0010
1000
0100
0010
0001
0100
0010
1000
0001
0010
0001
,
0100
0010
1000
0100
0010
0001
1000
0010
1000
0001
0100
0010
0100
0001
1000
0100
,
0010
0001
0100
0010
1000
0001
0010
0001
0100
0010
0100
0001
1000
0010
1000
0100
,
0010
0001
0100
0010
1000
0001
0010
0100
1000
0010
0100
0010
1000
0001
0010
0001
,
0100
0010
1000
0001
0010
0100
1000
0010
0100
0001
0100
0010
1000
0100
1000
0001
,
0010
0001
1000
0100
0010
0001
0100
0010
1000
0001
0100
0001
1000
0010
0100
0001
,
0100
0010
1000
0001
1000
0100
0010
0001
2000
0000
0000
3000
0001
0010
0100
1000
,
0010
0100
0010
1000
0002
0000
1003
0000
0200
0000
0310
0000
0002
0000
1003
0000
,
0001
0010
0100
1000
0010
0100
0010
1000
0001
0100
0001
0010
0100
1000
0010
0100
,
0001
1000
0100
0010
0001
0100
0010
1000
0010
0100
0001
1000
0100
1000
0010
0100
,
0001
0010
0100
1000
0001
0010
0001
0100
0010
1000
0100
1000
0001
0010
0001
0100
,
0010
1000
0001
0010
0100
1000
0010
0100
0001
1000
0100
1000
0010
0100
0001
0100
,
0010
1000
0001
1000
0100
0010
0001
0100
0010
0100
0001
1000
0010
0100
0010
1000
,
0100
0010
0001
0100
0010
1000
0001
0010
0100
1000
0010
0100
0010
1000
0001
0100
,
0001
0010
0100
1000
0010
0100
0001
1000
0100
1000
0010
0100
0002
0000
0000
0000
,
0000
0000
2003
3000
0020
0030
0200
0000
,
0302
0000
0000
0000
,
1003
0010
0100
0010
1000
0001
0010
0001
0100
0010
1000
0001
0010
0100
1000
0010
,
0100
0001
0100
0010
1000
0001
1000
0100
0010
0001
0100
0010
1000
0010
0100
0001
,
0010
0001
1000
0100
0010
0001
0100
0010
1000
0001
0010
0100
1000
0001
1000
0010
,
0100
0010
1000
0000
0010
0001
0100
0010
1000
0100
0010
0001
1000
0100
1000
0010
,
0100
0001
1000
0100
1000
0010
0100
0001
0010
0100
1000
0001
0010
0001
1000
0100
,
0010
0001
0100
0010
0100
0001
1000
0010
0100
0010
1000
0001
0010
0100
1000
0010
,
0100
0001
0100
0010
1000
0001
0010
0100
2000
0000
0000
0000
0000
0000
0000
0000
,
3001
0100
0010
1000
0001
0010
0001
0100
0010
1000
0100
0010
0001
1000
0010
1000
,
0001
0100
0010
1000
0100
0010
0001
0100
0010
1000
0010
0100
0001
1000
0100
1000
,
0010
0100
0001
1000
0100
0010
0001
0100
0010
0100
0001
1000
0100
1000
0010
0100
,
0001
1000
0100
0010
0001
0100
0010
1000
0010
0100
0001
1000
0001
0100
0010
0100
,
0001
1000
0010
0100
0001
1000
0100
0010
0001
0100
0010
1000
0100
0010
0001
1000
,
0100
1000
0010
0100
0010
1000
0001
0100
0001
1000
0010
0100
0001
1000
0100
0010
,
0001
0100
0010
1000
0010
0100
0001
1000
0100
1000
0010
0100
0001
1000
0100
0010
,
0001
0100
0010
1000
0001
0010
0100
1000
0010
0000
0000
0000
0100
0001
1000
0010
,
1000
0100
0010
0001
0100
0010
1000
0001
0010
0100
1000
0001
0010
0001
1000
0100
,
0010
0001
0100
0010
1000
0001
0100
0001
1000
0010
0100
0010
1000
0001
0010
0001
,
1000
0100
0010
0001
0100
0010
1000
0001
0010
0100
1000
0010
0100
0010
1000
0001
,
0100
0001
1000
0010
0100
0010
1000
0001
0010
0001
1000
0100
0010
0001
0100
0010
,
1000
0001
0010
0100
1000
0010
0100
0001
1000
0100
1000
0010
0100
0001
1000
0100
,
0010
0001
1000
0010
1000
0001
0100
0010
0100
0001
1000
0100
1000
0010
0100
0001
,
1000
0100
0010
0001
0100
0010
1000
0001
0010
0001
1000
0100
0010
0001
1000
0010
,
1000
0001
0100
0010
0100
0001
1000
0100
1000
0010
0100
0001
1000
0100
0010
0001
,
2000
3010
0100
0001
1000
0100
1000
0010
,
0200
0301
2000
3100
0020
0031
0200
0310
,
1000
0001
0010
0001
10M0
0100
1000
0010
,
0100
0001
1000
0100
0010
0002
0203
0320
,
1030
0002
0013
0200
1300
0002
0013
0002
,
1003
0200
0310
0002
0103
0020
1030
0001
,
0100
0001
1M00
0010
0100
0010
1000
0001
,
0010
0001
1000
0100
0020
0031
0200
0310
,
2000
3010
0100
0001
1000
0100
1000
0010
,
0200
0301
2000
3100
0020
0031
0200
0310
,
1000
0001
0020
0032
1003
0100
1000
0010
,
0100
0000
0000
0000
0001
0000
0000
0000
1000
0000
0000
0000
0100
0000
0000
0000
0010
0000
0000
0000
0001
M000
0000
0000
0100
0000
0000
0000
0020
0000
0000
0000
,
1030
0002
0013
0200
1300
0002
0013
0002
,
1003
0200
0310
0002
0103
0020
1030
0001
,
0100
0001
1000
0010
0100
0010
1000
0001
,
0010
0001
1000
0100
0010
0002
0203
0310
,
2000
3001
0010
0001
0100
0020
2030
3002
,
0013
0200
1300
0010
0100
0001
0100
0010
,
2000
3002
1003
0200
0310
0002
0203
0310
,
0100
0001
10M0
0100
1000
0001
0020
0031
,
0200
0310
1000
0001
0010
0200
2300
3002
,
0013
0002
1003
0200
0310
0002
0103
0001
,
1000
0010
0100
0010
1000
0001
0100
0010
,
0100
0001
1000
0100
0010
0001
1000
0010
,
1MM1
0001
0100
0010
0100
0001
0010
0100
,
2000
3010
0100
0002
1003
0001
0010
0100
,
1000
0010
0100
0001
1000
0100
0010
0001
,
0200
0301
1000
0200
0310
0001
0100
0010
,
1000
0001
0010
0001
1000
0100
1000
0010
,
0200
0301
1000
0200
0310
0001
0010
0100
,
1000
0001
1000
0100
0020
0000
0000
0000
,
0000
0000
0032
0000
1003
0100
0010
0001
,
1000
0010
0100
0010
1000
0001
0010
0100
1000
0001
0100
0010
1000
0001
0010
0001
,
0100
0010
1000
0100
0010
0001
1000
0010
1000
0001
0100
0010
0100
0001
1000
0100
,
0010
0001
0100
0010
1000
0001
0010
0001
0100
0010
0100
0001
1000
0010
1000
0100
,
0010
0001
0100
0010
1000
0001
0010
0100
1000
0010
0100
0010
1000
0001
0010
0001
,
0100
0010
1000
0001
0010
0100
1000
0010
0100
0001
0100
0010
1000
0100
1000
0001
,
0010
0001
1000
0100
0010
0001
0100
0010
1000
0001
0100
0001
1000
0010
0100
0001
,
0100
0010
1000
0001
1000
0100
0010
0001
2000
0000
0000
3000
0001
0010
0100
1000
,
0010
0100
0010
1000
0002
0000
1003
0000
0200
0000
0310
0000
0002
0000
1003
0000
,
0001
0010
0100
1000
0010
0100
0010
1000
0001
0100
0001
0010
0100
1000
0010
0100
,
0001
1000
0100
0010
0001
0100
0010
1000
0010
0100
0001
1000
0100
1000
0010
0100
,
0001
0010
0100
1000
0001
0010
0001
0100
0010
1000
0100
1000
0001
0010
0001
0100
,
0010
1000
0001
0010
0100
1000
0010
0100
0001
1000
0100
1000
0010
0100
0001
0100
,
0010
1000
0001
1000
0100
0010
0001
0100
0010
0100
0001
1000
0010
0100
0010
1000
,
0100
0010
0001
0100
0010
1000
0001
0010
0100
1000
0010
0100
0010
1000
0001
0100
,
0001
0010
0100
1000
0010
0100
0001
1000
0100
1000
0010
0100
0002
0000
0000
0000
,
0000
0000
2003
3000
0020
0030
0200
0000
,
0302
0000
0000
0000
,
1003
0010
0100
0010
1000
0001
0010
0001
0100
0010
1000
0001
0010
0100
1000
0010
,
0100
0001
0100
0010
1000
0001
1000
0100
0010
0001
0100
0010
1000
0010
0100
0001
,
0010
0001
1000
0100
0010
0001
0100
0010
1000
0001
0010
0100
1000
0001
1000
0010
,
0100
0010
1000
0000
0010
0001
0100
0010
1000
0100
0010
0001
1000
0100
1000
0010
,
0100
0001
1000
0100
1000
0010
0100
0001
0010
0100
1000
0001
0010
0001
1000
0100
,
0010
0001
0100
0010
0100
0001
1000
0010
0100
0010
1000
0001
0010
0100
1000
0010
,
0100
0001
0100
0010
1000
0001
0010
0100
2000
0000
0000
0000
0000
0000
0000
0000
,
3001
0100
0010
0100
0001
1000
0100
1000
0010
0100
0001
1000
0100
0010
0001
1000
,
0010
1000
0100
0010
0001
0100
0010
1000
0001
0010
0100
1000
0010
0100
0001
0100
,
0010
1000
0001
1000
0100
0010
0001
0100
0010
1000
0010
0100
0001
1000
0100
1000
,
0010
0100
0001
0010
0100
1000
0001
0010
0001
0100
0010
1000
0010
0100
0001
1000
,
0100
1000
0010
0100
0001
1000
0100
0010
0001
1000
0010
1000
0100
0010
0001
0100
,
0010
1000
0001
0010
0100
1000
0010
0100
0010
1000
0001
0100
0001
0010
0100
1000
,
0010
0100
0001
1000
0100
1000
0010
0100
,
0001
0000
1000
0000
0100
0000
0010
0000
0001
0000
1000
0000
0010
0100
0001
1000
,
0100
0100
0010
0001
0100
0010
1000
0001
0010
0100
1000
0001
0010
0001
1000
0100
,
0010
0001
0100
0010
1000
0001
0100
0001
1000
0010
0100
0010
1000
0000
0000
0000
;

//---------------dance-single - 21.11 (21) (owenviau----------------
#NOTES:
     dance-single:
     21.11 (21) (owenviau:
     Challenge:
     21:
     1.000,1.000,0.064,0.648,1.000,2054.000,14.000,142.000,12.000,0.000:

1000
0100
0010
0001
0100
0010
1000
0001
,
0010
0001
0100
0010
1000
0100
0010
0001
,
1000
0010
1000
0001
0100
0010
0100
0001
,
1000
0100
0010
0001
0100
0010
1000
0010
,
0100
0001
0010
0001
1000
0100
0010
0001
,
0100
0010
0100
0001
1000
0010
0100
0001
,
1000
0100
0010
0001
0100
0010
0100
0001
,
1000
0010
1000
0100
0010
0001
0100
0010
,
1001
1000
0010
0100
0010
1000
0001
0010
,
0110
0100
1000
0010
0100
0101
0001
1000
,
1010
0010
0100
0001
1000
0100
1000
0010
,
0110
0100
0001
1000
0100
0110
0010
0001
,
0101
0100
0010
1000
0001
0010
0100
1000
,
1010
0010
0100
0001
0100
0110
0010
1000
,
1100
0100
0010
0001
0100
0010
0100
0001
,
1001
1000
0010
0110
0200
0301
0020
0130
,
2000
3010
0100
0001
1000
0100
1000
0010
,
0200
0301
2000
3100
0020
0031
0200
0310
,
1000
0001
0010
0001
10M0
0100
1000
0010
,
0100
0001
1000
0100
0010
0002
0203
0320
,
1030
0002
0013
0200
1300
0002
0013
0002
,
1003
0200
0310
0002
0103
0020
1030
0001
,
0100
0001
1M00
0010
0100
0010
1000
0001
,
0010
0001
1000
0100
0020
0031
0200
0310
,
2000
3010
0100
0001
1000
0100
1000
0010
,
0200
0301
2000
3100
0020
0031
0200
0310
,
1000
0001
0020
0032
1003
0100
1000
0010
,
0100
0000
0000
0000
0001
0000
0000
0000
1000
0000
0000
0000
0100
0000
0000
0000
0010
0000
0000
0000
0001
M000
0000
0000
0100
0000
0000
0000
0020
0000
0000
0000
,
1030
0002
0013
0200
1300
0002
0013
0002
,
1003
0200
0310
0002
0103
0020
1030
0001
,
0100
0001
1000
0010
0100
0010
1000
0001
,
0010
0001
1000
0100
0010
0002
0203
0310
,
2000
3001
0010
0001
0100
0020
2030
3002
,
0013
0200
1300
0010
0100
0001
0100
0010
,
2000
3002
1003
0200
0310
0002
0203
0310
,
0100
0001
10M0
0100
1000
0001
0020
0031
,
0200
0310
1000
0001
0010
0200
2300
3002
,
0013
0002
1003
0200
0310
0002
0103
0001
,
1000
0010
0100
0010
1000
0001
0100
0010
,
0100
0001
1000
0100
0010
0001
1000
0010
,
1MM1
0001
0100
0010
0100
0001
0010
0100
,
2000
3010
0100
0002
1003
0001
0010
0100
,
1000
0010
0100
0001
1000
0100
0010
0001
,
0200
0301
1000
0200
0310
0001
0100
0010
,
1000
0001
0010
0001
1000
0100
1000
0010
,
0200
0301
1000
0200
0310
0001
0010
0100
,
1000
0001
1000
0100
0020
0000
0000
0000
,
0000
0000
0032
0000
1003
0100
0010
0001
,
1000
0010
0100
0001
1000
0100
0010
0001
0100
0010
0100
0001
1000
0010
0100
0001
1000
0100
0010
0001
1000
0001
0010
0100
,
1000
0010
0100
0001
0100
0010
1000
0001
1000
0010
0100
0010
1000
0001
0010
0001
0100
0010
1000
0001
0010
0100
1000
0010
,
0100
0001
0100
0010
1000
0100
0010
0001
1000
0010
1000
0001
0100
0010
0100
0001
1000
0100
1000
0010
0100
0001
1000
0100
,
0010
0001
0100
0010
1000
0001
0010
0100
1000
0010
0100
0001
0100
0010
1000
0001
1000
0100
0010
0001
1000
0010
1000
0100
,
0010
0001
0100
0010
1000
0001
0010
0100
1000
0010
0100
0001
1000
0100
1000
0010
0100
0010
1000
0001
0100
0001
0010
0100
,
1000
0010
0100
0001
0100
0010
1000
0001
0010
0001
0100
0010
1000
0100
0010
0001
0100
0010
0100
0001
1000
0100
1000
0010
,
0100
0000
0001
0000
1000
0000
0100
0000
0010
0000
0001
0000
0100
0000
0010
0000
1000
0000
0001
0000
0010
0000
0100
0000
2000
0000
0000
0000
0000
0000
0000
0000
0000
3000
0000
0000
0001
0000
0010
0000
0100
0000
1000
0000
0010
0000
0100
0000
,
0001
1000
0100
1000
0010
0100
0002
0000
0000
1003
0000
0000
0200
0000
0000
0310
0000
0000
0002
0000
0000
1003
0000
0000
,
0001
0010
0100
1000
0010
0100
0001
1000
0100
0010
0001
1000
0010
0100
0001
1000
0100
0010
0001
1000
0001
0010
0100
1000
,
0010
0100
0001
0100
0010
1000
0001
1000
0010
0100
0010
1000
0001
0010
0001
0100
0010
1000
0001
0010
0100
1000
0010
0100
,
0001
0100
0010
1000
0100
0010
0001
1000
0010
1000
0001
0100
0010
0100
0001
1000
0100
1000
0010
0100
0001
1000
0100
0010
,
0001
0100
0010
1000
0001
0010
0100
1000
0010
0100
0001
0100
0010
1000
0001
1000
0100
0010
0001
1000
0010
1000
0100
0010
,
0001
0100
0010
1000
0001
0010
0100
1000
0010
0100
0001
1000
0100
1000
0010
0100
0010
1000
0001
0100
0001
0010
0100
1000
,
0010
0100
0001
0100
0010
1000
0001
0010
0001
0100
0010
1000
0100
0010
0001
0100
0010
0100
0001
1000
0100
1000
0010
0100
,
0001
1000
0100
0010
0001
0100
0010
1000
0100
0010
0001
1000
0010
1000
0001
0100
0010
1000
0002
0000
0000
0000
0000
0000
,
0000
0000
2003
3000
0020
0030
0200
0000
,
0302
0000
0000
0000
,
1003
0010
0100
0001
1000
0100
0010
0001
0100
0010
0100
0001
1000
0010
0100
0001
1000
0100
0010
0001
1000
0001
0010
0100
,
1000
0010
0100
0001
0100
0010
1000
0001
1000
0010
0100
0010
1000
0001
0010
0001
0100
0010
1000
0001
0010
0100
1000
0010
,
0100
0001
0100
0010
1000
0100
0010
0001
1000
0010
1000
0001
0100
0010
0100
0001
1000
0100
1000
0010
0100
0001
1000
0100
,
0010
0001
0100
0010
1000
0001
0010
0100
1000
0010
0100
0001
0100
0010
1000
0001
1000
0100
0010
0001
1000
0010
1000
0100
,
0010
0001
0100
0010
1000
0001
0010
0100
1000
0010
0100
0001
1000
0100
1000
0010
0100
0010
1000
0001
0100
0001
0010
0100
,
1000
0010
0100
0001
0100
0010
1000
0001
0010
0001
0100
0010
1000
0100
0010
0001
0100
0010
0100
0001
1000
0100
1000
0010
,
0100
0001
1000
0100
0010
0001
0100
0010
1000
0001
0010
0100
2000
0000
0000
0000
0000
0000
0000
0000
0000
0000
0000
0000
,
3001
0010
0100
1000
0010
0100
0001
1000
0100
0010
0001
1000
0010
0100
0001
1000
0100
0010
0001
1000
0001
0010
0100
1000
,
0010
0100
0001
0100
0010
1000
0001
1000
0010
0100
0010
1000
0001
0010
0001
0100
0010
1000
0001
0010
0100
1000
0010
0100
,
0001
0100
0010
1000
0100
0010
0001
1000
0010
1000
0001
0100
0010
0100
0001
1000
0100
1000
0010
0100
0001
1000
0100
0010
,
0001
0100
0010
1000
0001
0010
0100
1000
0010
0100
0001
0100
0010
1000
0001
1000
0100
0010
0001
1000
0010
1000
0100
0010
,
0001
0100
0010
1000
0001
0010
0100
1000
0010
0100
0001
1000
0100
1000
0010
0100
0010
1000
0001
0100
0001
0010
0100
1000
,
0010
0100
0001
0100
0010
1000
0001
0010
0001
0100
0010
1000
0100
0010
0001
0100
0010
0100
0001
1000
0100
1000
0010
0100
,
0001
1000
0100
0010
0001
0100
0010
1000
0100
0010
0001
1000
0010
1000
0001
0100
0010
1000
0001
0010
0100
1000
0010
0100
,
0010
0000
1000
0000
0001
0000
0100
0000
0010
0000
0100
0000
0001
0000
1000
0000
0100
0000
0010
0000
0001
0000
1000
0000
0010
0000
0000
0000
0000
0000
0000
0000
0000
0000
0000
0000
0100
0000
0000
0001
0000
0000
1000
0000
0000
0010
0000
0000
,
1000
0100
0010
0001
0100
0010
1000
0001
0010
0100
1000
0001
0010
0001
1000
0100
,
0010
0001
0100
0010
1000
0001
0100
0001
1000
0010
0100
0010
1000
0001
0010
0001
,
1000
0100
0010
0001
0100
0010
1000
0001
0010
0100
1000
0010
0100
0010
1000
0001
,
0100
0001
1000
0010
0100
0010
1000
0001
0010
0001
1000
0100
0010
0001
0100
0010
,
1000
0001
0010
0100
1000
0010
0100
0001
1000
0100
1000
0010
0100
0001
1000
0100
,
0010
0001
1000
0010
1000
0001
0100
0010
0100
0001
1000
0100
1000
0010
0100
0001
,
1000
0100
0010
0001
0100
0010
1000
0001
0010
0001
1000
0100
0010
0001
1000
0010
,
1000
0001
0100
0010
0100
0001
1000
0100
1000
0010
0100
0001
1000
0100
0010
0001
,
2000
3010
0100
0001
1000
0100
1000
0010
,
0200
0301
2000
3100
0020
0031
0200
0310
,
1000
0001
0010
0001
10M0
0100
1000
0010
,
0100
0001
1000
0100
0010
0002
0203
0320
,
1030
0002
0013
0200
1300
0002
0013
0002
,
1003
0200
0310
0002
0103
0020
1030
0001
,
0100
0001
1M00
0010
0100
0010
1000
0001
,
0010
0001
1000
0100
0020
0031
0200
0310
,
2000
3010
0100
0001
1000
0100
1000
0010
,
0200
0301
2000
3100
0020
0031
0200
0310
,
1000
0001
0020
0032
1003
0100
1000
0010
,
0100
0000
0000
0000
0001
0000
0000
0000
1000
0000
0000
0000
0100
0000
0000
0000
0010
0000
0000
0000
0001
M000
0000
0000
0100
0000
0000
0000
0020
0000
0000
0000
,
1030
0002
0013
0200
1300
0002
0013
0002
,
1003
0200
0310
0002
0103
0020
1030
0001
,
0100
0001
1000
0010
0100
0010
1000
0001
,
0010
0001
1000
0100
0010
0002
0203
0310
,
2000
3001
0010
0001
0100
0020
2030
3002
,
0013
0200
1300
0010
0100
0001
0100
0010
,
2000
3002
1003
0200
0310
0002
0203
0310
,
0100
0001
10M0
0100
1000
0001
0020
0031
,
0200
0310
1000
0001
0010
0200
2300
3002
,
0013
0002
1003
0200
0310
0002
0103
0001
,
1000
0010
0100
0010
1000
0001
0100
0010
,
0100
0001
1000
0100
0010
0001
1000
0010
,
1MM1
0001
0100
0010
0100
0001
0010
0100
,
2000
3010
0100
0002
1003
0001
0010
0100
,
1000
0010
0100
0001
1000
0100
0010
0001
,
0200
0301
1000
0200
0310
0001
0100
0010
,
1000
0001
0010
0001
1000
0100
1000
0010
,
0200
0301
1000
0200
0310
0001
0010
0100
,
1000
0001
1000
0100
0020
0000
0000
0000
,
0000
0000
0032
0000
1003
0100
0010
0001
,
1000
0010
0100
0001
1000
0100
0010
0001
0100
0010
0100
0001
1000
0010
0100
0001
1000
0100
0010
0001
1000
0001
0010
0100
,
1000
0010
0100
0001
0100
0010
1000
0001
1000
0010
0100
0010
1000
0001
0010
0001
0100
0010
1000
0001
0010
0100
1000
0010
,
0100
0001
0100
0010
1000
0100
0010
0001
1000
0010
1000
0001
0100
0010
0100
0001
1000
0100
1000
0010
0100
0001
1000
0100
,
0010
0001
0100
0010
1000
0001
0010
0100
1000
0010
0100
0001
0100
0010
1000
0001
1000
0100
0010
0001
1000
0010
1000
0100
,
0010
0001
0100
0010
1000
0001
0010
0100
1000
0010
0100
0001
1000
0100
1000
0010
0100
0010
1000
0001
0100
0001
0010
0100
,
1000
0010
0100
0001
0100
0010
1000
0001
0010
0001
0100
0010
1000
0100
0010
0001
0100
0010
0100
0001
1000
0100
1000
0010
,
0100
0000
0001
0000
1000
0000
0100
0000
0010
0000
0001
0000
0100
0000
0010
0000
1000
0000
0001
0000
0010
0000
0100
0000
2000
0000
0000
0000
0000
0000
0000
0000
0000
3000
0000
0000
0001
0000
0010
0000
0100
0000
1000
0000
0010
0000
0100
0000
,
0001
1000
0100
1000
0010
0100
0002
0000
0000
1003
0000
0000
0200
0000
0000
0310
0000
0000
0002
0000
0000
1003
0000
0000
,
0001
0010
0100
1000
0010
0100
0001
1000
0100
0010
0001
1000
0010
0100
0001
1000
0100
0010
0001
1000
0001
0010
0100
1000
,
0010
0100
0001
0100
0010
1000
0001
1000
0010
0100
0010
1000
0001
0010
0001
0100
0010
1000
0001
0010
0100
1000
0010
0100
,
0001
0100
0010
1000
0100
0010
0001
1000
0010
1000
0001
0100
0010
0100
0001
1000
0100
1000
0010
0100
0001
1000
0100
0010
,
0001
0100
0010
1000
0001
0010
0100
1000
0010
0100
0001
0100
0010
1000
0001
1000
0100
0010
0001
1000
0010
1000
0100
0010
,
0001
0100
0010
1000
0001
0010
0100
1000
0010
0100
0001
1000
0100
1000
0010
0100
0010
1000
0001
0100
0001
0010
0100
1000
,
0010
0100
0001
0100
0010
1000
0001
0010
0001
0100
0010
1000
0100
0010
0001
0100
0010
0100
0001
1000
0100
1000
0010
0100
,
0001
1000
0100
0010
0001
0100
0010
1000
0100
0010
0001
1000
0010
1000
0001
0100
0010
1000
0002
0000
0000
0000
0000
0000
,
0000
0000
2003
3000
0020
0030
0200
0000
,
0302
0000
0000
0000
,
1003
0010
0100
0001
1000
0100
0010
0001
0100
0010
0100
0001
1000
0010
0100
0001
1000
0100
0010
0001
1000
0001
0010
0100
,
1000
0010
0100
0001
0100
0010
1000
0001
1000
0010
0100
0010
1000
0001
0010
0001
0100
0010
1000
0001
0010
0100
1000
0010
,
0100
0001
0100
0010
1000
0100
0010
0001
1000
0010
1000
0001
0100
0010
0100
0001
1000
0100
1000
0010
0100
0001
1000
0100
,
0010
0001
0100
0010
1000
0001
0010
0100
1000
0010
0100
0001
0100
0010
1000
0001
1000
0100
0010
0001
1000
0010
1000
0100
,
0010
0001
0100
0010
1000
0001
0010
0100
1000
0010
0100
0001
1000
0100
1000
0010
0100
0010
1000
0001
0100
0001
0010
0100
,
1000
0010
0100
0001
0100
0010
1000
0001
0010
0001
0100
0010
1000
0100
0010
0001
0100
0010
0100
0001
1000
0100
1000
0010
,
0100
0001
1000
0100
0010
0001
0100
0010
1000
0001
0010
0100
2000
0000
0000
0000
0000
0000
0000
0000
0000
0000
0000
0000
,
3001
0100
0010
0100
0001
1000
0100
1000
0010
0100
0001
1000
0100
0010
0001
1000
,
0010
1000
0100
0010
0001
0100
0010
1000
0001
0010
0100
1000
0010
0100
0001
0100
,
0010
1000
0001
1000
0100
0010
0001
0100
0010
1000
0010
0100
0001
1000
0100
1000
,
0010
0100
0001
0010
0100
1000
0001
0010
0001
0100
0010
1000
0010
0100
0001
1000
,
0100
1000
0010
0100
0001
1000
0100
0010
0001
1000
0010
1000
0100
0010
0001
0100
,
0010
1000
0001
0010
0100
1000
0010
0100
0010
1000
0001
0100
0001
0010
0100
1000
,
0010
0100
0001
1000
0100
1000
0010
0100
,
0001
0000
1000
0000
0100
0000
0010
0000
0001
0000
1000
0000
0010
0100
0001
1000
,
0100
0000
0000
0000
;
