#TITLE:Euphoria;
#SUBTITLE:;
#ARTIST:=);
#TITLETRANSLIT:;
#SUBTITLETRANSLIT:;
#ARTISTTRANSLIT:;
#CREDIT:DukAmok;
#BANNER:Euphoria.png;
#BACKGROUND:Euphoria-bg.png;
#LYRICSPATH:;
#CDTITLE:!duktitle.png;
#MUSIC:Euphoria.mp3;
#OFFSET:1.620;
#SAMPLESTART:37.500;
#SAMPLELENGTH:10.000;
#SELECTABLE:YES;
#BPMS:0.000=140.000;
#STOPS:220.000=0.857
;
#BGCHANGES:;
// cache tags:
#FIRSTBEAT:4.000;
#LASTBEAT:280.000;
#SONGFILENAME:Songs/IzzySM Keyboard Mega Pack/Euphoria/Euphoria.sm;
#HASMUSIC:1;
#HASBANNER:1;
#MUSICLENGTH:122.391;
// end cache tags

//---------------dance-single - Heavy----------------
#NOTES:
     dance-single:
     Heavy:
     Hard:
     11:
     0.921,0.829,0.523,0.016,1.000,723.000,64.000,2.000,0.000,0.000:
0000
0000
0000
0000
,
0001
1000
0000
0100
0000
0010
0001
0000
1000
0010
0000
0100
0000
0010
1000
0000
,
0001
1000
0000
0010
0000
0100
0010
0000
0100
0000
0000
0001
0010
0000
0100
0000
,
1000
0001
0000
0010
0000
0100
1000
0000
0001
0100
0000
0010
0000
0100
0001
0000
,
1000
0001
0000
0100
0000
0010
0100
0000
0010
1000
0100
0000
0010
0001
0100
0000
,
0001
0010
0000
0100
0000
1000
0001
0000
0010
0100
0000
0010
0000
0001
0100
0000
,
0010
1000
0000
0100
0000
0010
0001
0000
0010
0000
0000
0100
1000
0000
0001
0000
,
1000
0100
0000
0010
0000
0001
0100
0000
0010
1000
0000
0010
0000
0100
0001
0000
,
0100
0010
0000
1000
0000
0100
0010
0000
0100
1000
0100
0000
0010
0001
0010
0000
,
0100
1000
0000
0100
0010
0000
0001
0100
0000
0010
1000
0100
1000
0001
0100
0001
,
0010
0100
0000
0010
0001
0000
0100
0010
0000
1000
0001
1000
0010
0100
0001
0010
,
0100
0010
0000
0001
1000
0000
0010
0100
0000
0010
0000
1000
0100
0000
0010
0000
,
0001
1000
0000
0100
0010
0000
0001
1000
0000
1000
0000
0100
0010
0001
0010
0100
,
0010
0001
0000
0010
0100
0000
1000
0010
0000
0100
0001
0010
0001
1000
0010
1000
,
0100
0010
0000
0100
1000
0000
0010
0100
0000
0001
1000
0001
0100
0010
1000
0100
,
0010
0100
0000
1000
0001
0000
0100
0010
0000
0100
0000
0001
0010
0000
0100
0000
,
1000
0001
0000
0010
0100
0000
1000
0001
0000
0100
0000
0010
1000
0100
0010
0000
,
0001
0100
0000
0010
1000
0010
0100
0000
0001
0010
0000
0100
1000
0000
0100
0010
,
0001
1000
0000
0001
1000
0010
0100
0000
0001
0010
0000
0000
0100
0000
0010
0000
,
0100
1000
0000
0001
0100
0010
0000
0000
1000
0010
0000
0000
0100
0000
0001
0000
,
0010
0001
0000
0010
0100
0010
0000
0000
0100
1000
0000
0000
0010
0000
0100
0001
,
1000
0100
0000
0010
0001
1000
0000
0000
0010
0100
0000
0000
0001
0000
0100
0010
,
1000
0001
0000
0010
0100
1000
0001
0000
0000
0000
0101
0000
0110
0000
0000
0000
,
0010
1000
0010
1000
0000
0100
0000
0010
0001
1000
0001
1000
0000
0001
0100
0010
,
1000
0100
1000
0100
0000
0010
0001
0010
0001
0100
0010
1000
0001
0100
0001
0010
,
0100
1000
0100
1000
0000
0001
0000
0100
0010
1000
0010
1000
0000
0001
0010
0100
,
0010
0001
0010
0001
0100
0010
1000
0001
0010
0000
0000
0000
0110
0000
0010
0000
,
0001
1000
0001
1000
0000
0010
0000
0100
0001
0010
0001
0010
0000
0100
0010
0001
,
1000
0001
1000
0001
0000
1000
0010
1000
0010
0100
0001
1000
0100
0010
0001
1000
,
0100
1000
0001
1000
0000
0010
0000
0100
0001
0010
0001
0010
0000
0100
0010
0100
,
1000
0001
0100
0010
1000
0001
0010
0100
0020
0000
0130
1000
0001
0000
0100
0000
,
0101
0000
0001
0010
0001
0000
0011
0000
0110
0000
1100
0000
1000
0000
1001
0000
,
0001
0000
0101
0000
0100
0000
0110
0000
1010
0000
0010
1000
0010
0000
0100
0000
,
0101
0000
0100
0001
0100
0000
0110
0000
1010
0000
1100
0000
0100
0000
0110
0000
,
0010
0011
0001
1001
0110
0110
0101
0101
,
0011
0000
0010
0100
1000
0000
1001
0000
0101
0000
0110
0000
0010
0000
1010
0000
,
1000
0000
1100
0000
0100
0000
0110
0000
0011
0000
0001
0010
0001
0000
0100
0000
,
0101
0000
0001
1000
0010
0000
0110
0000
1010
0000
1100
0000
1000
0000
1001
0000
,
0001
0000
0000
0101
0000
0000
0100
0000
0000
0110
0000
0000
1010
0000
1001
0000
0011
0000
1100
0000
0000
0000
0000
0000
,
1001
0000
0001
0000
0010
0000
0100
1000
0100
0000
0010
0001
0010
0000
0001
0000
,
0100
0000
0010
0100
0010
1000
0100
0000
0010
0000
0001
1000
0100
0000
1000
0000
,
0001
0000
0100
0000
0010
0000
1000
0010
1000
0000
0100
0010
0100
0000
0010
0000
,
0001
0000
0100
0010
1000
0010
0100
0001
0100
0000
0001
0010
0100
0000
1000
0000
,
0100
0000
1000
0000
0100
0000
0010
0001
0010
0000
0100
1000
0100
0000
1000
0000
,
0010
0000
0100
0010
0100
0010
1000
0000
0100
0000
0010
0001
0010
0000
0100
0000
,
1000
0000
0100
0000
0010
0000
0001
1000
0001
0000
0010
0001
0010
0000
0100
0000
,
1000
0000
0010
0100
0001
0010
0100
1000
0010
0000
0100
0010
1000
0000
0010
0000
,
0110
0000
0100
0001
0100
0000
0010
0000
0110
0000
0100
0000
0000
0000
0010
0000
,
1010
0000
1000
0100
0010
0000
0001
0000
0011
0000
0010
0000
0000
0000
0100
0000
,
1100
0000
1000
0001
0100
0000
0010
0000
0110
0000
0010
0000
0000
0000
0100
0000
,
0101
0000
0001
0010
0100
0000
0010
0000
0110
0000
0100
0000
1100
0000
1000
0000
,
1001
0000
0001
1000
0010
0000
0100
0000
0110
0000
0010
0000
0000
0000
0100
0000
,
0101
0000
0001
0010
0100
0000
1000
0000
1100
0000
0100
0000
0000
0000
0010
0000
,
0011
0000
0001
1000
0010
0000
0100
0000
0110
0000
0100
0000
0000
0000
0010
0000
,
1010
0000
1000
0100
0010
0000
0100
0000
0110
0000
0010
0000
0011
0000
0000
0000
,
1002
0000
0000
0000
0000
0000
0103
0001
0010
0100
1000
0010
,
0100
0001
0000
0010
0100
0000
1000
0010
0000
0100
0001
0010
0001
1000
0010
1000
,
0100
0010
0000
0100
1000
0000
0010
0100
0000
0001
1000
0001
0100
0010
1000
0100
,
0010
0100
0000
1000
0001
0000
0100
0010
0000
0100
0000
0001
0010
0000
0100
0000
,
1000
0001
0000
0010
0100
0000
1000
0001
0000
0001
0000
0010
0100
1000
0100
0010
,
0100
1000
0000
0100
0010
0000
0001
0100
0000
0010
1000
0100
1000
0001
0100
0001
,
0010
0100
0000
0010
0001
0000
0100
0010
0000
1000
0001
1000
0010
0100
0001
0010
,
0100
0010
0000
0001
1000
0000
0010
0100
0000
0010
0000
1000
0100
0000
0010
0000
,
0001
1000
0000
0100
0010
0000
0001
1000
0000
0010
0000
0100
0001
0010
0100
0000
,
1000
0010
0000
0100
0001
0100
0010
0000
1000
0100
0000
0010
0001
0000
0010
0100
,
1000
0001
0000
1000
0001
0100
0010
0000
1000
0100
0000
0000
0010
0000
0100
0000
,
0010
0001
0000
1000
0010
0100
0000
0000
0001
0100
0000
0000
0010
0000
1000
0000
,
0100
1000
0000
0100
0010
0100
0000
0000
0010
0001
0000
0000
0100
0000
0010
1000
,
0001
0010
0000
0100
1000
0001
0000
0000
0100
0010
0000
0000
1000
0000
0010
0100
,
0001
1000
0000
0100
0010
0001
0010
0000
0000
0000
0110
0000
1001
0000
0000
0000
,
0110
0000
0000
0000
;

//---------------dance-single - Challenge----------------
#NOTES:
     dance-single:
     Challenge:
     Challenge:
     12:
     1.000,1.000,1.000,0.008,1.000,871.000,258.000,1.000,0.000,0.000:
0000
0000
0000
0000
,
1010
0001
0000
0010
1001
0100
1010
0000
0011
0100
1001
0010
0000
0100
0011
0000
,
1100
0001
0000
0100
1001
0010
0101
0000
0110
0000
0011
1000
0100
0000
1010
0000
,
0110
1000
0000
0100
1001
0010
0101
0000
1100
0010
1001
0100
0000
0010
1100
0000
,
0101
1000
0000
0010
1001
0100
0011
0000
1100
0001
0100
0010
1001
0100
0010
0000
,
1010
0100
0000
0010
0100
0001
0010
0000
0001
0010
0000
0100
0000
0010
0101
0000
,
0110
0001
0000
0010
0000
0100
1000
0000
0100
0000
0000
0010
0001
0000
1000
0000
,
0101
0010
0000
0100
0000
1000
0010
0000
0100
0001
0000
0100
0000
0010
1001
0000
,
1010
0100
0000
0001
0000
0010
0101
0000
0110
0001
0010
0000
0101
1000
0100
0000
,
1010
0001
0000
0010
0101
0000
1000
0010
1001
0100
0001
0010
0101
1000
0010
1000
,
0101
0010
0000
0100
1010
0000
0010
0100
1010
0001
1000
0001
1100
0010
1000
0100
,
0011
0100
0000
1000
0101
0000
0100
0010
1001
0100
0000
0001
1010
0000
0100
0000
,
1010
0001
0000
0010
0101
0000
1000
0001
0110
0001
0000
0010
0101
1000
0100
0010
,
0101
1000
0000
0100
1010
0000
0001
0100
1001
0010
1000
0100
1010
0001
0100
0001
,
1010
0100
0000
0010
0101
0000
0100
0010
0101
1000
0001
1000
0011
0100
0001
0010
,
1100
0010
0000
0001
1010
0000
0010
0100
1001
0010
0000
1000
0101
0000
0010
0000
,
0011
1000
0000
0100
1010
0000
0001
1000
0101
0010
0000
0100
1001
0010
0100
0000
,
1100
0010
0000
0100
0011
0100
0010
0000
1001
0100
0000
0010
0101
0000
0010
0100
,
1010
0001
0000
1000
0011
0100
0010
0000
1001
0100
0000
0000
1010
0000
0100
0000
,
0110
0001
0000
1000
0011
0100
0000
0000
0011
0100
0000
0000
0110
0000
1000
0000
,
0101
1000
0000
0100
1010
0100
0000
0000
0110
0001
0000
0000
0101
0000
0010
1000
,
0101
0010
0000
0100
0010
0001
0000
0000
0101
0010
0000
0000
0100
0000
0010
0100
,
0011
1000
0000
0100
1010
0001
1100
0000
0000
0000
1010
0000
0110
0000
0000
0000
,
0110
0000
0001
0000
0100
0000
0001
0000
1100
0000
0010
0000
0000
0000
0100
0000
1010
0000
0001
0000
1000
0000
0001
0000
0110
0000
1000
0100
0010
0001
0100
0000
,
1001
0000
0010
0000
0001
0000
0010
0000
1001
0000
0100
0000
1000
0000
0100
0000
1001
0000
0010
0000
0100
0000
0001
0000
1100
0001
0010
0100
1000
0000
0100
0000
,
1010
0000
0001
0000
0010
0000
0001
0000
0110
0000
1000
0000
0000
0000
0010
0001
1100
0000
0001
0000
0100
0000
0001
0000
0110
0000
1000
0000
0100
0000
0010
1000
,
0101
0000
1000
0000
0100
0000
1000
0000
0011
0000
0100
0000
0001
0000
1000
0001
0110
0000
0000
0000
0100
0000
0001
1000
0110
0000
0001
0100
0010
0000
0100
0000
,
1010
0000
0001
0000
1000
0000
0001
0000
1010
0000
0100
0000
0000
0000
0010
0000
1001
0000
0100
0000
1000
0000
0100
0000
1001
0000
0010
0001
0100
0010
1000
0000
,
0011
0000
1000
0000
0001
0000
1000
0000
0110
0000
0001
0000
0100
0000
0001
0000
1100
0000
0010
0000
1000
0000
0001
0000
1010
0001
0100
0010
1000
0000
0001
0000
,
0110
0000
0001
0000
1000
0000
0001
0000
1010
0000
0100
0000
0000
0000
0010
0100
1001
0000
0100
0000
1000
0000
0100
0000
1001
0000
0010
0000
0100
0000
0010
1000
,
0101
0000
1000
0000
0010
0000
0100
0000
0011
0000
1000
0000
0100
0000
0010
0001
1100
0000
0000
0000
0010
0000
0001
0100
1010
0000
0001
0100
0010
0000
1000
0000
,
0110
0000
1000
0000
0100
0000
0010
0000
1001
0000
0100
0000
0000
0000
0010
0000
0101
0000
1000
0000
0001
0000
1000
0000
0110
0000
0001
0010
0100
1000
0010
0000
,
1001
0000
0100
0000
1000
0000
0100
0000
1001
0000
0010
0000
0001
0000
0010
0000
1001
0000
0100
0000
0010
0000
1000
0000
0011
1000
0100
0010
0001
0000
0010
0000
,
0101
0000
1000
0000
0100
0000
1000
0000
0110
0000
0001
0000
0000
0000
0100
1000
0011
0000
1000
0000
0010
0000
1000
0000
0110
0000
0001
0000
0010
0000
0100
0001
,
1010
0000
0001
0000
0010
0000
0001
0000
1100
0000
0010
0000
1000
0000
0001
1000
0110
0000
0000
0000
1000
0000
0001
1000
0110
0000
1000
0100
0010
0000
0100
0000
,
0011
0000
1000
0000
0001
0000
1000
0000
0101
0000
0010
0000
0000
0000
0100
0000
1001
0000
0010
0000
0001
0000
0010
0000
1001
0000
0100
1000
0010
0100
0001
0000
,
1100
0000
0001
0000
1000
0000
0001
0000
0110
0000
1000
0000
0010
0000
1000
0000
0011
0000
0100
0000
0001
0000
1000
0000
0101
1000
0010
0100
0001
0000
1000
0000
,
0110
0000
1000
0000
0001
0000
1000
0000
0101
0000
0010
0000
0000
0000
0100
0010
1001
0000
0010
0000
0001
0000
0010
0000
1001
0000
0100
0000
0010
0000
0100
0001
,
1010
0000
0001
0000
0100
0000
0010
0000
1100
0000
0001
0000
0010
0000
0100
1000
0011
0000
0000
0000
0100
0000
1000
0010
0101
0000
1000
0010
0100
0000
0010
0000
,
0101
0000
0000
0000
1000
0000
0000
0000
0100
0000
0000
0000
0010
0001
0100
0010
1000
0000
0000
0000
0100
0000
1000
0000
0100
0000
0000
0000
1000
0000
0000
0000
,
0010
0000
0000
0000
0100
0010
1000
0001
0100
0000
0010
0000
1000
0000
0000
0000
0100
0000
0000
0000
1000
0000
0001
0000
0010
0000
0000
0000
0001
0000
0000
0000
,
1000
0000
0000
0000
0010
0000
0000
0000
0100
0000
0000
0000
0001
1000
0100
0010
0001
0000
0000
0000
0010
0000
0100
0000
0010
0000
0000
0000
0100
0000
0000
0000
,
1000
0000
0000
0000
0010
0100
0001
1000
0100
0000
0010
0000
0001
1000
0010
0000
0100
0000
0000
0000
0010
0000
0001
0000
0100
0000
0000
0000
0001
0000
0000
0000
,
0100
0000
0000
0000
0001
0000
0000
0000
0010
0000
0000
0000
0100
1000
0010
0100
0001
0000
0000
0000
0010
0000
0001
0000
0010
0000
0000
0000
0001
0000
0000
0000
,
0100
0000
0000
0000
0010
0100
0001
1000
0010
0000
0100
0000
0001
0000
0000
0000
0010
0000
0000
0000
0001
0000
1000
0000
0100
0000
0000
0000
1000
0000
0000
0000
,
0001
0000
0000
0000
0100
0000
0000
0000
0010
0000
0000
0000
1000
0001
0010
0100
1000
0000
0000
0000
0100
0000
0010
0000
0100
0000
0000
0000
0010
0000
0000
0000
,
0001
0000
0000
0000
0100
0010
1000
0001
0010
0000
0100
0000
1000
0001
0100
0000
0010
0000
0000
0000
0100
0000
1000
0000
0010
0000
0000
0000
1000
0000
0000
0000
,
0110
0000
0010
1000
0011
0000
0101
0000
0110
0000
1010
0000
0000
0000
0110
0000
,
0101
0000
0001
0010
0101
0000
1010
0000
1100
0000
0101
0000
0000
0000
0110
0000
,
0011
0000
0001
1000
0110
0000
1100
0000
0110
0000
0101
0000
0000
0000
0110
0000
,
1010
0000
1000
0100
0011
0000
1100
0000
0110
0000
0110
0000
0011
0000
0001
0000
,
1001
0000
1000
0001
1100
0000
0011
0000
0110
0000
1100
0000
0000
0000
0011
0000
,
1010
0000
1000
0100
1010
0000
0101
0000
0011
0000
1010
0000
0101
0000
0110
0000
,
1100
0000
1000
0001
0110
0000
1010
0000
0110
0000
0011
0000
0000
0000
0110
0000
,
0101
0000
0001
0010
0101
0000
1010
0000
0110
0000
0101
0000
1100
0000
0000
0000
,
2001
0000
0000
0000
0000
0000
3001
0010
0100
1000
0001
0010
,
0101
1000
0000
0100
1010
0000
0001
0100
1001
0010
1000
0100
1010
0001
0100
0001
,
1010
0100
0000
0010
0101
0000
0100
0010
0101
1000
0001
1000
0011
0100
0001
0010
,
1100
0010
0000
0001
1010
0000
0010
0100
1001
0010
0000
1000
0101
0000
0010
0000
,
0101
1000
0000
0100
1010
0000
0001
1000
0110
1000
0000
0100
1010
0001
0010
0100
,
1010
0001
0000
0010
0101
0000
1000
0010
1001
0100
0001
0010
0101
1000
0010
1000
,
0101
0010
0000
0100
1010
0000
0010
0100
1010
0001
1000
0001
1100
0010
1000
0100
,
0011
0100
0000
1000
0101
0000
0100
0010
1001
0100
0000
0001
1010
0000
0100
0000
,
1100
0001
0000
0010
0101
0000
1000
0001
1010
0100
0000
0010
1001
0100
0010
0000
,
0011
0100
0000
0010
1100
0010
0100
0000
1001
0010
0000
0100
1010
0000
0100
0010
,
0101
1000
0000
0001
1100
0010
0100
0000
1001
0010
0000
0000
0101
0000
0010
0000
,
0110
1000
0000
0001
1100
0010
0000
0000
1100
0010
0000
0000
0110
0000
0001
0000
,
1010
0001
0000
0010
0101
0010
0000
0000
0110
1000
0000
0000
1010
0000
0100
0001
,
1010
0100
0000
0010
0100
1000
0000
0000
1010
0100
0000
0000
0010
0000
0100
0010
,
1100
0001
0000
0010
0101
1000
0011
0000
0000
0000
0101
0000
0110
0000
0000
0000
,
1001
0000
0000
0000
;
