#TITLE:Bullshit;
#SUBTITLE:;
#ARTIST:Mindless Self Indulgence;
#TITLETRANSLIT:;
#SUBTITLETRANSLIT:;
#ARTISTTRANSLIT:;
#CREDIT:;
#BANNER:BS-Banner.jpg;
#BACKGROUND:BS-Background.jpg;
#LYRICSPATH:;
#CDTITLE:cdtitle.jpg;
#MUSIC:Bullshit.mp3;
#OFFSET:-0.300;
#SAMPLESTART:22.349;
#SAMPLELENGTH:9.940;
#SELECTABLE:YES;
#BPMS:0.000=106.000,24.000=212.000,56.000=106.000,80.000=212.000,96.000=106.000,104.000=212.000,160.000=106.000,208.000=212.000;
#STOPS:;
#BGCHANGES:;
// cache tags:
#FIRSTBEAT:0.000;
#LASTBEAT:264.000;
#SONGFILENAME:Songs/Essential Sim Collection/(DTM) Bullshit/Bullshit.sm;
#HASMUSIC:1;
#HASBANNER:1;
#MUSICLENGTH:104.620;
// end cache tags

//---------------dance-single - Copied from----------------
#NOTES:
     dance-single:
     Copied from:
     Edit:
     13:
     1.000,1.000,1.000,0.325,1.000,952.000,127.000,34.000,0.000,0.000:
1000
0100
0010
0100
0001
0010
0100
0001
,
1000
0000
0000
0000
0000
0000
0000
0000
0100
0000
0000
0000
0000
0000
0000
0000
0010
0000
0000
0000
0000
0000
0000
0000
0100
0000
0000
0000
0000
0000
0000
0000
0010
0000
0000
0000
0000
0000
0000
0000
0001
0000
0000
0000
0000
0000
0000
0000
1000
0000
0000
0000
0000
0000
0000
1000
0100
0010
0001
1000
0100
0010
0001
1000
,
0100
0000
0010
0000
0000
0000
0010
0000
0101
0000
0000
0000
1000
0000
0010
0000
1000
0000
0100
0000
0000
0000
0100
0000
1010
0000
0001
0100
0001
0000
1000
0000
,
0100
0000
0010
0000
0000
0000
0001
0000
1010
0000
0000
0000
1000
0000
0100
0000
0010
0000
0001
0000
0000
0000
0010
0000
1100
0000
0001
0100
0010
0000
0100
0000
,
0010
0000
0100
0000
0000
0000
0100
0000
1010
0000
0000
0000
0001
0000
0100
0000
0001
0000
0010
0000
0000
0000
0010
0000
0101
0000
1000
0010
1000
0000
0001
0000
,
0010
0100
0000
1000
0101
0000
0001
0010
0100
1000
0000
0100
1010
0000
1000
0100
,
1000
0010
0100
0001
1000
0001
0100
0010
1000
0001
0100
0010
1000
0001
1000
0100
,
0010
0000
0001
0000
1000
0000
0001
0000
0010
0000
0100
0000
1000
0000
0001
0000
0220
0000
0000
0000
0000
0000
0330
0000
0001
0010
0100
1000
0001
0010
0100
1000
,
0010
0100
0010
1000
0001
1000
0010
0100
0001
1000
0010
0100
0001
1000
0001
0010
,
0100
0000
1000
0000
0001
0000
1000
0000
0100
0000
0010
0000
0001
0000
1000
0000
0220
0000
0000
0000
0000
0000
0330
0000
1000
0100
0010
0001
1000
0100
0010
0001
,
1000
0100
1000
0010
0100
0001
0100
0010
1000
0001
0100
0010
1000
0001
1000
0001
,
0010
0000
0100
0000
1000
0000
0001
0000
0100
0000
0010
0000
1000
0000
0010
0000
0202
0000
0000
0000
0000
0000
0303
0000
1000
0100
0010
0001
1000
0100
0010
0001
,
1000
0010
0001
0100
0010
1000
0010
0100
0001
1000
0010
0100
0001
1000
0001
1000
,
0100
0010
0001
1000
0010
0100
0001
0100
0010
0000
0000
0000
0100
0000
0000
0000
,
1000
0100
1000
0010
0101
0010
0000
0001
1010
0001
0100
0010
1100
0010
0000
0100
,
1010
0100
0010
0001
0110
1000
0000
0100
1010
0001
0010
0001
1010
0100
0010
0001
,
1000
0000
0000
0000
0001
0000
0000
0000
1000
0000
0000
0000
0001
0000
0000
0000
0020
0000
0000
0000
0030
0000
0000
0000
1000
0000
0100
0010
0001
1000
0100
0010
0001
0000
0000
0000
0010
0000
0000
0000
0100
0000
0000
0000
1000
0000
0000
0000
0110
0000
0000
0000
0001
0000
0000
0000
0000
0000
0000
0000
0010
0000
0000
0000
,
0101
0000
1000
0000
0100
0000
0010
0000
0101
0000
0010
0000
0000
0000
0100
0000
1000
0010
1000
0010
1000
0000
0000
0000
0100
0001
0100
0001
0100
0000
0000
0000
,
1000
0100
0010
0001
0110
1000
0000
0100
1000
0100
0010
0001
0110
1000
0000
0001
,
0010
0100
0010
0001
0110
1000
0000
0000
1001
0010
0101
1000
0101
0010
1100
0001
,
1000
0100
0010
0001
1000
0010
0100
0001
0100
0010
1000
0001
0100
0001
0010
0001
,
0100
0010
0100
0001
1000
0001
0010
0100
2020
0000
0000
0000
0000
0000
3030
0000
,
0001
1000
0001
1000
0010
0100
0001
1000
0100
1000
0010
0100
0001
1000
0100
0010
,
0001
1000
0010
0100
0010
0000
1000
0000
0001
0000
0110
0000
0110
0000
0110
0000
,
1010
0100
0010
0100
1010
0100
0000
0001
1010
0100
0001
0010
0101
0010
0000
1000
,
0100
0010
0202
0303
2020
3030
0000
0100
1010
0100
1010
0000
0101
0000
0110
0000
,
1001
0000
1000
0100
1001
0000
0010
0000
0010
0000
1100
0000
0001
0000
0001
0000
,
0110
0001
0110
0000
2002
0000
3003
0000
,
1010
0000
0101
0010
0101
0000
1000
0000
1000
0000
0101
0000
0010
0000
0010
0000
,
0101
1000
0101
0000
2020
0000
0000
3030
,
0101
0000
1010
0100
1010
0000
0001
0000
0001
0000
1010
0000
0100
0000
0100
0000
,
0011
0000
0100
0000
0011
0000
0000
0000
2001
0000
0000
0000
0010
0000
0001
3000
,
1000
0100
0010
0100
1000
0001
0100
0001
1000
0010
0100
0010
1000
0100
0010
0001
,
0010
0000
0100
0000
0010
0000
0001
0000
1000
0000
0010
0000
0100
0000
0001
0000
2020
0000
0000
0000
0000
0000
3030
0000
1000
0100
0010
0001
1000
0100
0010
0001
,
1000
0001
1000
0001
0100
0010
0100
0010
1000
0001
0010
0100
1000
0010
0100
0001
,
1000
0000
0100
0000
1000
0000
0001
0000
0100
0000
0001
0000
1000
0000
0010
0000
0202
0000
0000
0000
0000
0000
0303
0000
0001
0010
0100
1000
0001
0010
0100
1000
,
0001
1000
0010
0100
0001
0010
0100
1000
0001
0100
0010
0100
0001
0010
0100
0010
,
0001
0000
1000
0000
0001
0000
0100
0000
0010
0000
1000
0000
0001
0000
0100
0000
2020
0000
0000
0000
0000
0000
3030
0000
0001
0010
0100
1000
0001
0010
0100
1000
,
0001
0010
0100
1000
0001
0100
0001
0100
0010
1000
0010
1000
0001
0010
0100
0010
,
0001
1000
0001
1000
0010
0000
0100
0000
2002
0000
0000
0000
3003
0000
0100
0000
,
1010
0100
0010
0001
1010
0100
0010
0100
1001
0010
0001
0010
1001
0100
0000
0010
,
0101
0010
0001
0100
1010
0100
0000
1000
0101
0010
0001
0100
1010
0100
0010
0001
,
1010
0000
0100
0000
1000
0000
0100
0000
1000
0100
0010
0001
1000
0010
0100
0001
1000
0001
1000
0001
0010
0100
1000
0001
0100
0010
1000
0001
1000
0100
0010
0001
,
1000
0010
0100
0001
1000
0100
0010
0001
1000
0000
0000
0000
0000
0000
0000
0000
1001
0000
0100
0010
0100
0000
0010
0000
1001
0000
0010
0100
0010
0000
0100
0000
,
1001
0100
0010
0001
1010
0100
0000
0010
1100
0010
0001
0010
0101
0010
0000
0100
,
1010
0000
0000
0000
0100
0000
0000
0000
0010
0000
0000
0000
0100
0000
0000
0000
1001
0000
0000
0000
0100
0000
0000
0000
0100
0000
0000
0000
0100
0000
0000
0000
1010
0000
0000
0000
0010
0000
0000
0000
1001
0000
0000
0000
0100
0000
0000
0000
0011
0000
0000
0000
0100
0000
0000
0000
0110
0000
0000
0000
0000
1000
0100
0010
,
1001
0100
0010
0001
1010
0100
1010
0001
0110
1000
0100
0010
0101
0010
0101
0010
,
1100
0010
0001
0010
1100
0010
1100
0010
1100
0110
0011
0110
1100
0000
0020
0030
,
2010
0000
0000
0000
0000
0000
0000
0000
0100
0000
0000
0000
0010
0000
0000
0000
0000
0000
0000
0000
3000
0000
0000
0000
0001
0000
0000
0000
0001
0000
0000
0000
0001
0000
0000
0000
0010
0000
0000
0000
0000
0000
0000
0000
1000
0000
0000
0000
0100
0010
0001
1000
0100
0010
0001
1000
0100
0010
0001
1000
0100
0010
0001
1000
,
0100
0000
0000
0000
0010
0000
0000
0000
0000
0000
0000
0000
0000
0000
0000
0000
0010
0000
0000
0000
0001
0000
0000
0000
0100
0000
0000
0000
0100
0000
0000
0000
0100
0000
0000
0000
1000
0000
0000
0000
0000
0000
0000
0000
1000
0000
0000
0000
1000
0100
0010
0001
1000
0100
0010
0001
1000
0100
0010
0001
1000
0100
0010
0001
,
1000
0000
0000
0000
0000
0000
0000
0000
0100
0000
0000
0000
0010
0000
0000
0000
0000
0000
0000
0000
0000
0000
0000
0000
0001
0000
0000
0000
0001
0000
0000
0000
0001
0000
0000
0000
1000
0000
0000
0000
0000
0000
0000
0000
0010
0000
0000
0000
0001
0010
0100
1000
0001
0010
0100
1000
0001
0010
0100
1000
0001
0010
0100
1000
,
0001
0000
0001
0000
0010
0000
0100
0100
0100
1000
0000
0100
2010
0100
0010
3000
,
1001
0000
0001
0010
1001
0000
0100
0000
0100
0000
0011
0000
1000
0000
1000
0000
,
0110
1000
0110
0000
2002
0000
3003
0000
,
0101
0000
1010
0100
1010
0000
0001
0000
0001
0000
1010
0000
0100
0000
0100
0000
,
1010
0001
1010
0000
0202
0000
0000
0303
,
1010
0000
0101
0010
0101
0000
1000
0000
1000
0000
0101
0000
0010
0000
0010
0000
,
1100
0000
0010
0000
1100
0000
0000
0000
1002
0000
0000
0000
0100
0000
1000
0003
,
0001
1000
0001
1000
0001
0100
0001
0100
0010
1000
0010
1000
0100
1000
0100
1000
,
0001
0000
1000
0000
0100
0000
0010
0000
0001
0000
0100
0000
0010
0000
1000
0000
0100
0010
0001
1000
0100
0010
0001
1000
0100
0010
0001
1000
0100
0010
0001
1000
,
0100
0010
0100
0010
0001
1000
0001
1000
0010
0100
0010
0100
0001
1000
0010
0100
,
0001
0000
1000
0000
0100
0000
0010
0000
0001
0000
1000
0000
0010
0000
0100
0000
0001
0010
0100
1000
0001
0010
0100
1000
0001
0010
0100
1000
0001
0010
0100
1000
,
0001
0100
0010
1000
0001
0010
0100
1000
0001
0100
0010
1000
0001
1000
0001
1000
,
0010
0000
0100
0000
0001
0000
1000
0000
0100
0000
0010
0000
0001
0000
1000
0000
0100
0010
0001
1000
0100
0010
0001
1000
0100
0010
0001
1000
0100
0010
0001
1000
,
0100
0010
0001
1000
0001
1000
0010
0100
0001
0010
0100
1000
0100
0010
0001
0100
,
1010
0000
0000
1010
0000
0000
0101
0000
0000
1010
0000
0000
1000
0100
0010
0001
1000
0100
0010
0001
1000
0100
0010
0001
,
1000
0000
0000
0000
;

//---------------dance-single - Oni----------------
#NOTES:
     dance-single:
     Oni:
     Challenge:
     12:
     1.000,1.000,1.000,0.325,1.000,864.000,128.000,34.000,0.000,0.000:
1000
0100
0010
0100
0001
0010
0100
0001
,
1000
0000
0000
0000
0100
0000
0000
0000
0010
0000
0000
0000
0100
0000
0000
0000
0010
0000
0000
0000
0001
0000
0000
0000
1000
0000
0000
0000
1000
0001
1000
0001
,
0010
0000
0010
0000
0000
0000
0010
0000
0101
0000
0000
0000
1000
0000
0010
0000
1000
0000
0100
0000
0000
0000
0100
0000
1010
0000
0001
0100
0001
0000
1000
0000
,
0100
0000
0010
0000
0000
0000
0001
0000
1010
0000
0000
0000
1000
0000
0100
0000
0010
0000
0001
0000
0000
0000
0010
0000
1100
0000
0001
0100
0010
0000
0100
0000
,
0010
0000
0100
0000
0000
0000
0100
0000
1010
0000
0000
0000
0001
0000
0100
0000
0001
0000
0010
0000
0000
0000
0010
0000
0101
0000
1000
0010
1000
0000
0001
0000
,
0010
0100
0000
1000
0101
0000
0001
0010
0100
1000
0000
0100
1010
0000
1000
0100
,
1000
0010
0100
0001
1000
0001
0100
0010
1000
0001
0100
0010
1000
0001
1000
0100
,
0010
0001
1000
0001
0010
0100
1000
0001
0220
0000
0000
0330
0001
1000
0001
1000
,
0010
0100
0010
1000
0001
1000
0010
0100
0001
1000
0010
0100
0001
1000
0001
0010
,
0100
1000
0001
1000
0100
0010
0001
1000
0220
0000
0000
0330
1000
0001
1000
0001
,
1000
0100
1000
0010
0100
0001
0100
0010
1000
0001
0100
0010
1000
0001
1000
0001
,
0010
0100
1000
0001
0100
0010
1000
0010
0202
0000
0000
0303
1000
0001
1000
0001
,
1000
0010
1000
0100
0010
1000
0010
0100
0001
1000
0010
0100
0001
1000
0001
1000
,
0100
0010
0001
1000
0010
0100
0001
0100
0010
0000
0000
0000
0100
0000
0000
0000
,
1000
0100
1000
0010
0101
0010
0000
0001
1010
0001
0100
0010
1100
0010
0000
0100
,
1010
0100
0010
0001
0110
1000
0000
0100
1010
0001
0010
0001
1010
0100
0010
0001
,
1000
0000
0001
0000
1000
0000
0001
0000
0020
0000
0030
0000
1000
0100
0010
0001
1000
0000
0010
0000
0100
0000
1000
0000
0110
0000
0001
0000
0000
0000
0010
0000
,
0101
0000
1000
0000
0100
0000
0010
0000
0101
0000
0010
0000
0000
0000
0100
0000
1000
0010
1000
0010
1000
0000
0000
0000
0100
0001
0100
0001
0100
0000
0000
0000
,
1000
0100
0010
0001
0110
1000
0000
0100
1000
0100
0010
0001
0110
1000
0000
0001
,
0010
0100
0010
0001
0110
1000
0000
0000
1001
0010
0101
1000
0101
0010
1100
0001
,
1000
0100
0010
0001
1000
0010
0100
0001
0100
0010
1000
0001
0100
0001
0010
0001
,
0100
0010
0100
0001
1000
0001
0010
0100
2020
0000
0000
0000
0000
0000
3030
0000
,
0001
1000
0001
1000
0010
0100
0001
1000
0100
1000
0010
0100
0001
1000
0100
0010
,
0001
1000
0010
0100
0010
0000
1000
0000
0001
0000
0110
0000
0110
0000
0110
0000
,
1010
0100
0010
0100
1010
0100
0000
0001
1010
0100
0001
0010
0101
0010
0000
1000
,
0100
0010
0202
0303
2020
3030
0000
0100
1010
0100
1010
0000
0101
0000
0110
0000
,
1001
0000
1000
0100
1001
0000
0010
0000
0010
0000
1100
0000
0001
0000
0001
0000
,
0110
0001
0110
0000
2002
0000
3003
0000
,
1010
0000
0101
0010
0101
0000
1000
0000
1000
0000
0101
0000
0010
0000
0010
0000
,
0101
1000
0101
0000
2020
0000
0000
3030
,
0101
0000
1010
0100
1010
0000
0001
0000
0001
0000
1010
0000
0100
0000
0100
0000
,
0011
0000
0100
0000
0011
0000
0000
0000
2001
0000
0000
0000
0010
0000
0001
3000
,
1000
0100
0010
0100
1000
0001
0100
0001
1000
0010
0100
0010
1000
0100
0010
0001
,
0010
0100
0010
0001
1000
0010
0100
0001
2020
0000
0000
3030
1000
0010
1000
0010
,
1000
0001
1000
0001
0100
0010
0100
0010
1000
0001
0010
0100
1000
0010
0100
0001
,
1000
0100
1000
0001
0100
0001
1000
0010
0202
0000
0000
0303
0001
0100
0001
0100
,
0001
1000
0010
0100
0001
0010
0100
1000
0001
0100
0010
0100
0001
0010
0100
0010
,
0001
1000
0001
0100
0010
1000
0001
0100
2020
0000
0000
3030
0001
0100
0001
0100
,
0001
0010
0100
1000
0001
0100
0001
0100
0010
1000
0010
1000
0001
0010
0100
0010
,
0001
1000
0001
1000
0010
0000
0100
0000
2002
0000
0000
0000
3003
0000
0100
0000
,
1010
0100
0010
0001
1010
0100
0010
0100
1001
0010
0001
0010
1001
0100
0000
0010
,
0101
0010
0001
0100
1010
0100
0000
1000
0101
0010
0001
0100
1010
0100
0010
0001
,
1010
0000
0100
0000
1000
0000
0100
0000
1000
0100
0010
0001
1000
0010
0100
0001
1000
0001
1000
0001
0010
0100
1000
0001
0100
0010
1000
0001
1000
0100
0010
0001
,
1000
0010
0100
0001
1000
0100
0010
0001
1000
0000
0000
0000
0000
0000
0000
0000
1001
0000
0100
0010
0100
0000
0010
0000
1001
0000
0010
0100
0010
0000
0100
0000
,
1001
0100
0010
0001
1010
0100
0000
0010
1100
0010
0001
0010
0101
0010
0000
0100
,
1010
0100
0010
0100
1001
0100
0100
0100
1010
0010
1001
0100
0011
0100
0110
0100
,
1001
0100
0010
0001
1010
0100
1010
0001
0110
1000
0100
0010
0101
0010
0101
0010
,
1100
0010
0001
0010
1100
0010
1100
0010
1100
0110
0011
0110
1100
0000
0020
0030
,
2010
0000
0000
0000
0100
0000
0010
0000
0000
0000
3000
0000
0001
0000
0001
0000
0001
0000
0010
0000
0000
0000
1000
0000
1000
0100
0010
0001
1000
0100
0010
0001
,
1000
0000
0010
0000
0000
0000
0000
0000
0010
0000
0001
0000
0100
0000
0100
0000
0100
0000
1000
0000
0000
0000
1000
0000
0001
0010
0100
1000
0001
0010
0100
1000
,
0001
0000
0000
0000
0100
0000
0010
0000
0000
0000
0000
0000
0001
0000
0001
0000
0001
0000
1000
0000
0000
0000
0010
0000
1000
0100
0010
0001
1000
0100
0010
0001
,
1000
0000
0001
0000
0010
0000
0100
0100
0100
1000
0000
0100
2010
0100
0010
3000
,
1001
0000
0001
0010
1001
0000
0100
0000
0100
0000
0011
0000
1000
0000
1000
0000
,
0110
1000
0110
0000
2002
0000
3003
0000
,
0101
0000
1010
0100
1010
0000
0001
0000
0001
0000
1010
0000
0100
0000
0100
0000
,
1010
0001
1010
0000
0202
0000
0000
0303
,
1010
0000
0101
0010
0101
0000
1000
0000
1000
0000
0101
0000
0010
0000
0010
0000
,
1100
0000
0010
0000
1100
0000
0000
0000
1002
0000
0000
0000
0100
0000
1000
0003
,
0001
1000
0001
1000
0001
0100
0001
0100
0010
1000
0010
1000
0100
1000
0100
1000
,
0001
1000
0100
0010
0001
0100
0010
1000
0100
1000
0100
0010
0001
1000
0100
1000
,
0100
0010
0100
0010
0001
1000
0001
1000
0010
0100
0010
0100
0001
1000
0010
0100
,
0001
1000
0100
0010
0001
1000
0010
0100
0001
1000
0001
0100
0010
0100
0001
1000
,
0001
0100
0010
1000
0001
0010
0100
1000
0001
0100
0010
1000
0001
1000
0001
1000
,
0010
0100
0001
1000
0100
0010
0001
1000
0100
1000
0100
0010
0001
1000
0100
1000
,
0100
0010
0001
1000
0001
1000
0010
0100
0001
0010
0100
1000
0100
0010
0001
0100
,
1010
0000
0000
1010
0000
0000
0101
0000
0000
1010
0000
0000
1000
0000
0100
0000
0010
0000
0001
0000
0010
0000
0100
0000
,
1001
0000
0000
0000
;

//---------------dance-single - Hard----------------
#NOTES:
     dance-single:
     Hard:
     Hard:
     11:
     1.000,1.000,0.583,0.401,1.000,779.000,61.000,42.000,0.000,0.000:
1000
0100
0010
0100
0001
0010
0100
0001
,
1000
0000
0000
0000
0100
0000
0000
0000
0010
0000
0000
0000
0100
0000
0000
0000
0010
0000
0000
0000
0001
0000
0000
0000
1000
0000
0000
0000
1000
0001
1000
0001
,
0010
0000
0010
0000
0000
0000
0010
0000
0101
0000
0000
0000
1000
0000
0010
0000
1000
0000
0100
0000
0000
0000
0100
0000
0010
0000
0001
0100
0001
0000
1000
0000
,
0100
0000
0010
0000
0000
0000
0001
0000
1010
0000
0000
0000
1000
0000
0100
0000
0010
0000
0001
0000
0000
0000
0010
0000
0100
0000
1000
0100
0010
0000
0100
0000
,
0010
0000
0100
0000
0000
0000
0100
0000
1010
0000
0000
0000
0001
0000
0100
0000
0001
0000
0010
0000
0000
0000
0010
0000
0001
0000
1000
0010
1000
0000
0001
0000
,
0010
0100
0000
1000
0101
0000
0001
0010
0100
1000
0000
0100
1010
0000
1000
0100
,
1000
0010
0100
0001
1000
0001
0100
0010
1000
0001
0100
0010
1000
0001
1000
0100
,
0010
0001
1000
0001
0010
0100
1000
0001
0220
0000
0000
0330
0000
0000
0000
0000
,
0010
0100
0010
1000
0001
1000
0010
0100
0001
1000
0010
0100
0001
1000
0001
0010
,
0100
1000
0001
1000
0100
0010
0001
1000
0220
0000
0000
0330
0000
0000
0000
0000
,
1000
0100
1000
0010
0100
0001
0100
0010
1000
0001
0100
0010
1000
0001
1000
0001
,
0010
0100
1000
0001
0100
0010
1000
0010
0202
0000
0000
0303
0000
0000
0000
0000
,
1000
0010
1000
0100
0010
1000
0010
0100
0001
1000
0010
0100
0001
1000
0001
1000
,
0100
0010
0001
1000
0010
0100
0001
0100
0010
0000
0000
0000
0100
0000
0000
0000
,
1000
0100
1000
0010
0100
0001
0000
0001
0010
0001
0100
0010
1000
0010
0000
0100
,
0010
0100
0010
1000
0110
1000
0000
0100
0010
0001
0010
0001
1000
0100
0010
0001
,
1000
0001
1000
0001
0020
0000
0030
0000
1000
0010
0100
0001
0100
0001
0000
0010
,
0100
0000
1000
0000
0100
0000
0010
0000
0100
0000
0010
0000
0000
0000
0100
0000
1000
0010
1000
0010
1000
0000
0000
0000
0100
0001
0100
0001
0100
0000
0000
0000
,
1000
0100
0010
0001
0010
0100
0000
0100
1000
0100
0010
0001
0100
0001
0000
0001
,
0010
0100
0010
0001
0010
0100
0000
0000
1000
0001
0010
0100
0010
0100
1000
0001
,
1000
0100
0010
0001
1000
0010
0100
0001
0100
0010
1000
0001
0100
0001
0010
0001
,
0100
0010
0100
0001
1000
0001
0010
0100
2020
0000
0000
0000
0000
0000
3030
0000
,
0001
1000
0001
1000
0010
0100
0001
1000
0100
1000
0010
0100
0001
1000
0100
0010
,
0001
1000
0010
0100
0010
0000
1000
0000
0001
0000
0110
0000
0110
0000
0110
0000
,
1000
0100
0010
0100
1000
0010
0000
1000
0010
0100
0001
0010
0100
0010
0000
0001
,
0100
0010
0202
0303
2020
3030
0000
0100
0010
0100
0010
0000
0101
0000
0110
0000
,
1001
0000
1000
0100
1000
0000
0010
0000
0010
0000
1100
0000
0001
0000
0001
0000
,
0110
0001
0110
0000
2002
0000
3003
0000
,
1010
0000
0100
0010
0100
0000
1000
0000
1000
0000
0101
0000
0010
0000
0010
0000
,
0101
1000
0101
0000
2020
0000
0000
3030
,
0101
0000
1000
0100
1000
0000
0001
0000
0001
0000
1010
0000
0100
0000
0100
0000
,
0011
0000
0100
0000
0011
0000
0000
0000
2001
0000
0000
0000
0010
0000
0001
3000
,
1000
0100
0010
0100
1000
0001
0100
0001
1000
0010
0100
0010
1000
0100
0010
0001
,
0010
0100
0010
0001
1000
0010
0100
0001
2020
0000
0000
3030
0000
0000
0000
0000
,
1000
0001
1000
0001
0100
0010
0100
0010
1000
0001
0010
0100
1000
0010
0100
0001
,
1000
0100
1000
0001
0100
0001
1000
0010
0202
0000
0000
0303
0000
0000
0000
0000
,
0001
1000
0010
0100
0001
0010
0100
1000
0001
0100
0010
0100
0001
0010
0100
0010
,
0001
1000
0001
0100
0010
1000
0001
0100
2020
0000
0000
3030
0000
0000
0000
0000
,
0001
0010
0100
1000
0001
0100
0001
0100
0010
1000
0010
1000
0001
0010
0100
0010
,
0001
1000
0001
1000
0010
0000
0100
0000
2002
0000
0000
0000
3003
0000
0100
0000
,
1000
0100
0010
0001
0010
0100
0010
0100
1000
0001
1000
0001
1000
0100
0000
0010
,
0001
0010
0001
0100
0010
0100
0000
0001
0100
0010
1000
0100
1000
0100
0010
0001
,
1000
0100
1000
0100
1000
0010
0000
1000
0100
0010
0100
0010
0001
0010
0000
0001
,
1000
0000
0001
0000
0010
0000
0100
0000
1000
0000
0000
0000
0000
0000
0000
0000
1000
0000
0100
0010
0100
0000
0010
0000
0001
0000
0010
0100
0010
0000
0100
0000
,
1000
0100
0010
0001
0010
0100
0000
0010
0100
0010
0001
0010
0100
0010
0000
0100
,
1000
0100
0010
0100
1000
0100
0100
0100
1000
0010
1000
0100
0010
0100
0010
0100
,
1000
0100
0010
0001
0010
0100
1000
0001
0010
0001
0100
0010
1000
0001
0100
0010
,
0100
0010
1000
0010
0100
0001
1000
0010
0100
0001
1000
0010
0100
0000
0020
0030
,
2010
0000
0100
0010
0000
3000
0001
0001
0001
0010
0000
1000
1000
0010
0000
0000
,
0100
0010
0000
0000
0010
0001
0100
0100
0100
1000
0000
1000
0100
0020
0030
0000
,
0010
0000
0100
0010
0000
0000
0001
0001
0001
1000
0010
0000
1000
0200
0000
0300
,
1000
0000
0001
0000
0010
0000
0100
0100
0100
1000
0000
0100
2010
0100
0010
3000
,
1001
0000
0001
0010
0001
0000
0100
0000
0100
0000
0011
0000
1000
0000
1000
0000
,
0110
1000
0110
0000
2002
0000
3003
0000
,
0101
0000
0010
0100
0010
0000
0001
0000
0001
0000
1010
0000
0100
0000
0100
0000
,
1010
0001
1010
0000
0202
0000
0000
0303
,
1010
0000
0001
0010
0001
0000
1000
0000
1000
0000
0101
0000
0010
0000
0010
0000
,
1100
0000
0010
0000
1100
0000
0000
0000
1002
0000
0000
0000
0100
0000
1000
0003
,
0001
1000
0001
1000
0001
0100
0001
0100
0010
1000
0010
1000
0100
1000
0100
1000
,
0001
1000
0100
0010
0001
0100
0010
1000
0220
0000
0000
0000
0000
0000
0000
0330
,
0100
0010
0100
0010
0001
1000
0001
1000
0010
0100
0010
0100
0001
1000
0010
0100
,
0001
1000
0100
0010
0001
1000
0010
0100
2002
0000
0000
0000
0000
0000
0000
3003
,
0001
0100
0010
1000
0001
0010
0100
1000
0001
0100
0010
1000
0001
1000
0001
1000
,
0010
0100
0001
1000
0100
0010
0001
1000
0220
0000
0000
0000
0000
0000
0000
0330
,
0100
0010
0001
1000
0001
1000
0010
0100
0001
0010
0100
1000
0100
0010
0001
0100
,
1010
0000
0000
1010
0000
0000
0101
0000
0000
1010
0000
0000
1000
0000
0100
0000
0010
0000
0001
0000
0010
0000
0100
0000
,
1001
0000
0000
0000
;

//---------------dance-single - Copied from Hard----------------
#NOTES:
     dance-single:
     Copied from Hard:
     Medium:
     9:
     0.841,1.000,0.124,0.296,0.851,572.000,13.000,31.000,0.000,0.000:
1000
0100
0010
0100
1000
0010
0100
0010
,
1000
0100
0010
0100
0010
0001
1000
0010
,
1000
0000
0010
0000
0000
0000
0100
0000
0001
0000
0000
0000
1000
0000
0010
0000
1000
0000
0100
0000
0000
0000
0100
0000
0010
0000
0001
0100
0001
0000
1000
0000
,
0100
0000
0010
0000
0000
0000
0001
0000
1000
0000
0000
0000
1000
0000
0100
0000
0010
0000
0001
0000
0000
0000
0010
0000
0100
0000
1000
0100
0010
0000
0100
0000
,
0010
0000
0100
0000
0000
0000
0100
0000
1000
0000
0000
0000
0001
0000
0100
0000
0001
0000
0010
0000
0000
0000
0010
0000
0001
0000
1000
0010
1000
0000
0001
0000
,
0010
0100
0000
1000
0001
0000
0001
0010
0100
1000
0000
0100
1000
0000
1000
0100
,
1000
0000
0100
1000
0000
0001
0100
0000
,
0010
1000
0000
0010
0200
0000
0000
0300
,
0001
0000
1000
0100
0000
0010
0001
0000
,
1000
0010
0000
0100
0002
0000
0000
0003
,
0001
0000
1000
0001
0000
0001
0100
0000
,
0010
1000
0000
1000
0200
0000
0000
0300
,
0010
0000
0001
1000
0000
1000
0010
0000
,
1000
0001
0010
0100
0010
0000
0100
0000
,
1000
0100
1000
0010
0100
0001
0000
0001
0010
0001
0100
0010
1000
0010
0000
0100
,
0010
0100
0010
1000
0100
1000
0000
0100
0010
0001
0010
0001
1000
0100
0010
0001
,
1000
0001
1000
0001
0020
0000
0030
0000
1000
0010
0100
0001
0100
0001
0000
0010
,
0100
0000
1000
0000
0100
0000
0010
0000
0100
0000
0010
0000
0000
0000
0100
0000
1000
0010
1000
0010
1000
0000
0000
0000
0100
0001
0100
0001
0100
0000
0000
0000
,
1000
0100
0010
0001
0010
0100
0000
0100
1000
0100
0010
0001
0100
0001
0000
0001
,
0010
0100
0010
0001
0010
0100
0000
0000
1000
0001
0010
0100
0010
0100
1000
0001
,
1000
0000
0100
0010
0000
0001
1000
0000
,
0010
0100
0000
0001
2000
0000
0000
3000
,
1000
0000
0100
0010
0000
0001
1000
0000
,
0010
0100
0000
1000
0001
0100
0100
0100
,
1000
0100
0010
0100
1000
0010
0000
1000
0010
0100
0001
0010
0100
0010
0000
0001
,
0100
0010
0202
0303
2020
3030
0000
0100
0010
0100
0010
0000
0101
0000
0110
0000
,
1000
0000
0001
0100
0001
0000
0010
0000
0100
0000
1000
0000
0001
0000
0100
0000
,
0010
0100
0010
0000
2002
0000
3003
0000
,
1000
0000
0100
0010
0100
0000
1000
0000
0001
0000
0100
0000
0010
0000
1000
0000
,
0101
1000
0100
0000
2020
0000
0000
3030
,
0100
0000
1000
0100
1000
0000
0001
0000
1001
0000
0010
0000
0100
0000
0001
0000
,
0010
0000
0100
0000
0010
0000
0000
0000
2001
0000
0000
0000
0010
0000
0001
3000
,
0001
0000
0010
0100
0000
1000
0001
0000
,
0100
0010
0000
1000
0020
0000
0000
0030
,
1000
0100
0010
0001
0000
0001
1000
0000
,
0001
1000
0000
1000
0020
0000
0100
0030
,
0001
0010
0100
1000
0000
0001
1000
0000
,
1000
0001
0000
0010
0200
0000
0010
0300
,
1000
0100
0010
0001
0000
0010
0100
0000
,
0100
0001
1000
0010
0200
0000
0300
0100
,
1000
0100
0010
0001
0010
0100
0010
0100
1000
0001
1000
0001
1000
0000
0000
0010
,
0001
0010
0001
0100
0010
0100
0000
0001
0100
0010
1000
0100
1000
0100
0010
0001
,
1000
0100
1000
0100
1000
0010
0000
1000
0100
0010
0100
0010
0001
0010
0000
0001
,
1000
0000
0001
0000
0010
0000
0100
0000
1000
0000
0000
0000
0000
0000
0000
0000
1000
0000
0100
0010
0100
0000
0010
0000
0001
0000
0010
0100
0010
0000
0100
0000
,
1000
0100
0010
0001
0010
0100
0000
0010
0100
0010
0001
0010
0100
0010
0000
0100
,
1000
0100
0010
0100
1000
0100
0100
0100
1000
0010
1000
0100
0010
0100
0010
0100
,
1000
0100
0010
0001
0010
0100
1000
0001
0010
0001
0100
0010
1000
0001
0100
0010
,
0100
0010
1000
0010
0100
0001
1000
0010
0100
0001
1000
0010
0100
0000
0020
0030
,
2010
0000
0100
0010
0000
3000
0001
1000
0001
0010
0000
1000
0100
0010
0000
0000
,
0100
0010
0000
0000
0010
0001
0100
0010
0100
0001
0000
1000
0100
0020
0030
0000
,
0010
0000
0100
0010
0000
0000
0001
1000
0001
1000
0010
0000
1000
0200
0000
0300
,
1000
0000
0001
0000
0010
0000
0100
1000
0100
1000
0000
0100
2000
0100
0010
3000
,
1000
0000
0001
0010
0001
0000
0100
0000
0010
0000
1000
0000
0001
0000
1000
0000
,
0100
1000
0100
0000
2002
0000
3003
0000
,
0001
0000
0010
0100
0010
0000
0001
0000
1000
0000
0010
0000
0100
0000
0001
0000
,
1000
0001
1000
0000
0202
0000
0000
0303
,
0010
0000
0001
0010
0001
0000
1000
0000
0001
0000
0100
0000
0010
0000
1000
0000
,
0100
0000
0010
0000
0100
0000
0000
0000
1002
0000
0000
0000
0100
0000
1000
0003
,
0001
0000
1000
0010
0000
0100
0001
0000
,
1000
0001
0000
0010
0200
0000
0000
0300
,
1000
0100
0010
0001
0000
1000
0001
0000
,
0100
0010
0000
1000
0020
0000
0100
0030
,
0001
0010
0100
1000
0000
0001
1000
0000
,
0010
0100
0000
0010
2000
0000
0001
3000
,
1000
0100
0010
0001
0000
1000
0100
0000
,
1000
0000
0000
0010
0000
0000
0100
0000
0000
0010
0000
0000
1000
0000
0100
0000
0010
0000
0001
0000
0010
0000
0100
0000
,
1000
0000
0000
0000
;
