#TITLE:Star City;
#SUBTITLE:;
#ARTIST:Diddy Kong Racing;
#TITLETRANSLIT:;
#SUBTITLETRANSLIT:;
#ARTISTTRANSLIT:;
#CREDIT:Braeden47;
#BANNER:../Banner.png;
#BACKGROUND:../BG.PNG;
#LYRICSPATH:;
#CDTITLE:../CDTitleBRAEDEN.png;
#MUSIC:Star City.ogg;
#OFFSET:-0.040;
#SAMPLESTART:68.213;
#SAMPLELENGTH:12.000;
#SELECTABLE:YES;
#BPMS:0.000=137.980;
#STOPS:;
#BGCHANGES:;
// cache tags:
#FIRSTBEAT:4.500;
#LASTBEAT:240.000;
#SONGFILENAME:Songs/Index Fusion/Star City - [Braeden]/Star City.sm;
#HASMUSIC:1;
#HASBANNER:1;
#MUSICLENGTH:104.652;
// end cache tags

//---------------dance-single - Copied from----------------
#NOTES:
     dance-single:
     Copied from:
     Challenge:
     18:
     1.000,1.000,0.296,0.057,1.000,1023.000,31.000,6.000,0.000,0.000:

0000
0000
0000
0000
,
0000
0000
0000
0000
1000
0001
1000
0001
1000
0000
0000
0000
0001
0100
0001
0100
0001
0000
0000
0000
1000
0010
1000
0010
1000
0000
0010
0000
0100
0000
0001
0000
,
1000
0000
0000
0000
0010
0100
0010
0100
0010
0000
0000
0000
1000
0010
1000
0010
1000
0000
0000
0000
0001
0100
0001
0100
0001
0000
0100
0000
0010
0000
1000
0000
,
0001
0000
0000
0000
0100
0010
1000
0001
0100
0000
0000
0000
0010
1000
0001
0100
0010
0000
0000
0000
1000
0100
0010
0001
0100
0000
0010
0000
1000
0000
0100
0000
,
0010
0000
0000
0000
0001
0010
0100
1000
0001
0000
0000
0000
0010
0100
1000
0001
0100
0000
0000
0000
0010
1000
0100
0010
0100
0000
1000
0000
0001
0000
0100
0000
,
0010
0000
0000
0000
1000
0100
0010
0001
0010
0000
0000
0000
0100
1000
0001
0100
0010
0000
0000
0000
1000
0001
0100
0010
1000
0000
0100
0000
0010
0000
0001
0000
,
1000
0000
0010
0000
1010
0000
0000
0101
0000
0000
0100
0010
1000
0100
0010
0100
,
1000
0000
0000
0000
0010
0100
0010
0100
0010
0000
0000
0000
0000
0000
1010
0000
0000
0000
0000
0000
1000
0000
0010
0000
0100
0000
0001
0000
0100
0000
0010
0000
,
1000
0000
0000
0000
1000
0100
0010
0001
0010
0000
0000
0000
0000
0000
0110
0000
0000
0000
0000
0000
1000
0000
0100
0000
0010
0000
0001
0000
0010
0000
0100
0000
,
0010
0000
0000
0000
0100
1000
0100
1000
0100
0000
0000
0000
0000
0000
0110
0000
0000
0000
0000
0000
0010
0000
0100
0000
1000
0000
0100
0000
0010
0000
0100
0000
,
1000
0000
0000
0000
0100
1000
0100
1000
0200
0000
0000
0000
0000
0000
2300
0000
0000
0000
0000
0000
3100
0000
1000
0000
0100
0000
0010
0000
0100
0000
1000
0000
,
0100
0000
0000
0000
0010
0001
0010
0001
0020
0000
0000
0000
0000
0000
0032
0000
0000
0000
0000
0000
1003
0000
0100
0000
0010
0000
0001
0000
1000
0000
0100
0000
,
0010
0000
0000
0000
1000
0001
1000
0001
0100
0000
0000
0000
0010
0000
1000
0000
0010
0000
0000
0000
1000
0000
0100
0000
1000
0000
0100
0000
1000
0000
0100
0000
,
0010
0000
0000
0000
0001
0000
0100
0000
0010
0000
0000
0000
0000
0000
0100
0000
0000
0000
0000
0000
0010
0000
1000
0001
1000
0000
0000
0000
0000
0000
0010
0000
,
1000
0000
0000
0000
0100
0010
0001
0010
0100
0000
1000
0000
0001
0100
0010
1000
0001
0000
0100
0000
0010
1000
0001
0100
0010
0000
1000
0000
0100
0000
0010
0000
,
0001
0000
0100
0000
0010
1000
0001
1000
0010
0000
0100
0000
0001
1000
0100
1000
0001
0000
0100
0000
0010
1000
0001
0100
0010
0000
1000
0000
0010
0000
0100
0000
,
0001
0000
0100
0000
0010
1000
0001
0100
0010
0000
1000
0000
0100
0010
0001
0010
0100
0000
1000
0000
0001
0100
0010
0100
0001
0000
0100
0000
0010
0000
1000
0000
,
0100
0000
0010
0000
0001
0100
0010
1000
0001
0000
0100
0000
0010
1000
0001
0100
0010
0000
1000
0000
0100
0010
0100
1000
0010
0000
0100
0000
0001
0000
1000
0000
,
0100
0000
0010
0000
0001
1000
0001
1000
0001
0000
1000
0000
0010
0100
0010
0100
0010
0000
1000
0000
0100
0010
0001
0010
0100
0000
1000
0000
0100
0000
1000
0000
,
0010
0000
0100
0000
0001
0100
0010
0100
0010
0000
0100
0000
1000
0010
0100
0001
0100
0000
0010
0000
1000
0010
0100
0010
1000
0000
0010
0000
0100
0000
0001
0000
,
0100
0000
0010
0000
1000
0001
1000
0010
0100
0000
0001
0000
1000
0010
0100
0001
1000
0000
0100
0000
0010
0001
0100
0010
1000
0000
0100
0000
1000
0000
0001
0000
,
0100
0000
0010
0000
1000
0010
0100
0001
0100
0000
0010
0000
1000
0001
0100
0010
1000
0000
0100
0000
0010
0001
0010
0100
1000
0000
0100
0000
0010
0000
0001
0000
,
0100
0000
0010
0000
0100
0010
1000
0001
0100
0000
0010
0000
1000
0100
0010
0001
1000
0000
0010
0000
0100
0001
0100
0010
0100
0000
0001
0000
0010
0000
0100
0000
,
1000
0000
0001
0000
0100
0010
1000
0010
0100
0000
0001
0000
0010
0100
1000
0100
0010
0000
0001
0000
1000
0010
0100
0001
1000
0000
0100
0000
1000
0000
0001
0000
,
0100
0000
0010
0000
1000
0100
0010
0001
0100
0000
0010
0000
1000
0001
0100
0010
1000
0000
0001
0000
0010
0100
1000
0001
0100
0000
0010
0000
1000
0000
0100
0000
,
0010
0000
0001
0000
0100
0010
1000
0001
0100
0000
0010
0000
1000
0100
0010
0100
1000
0000
0010
0000
0100
0001
0100
0010
1000
0000
0100
0000
0010
0000
0001
0000
,
1000
0100
0010
0001
0010
0100
1000
0100
0010
0001
0100
0010
1000
0001
0100
0010
,
1000
0100
0010
0001
0010
0100
1000
0001
0100
0010
1000
0100
0010
0001
0010
0100
,
1000
0000
0001
0000
1000
0001
1000
0000
0001
0000
0000
0000
0101
0000
0000
0000
0110
0000
0000
0000
0001
0000
1000
0000
0001
0000
0010
0000
0001
0000
1000
0000
,
0001
0000
0000
0000
0100
0010
0100
0010
0100
0000
0000
0000
0001
1000
0001
1000
0001
0000
0000
0000
0100
0010
0100
0010
0100
0000
0001
0000
0010
0000
0100
0000
,
1000
0000
0000
0000
0001
1000
0010
1000
0010
0000
0000
0000
1000
0010
1000
0010
1000
0000
0000
0000
0001
0100
0001
0100
0001
0000
0100
0000
0010
0000
1000
0000
,
0100
0000
0000
0000
0010
0001
0010
0001
0010
0000
0000
0000
0100
1000
0001
0100
0010
0000
0000
0000
1000
0010
0100
0001
1000
0000
0010
0000
0100
0000
0001
0000
,
0010
0000
0000
0000
0100
1000
0100
1000
0100
0000
0000
0000
0000
0000
1100
0000
0000
0000
0000
0000
0001
0000
1000
0000
0100
0000
0010
0000
0001
0000
0010
0000
,
0100
0000
0000
0000
1000
0001
1000
0001
1000
0000
0000
0000
0000
0000
1001
0000
0000
0000
0000
0000
1000
0000
0100
0000
0010
0000
0001
0000
0010
0000
0100
0000
,
1000
0000
0000
0000
0001
1000
0001
1000
0001
0000
0000
0000
0100
0000
0010
0000
1000
0000
0000
0000
0100
0000
1000
0000
0100
0000
0010
0000
0001
0000
1000
0000
,
0001
0000
0000
0000
1000
0001
0100
0010
0100
0000
0000
0000
0001
0000
0010
0000
0100
0000
0000
0000
0100
0000
0010
0000
0001
0000
0010
0000
0100
0000
1000
0000
,
1001
0000
0001
0010
0011
0000
0000
0011
0000
0000
1001
0000
1001
0000
1000
0100
,
0010
0000
0000
0000
0100
0000
0010
0000
0110
0000
0000
0000
0000
0000
1100
0000
0000
0000
0000
0000
1001
0000
0000
0010
0200
0000
0000
0000
0000
0000
2300
0000
,
0000
0000
0001
0000
3001
0000
0000
0110
0000
0000
0100
0010
0100
1000
0100
0010
,
0100
0000
1000
0100
1100
0000
0000
0110
0000
0000
0011
0000
0000
0000
1100
0000
,
1001
0000
0000
0000
0001
1000
0001
1000
0001
0000
0000
0000
1000
0010
1000
0010
1000
0000
0000
0000
0001
0100
0001
0100
0001
0000
0100
0000
0010
0000
1000
0000
,
0100
0000
0000
0000
0010
0001
0100
0010
1000
0000
0000
0000
1000
0100
0010
0001
0100
0000
0000
0000
0010
1000
0001
0100
0010
0000
1000
0000
0100
0000
0010
0000
,
0001
0000
0000
0000
1000
0100
1000
0100
0010
0000
0000
0000
0001
0010
0001
0010
0100
0000
0000
0000
1000
0001
1000
0001
0100
0000
0010
0000
1000
0000
0100
0000
,
0010
0000
0000
0000
0001
1000
0001
1000
0001
0000
0000
0000
1000
0100
0010
0001
0010
0000
0000
0000
0100
1000
0001
0100
0010
1000
0100
0010
0001
0010
0100
1000
,
0001
0100
0010
1000
0001
0010
0100
1000
0001
0100
0010
1000
0100
0010
0001
0010
0100
1000
0001
0100
0010
1000
0001
0010
0001
1000
0010
0100
0001
0100
0010
0100
,
0001
0010
0100
1000
0001
0100
0010
1000
0001
0000
0000
0000
1000
0001
1000
0001
1000
0000
0000
0000
0100
0010
0100
0010
0100
0000
1000
0000
0001
0000
0100
0000
,
0010
0000
0000
0000
1000
0001
0100
0010
1000
0000
0000
0000
0001
0010
0100
1000
0100
0000
0000
0000
0010
0001
0010
0100
1000
0000
0001
0000
0100
0000
0010
0000
,
1000
0000
0000
0000
0001
0100
0001
0100
0001
0000
0000
0000
1000
0100
1000
0100
1000
0000
0000
0000
0100
0010
0001
0000
4000
0000
0000
0000
0000
0000
0000
0000
,
0000
0000
0000
0000
3040
0000
0000
0000
0000
0000
0000
0000
0130
0001
0100
0010
,
1000
0100
0010
0001
0010
0100
1000
0001
0100
0010
1000
0001
0010
0100
1000
0001
0100
0010
1000
0100
0010
0001
0010
0100
1000
0001
0100
0010
1000
0100
0010
0001
,
1000
0100
0010
0001
0010
0100
1000
0001
0100
0000
0000
0000
0010
1000
0010
1000
0010
0000
0000
0000
0100
0001
0100
0001
0100
0000
0010
0000
1000
0000
0010
0000
,
0100
0000
0000
0000
0001
0100
0010
1000
0001
0000
0000
0000
0010
0100
1000
0001
0100
0000
0000
0000
0010
1000
0010
0100
0001
0000
1000
0000
0100
0000
0010
0000
,
0001
0000
1000
0010
1000
0001
1000
0000
0010
0000
0100
0001
0100
0010
1000
0100
,
0010
0001
0010
0100
1000
0001
0100
0010
1000
0100
0010
0001
0010
0100
1000
0001
0100
0010
1000
0100
0010
0001
0010
0100
1000
0001
0100
0010
1000
0100
0010
0001
,
0010
0100
1000
0001
0100
0010
1000
0001
0100
0000
0010
0000
1000
0000
0001
0000
0010
0000
0100
0000
1000
0000
0100
0000
0010
0000
0001
0000
0010
0000
0100
0000
,
1000
0001
0100
0010
1000
0100
0010
0001
0100
0010
1000
0100
0010
0001
0010
0100
,
1000
0000
0001
0000
1000
0100
1000
0000
0100
0000
0000
0000
0010
0000
0000
0000
0011
0000
0000
0000
0001
0000
0100
0000
0010
0000
1000
0000
0100
0000
0010
0000
,
0001
0000
1000
0000
1010
0000
0010
0000
0110
0000
0100
0001
0100
0010
1000
0100
,
0010
0000
0001
0000
1001
0000
0010
0000
0110
0000
0100
0001
0100
0010
1000
0100
,
1000
0000
0001
0000
1001
0000
0010
0000
1001
0000
1000
0100
0010
0001
0100
0010
,
0100
0000
0000
0000
;

//---------------dance-single - ----------------
#NOTES:
     dance-single:
     :
     Beginner:
     3:
     0.258,0.287,0.105,0.162,0.000,161.000,11.000,17.000,0.000,0.000:
0000
0000
0000
0000
,
0000
0000
0000
0000
,
0000
0001
1000
0001
,
1000
0100
0010
0100
,
0010
0001
1000
0100
,
1000
0001
0010
0001
,
1000
0001
0000
1000
,
0000
0001
0000
1000
,
0000
0100
0010
0100
,
0000
1000
0100
0010
,
0000
0001
0010
0100
,
0000
1000
0100
0010
,
0001
0010
0100
1000
,
0000
0100
0010
0100
,
1000
0002
0000
1000
,
1000
2003
0000
0100
,
0100
3200
0000
0010
,
0010
0320
0000
0001
,
0031
0001
0000
1000
,
0000
0100
0000
0010
,
0000
0100
0000
1000
,
0000
0100
0000
0010
,
0000
0001
0000
0010
,
0000
0100
0000
1000
,
0000
0001
0000
1001
,
0000
0110
0000
1001
,
0000
0200
0000
0000
,
0000
2300
0000
0000
,
0000
3100
0010
0001
,
0010
0100
1000
0001
,
0100
0000
0100
1000
,
0100
0000
0001
0010
,
0011
0100
0000
1100
,
0000
0100
0000
0110
,
0000
0001
1000
0001
,
0000
1000
0100
0010
,
0001
2000
0000
3100
,
0000
0002
0000
0013
,
0000
0100
0010
0100
,
0000
1000
0001
1000
,
0001
2000
0000
0000
,
0000
3200
0010
0310
,
0000
0200
1000
1300
,
0000
0200
1000
1300
,
0000
1001
0100
0010
,
0100
1001
0100
0010
,
0100
2000
0000
3100
,
0000
0002
0000
0203
,
0000
0310
1000
0100
,
0000
0001
0010
0100
,
0000
1001
0000
0100
,
0000
1100
0000
0100
,
0000
0001
0010
0001
,
1000
0100
0010
0001
,
1000
0200
0000
0000
,
0000
0320
0000
0000
,
0000
0031
1000
0001
,
0000
0100
0010
0100
,
0000
1000
0100
1000
,
0000
0001
0100
0001
,
1001
0000
0000
0000
;

//---------------dance-single - ----------------
#NOTES:
     dance-single:
     :
     Easy:
     6:
     0.399,0.430,0.115,0.210,0.005,258.000,12.000,22.000,0.000,0.000:
0000
0000
0000
0000
,
0000
0000
1000
0000
0001
0000
1000
0001
,
1000
0000
0100
0000
0010
0000
0100
0010
,
0100
0000
0001
0000
1000
0000
0100
0010
,
0100
0000
0001
0000
0010
0000
1000
0100
,
0010
0000
0001
0000
0100
0000
0001
0010
,
0100
0000
1000
0000
0001
0000
1000
0001
,
1000
0000
0100
0000
0010
0000
0100
0010
,
0001
0000
0100
0000
1000
0000
0010
0100
,
1000
0000
0100
0000
0010
0000
0100
1000
,
0100
0000
2100
0000
0000
0000
0100
3000
,
0000
1002
0000
1003
,
0000
0120
0000
0130
,
0000
2100
0000
3100
,
0000
2000
0100
0001
,
3020
0100
0001
2030
,
0100
0010
3200
1000
,
0001
0320
0100
0001
,
0130
0001
1000
0000
0000
0001
1000
0000
,
0000
0100
1000
0000
0000
0100
0010
0000
,
0000
0100
1000
0000
0000
0001
0010
0000
,
0000
0100
1000
0000
0000
0100
0010
0000
,
0000
0100
1000
0000
0000
0001
1000
0000
,
0000
0100
0010
0000
0000
0001
0010
0000
,
0000
0100
1000
0000
0000
1000
0100
0000
,
0000
0100
0010
0000
0000
0010
0100
0000
,
0000
2000
3200
0320
,
0032
0000
1003
0001
1000
0001
1000
0001
,
1000
0001
1000
0000
0100
0000
0010
0100
,
1000
0000
0001
0000
0010
0000
0001
0010
,
0100
0000
1000
0000
0010
0000
1000
0010
,
0001
0000
0100
0000
1000
0000
1000
0100
,
0001
1000
0001
1000
,
0000
0100
0010
0100
,
1000
0100
0010
0001
,
1001
0000
0000
0000
1000
0000
0000
0010
0000
0000
1000
0000
0000
0000
0000
0000
,
1001
0000
1000
0000
0100
0000
1000
0100
,
1000
0000
0100
0000
0010
0000
0001
0010
,
0100
0000
1000
0000
0100
0000
0010
0100
,
1000
0100
0010
0100
,
1000
2000
0000
0100
,
0100
3200
0010
0010
,
0010
0000
0020
0300
0001
0000
0001
0000
,
0001
0030
0200
0000
1000
0000
1000
0000
,
1300
0000
1000
0000
0100
0000
0010
0001
,
1000
0000
0100
0000
0010
0000
0001
0100
,
0001
0000
2000
0000
0100
0000
0001
0001
,
0001
3000
0100
0000
0020
0000
0001
0001
,
0001
0030
0100
0000
1000
0000
0100
0010
,
0100
1000
0001
0001
,
1000
0000
0200
0000
0000
0000
2000
0300
,
0000
3000
0200
0000
0000
1300
0000
0000
,
0100
0000
1000
0100
1000
0000
0001
0010
,
0001
0100
0010
0100
,
0001
0000
0001
0010
0001
0000
0001
1000
,
0001
0000
0100
1000
0100
0000
0001
0010
,
0001
0000
1001
0000
0100
0000
0010
0100
,
1000
0000
1001
0000
0100
0000
0010
0001
,
0010
0000
1001
0000
0100
0000
0010
0100
,
0010
0000
1001
0000
0110
0000
0100
0010
,
0110
0000
0000
0000
;

//---------------dance-single - ----------------
#NOTES:
     dance-single:
     :
     Medium:
     9:
     0.613,0.631,0.076,0.229,0.325,417.000,8.000,24.000,0.000,0.000:
0000
0000
0000
0000
,
0000
0000
1000
0100
0010
0001
1000
0100
,
0010
0000
0001
0000
0100
0000
1000
0000
0100
0000
0000
0000
0100
1000
0100
1000
,
0100
0000
0000
0000
0001
0000
1000
0000
0100
0000
0000
0000
0100
0010
0100
0010
,
0100
0000
0000
0000
0001
0000
1000
0000
0001
0000
0000
0000
0001
0100
0001
0100
,
0001
0000
0000
0000
0100
0000
1000
0000
0100
0000
0000
0000
0100
0010
0100
0010
,
0100
0000
0000
0000
0110
0000
0000
1010
0000
0000
0100
0000
1000
0000
0010
0000
,
1000
0000
0010
0000
0100
0000
0000
0010
0000
0000
0100
0000
1000
0000
0100
0000
,
0010
0000
0100
0000
1100
0000
0000
0110
0000
0000
1000
0000
0010
0000
1000
0000
,
0010
0000
0010
0000
1000
0000
0000
0100
0000
0000
0010
0000
1000
0000
0010
0000
,
1000
0000
0100
1000
0100
0000
0000
1000
0000
0000
0100
0000
0020
0000
0000
0000
,
0030
0000
0001
0010
0001
0000
0000
0100
0000
0000
0100
0000
0010
0000
0000
0010
,
0000
0000
1000
0001
0100
0000
0000
0100
0000
0000
0010
0000
1000
0000
0000
0000
,
0000
0000
0100
0010
0100
0000
0000
0100
0000
0000
0010
0000
0100
0000
0000
0010
,
0000
1000
1001
0001
1000
0100
0010
0001
,
1000
0100
1000
0010
0100
0001
1000
0100
,
0010
0001
1000
0100
0010
0001
1000
0010
,
0100
0001
1000
0100
0010
0001
1000
0100
,
0010
0020
2000
0000
0030
3100
0002
0000
,
0003
0100
2000
0000
0020
0000
0000
0000
3000
0000
0230
0000
2000
0000
0000
0000
,
3300
0002
0020
0003
0000
0230
1000
0300
,
0000
1000
0100
0000
0200
0000
0000
0000
0000
0000
0310
0000
0001
0000
0000
0000
,
0000
0100
0020
0000
0000
0031
2000
0000
,
3000
0010
0001
0000
0020
0000
0000
0000
0000
0000
0031
0000
0100
0000
0000
0000
,
0000
0001
2000
0000
0000
3100
2000
0000
,
3000
0010
0100
0000
0100
0000
0000
0000
0000
0000
1000
0000
0100
0000
0000
0000
,
0000
0000
1000
0100
0010
0001
1000
0100
,
0001
0000
0100
0000
1000
0000
0010
0000
1000
0000
0010
0000
0100
0010
0100
0010
,
0100
0000
0001
1000
0001
0000
0001
0000
0100
0000
0000
0000
0100
0000
1000
0000
,
0100
0100
0010
0001
1000
0100
0010
0001
,
0100
0001
0100
1000
0010
1000
0100
0010
,
0001
1000
0100
0010
0001
1000
0100
1000
,
0010
0000
0100
1000
0100
0000
0000
0010
0000
0000
0100
0000
0020
0000
0000
0000
,
0030
0000
1000
0001
1000
0000
0000
0001
0000
0000
0100
0000
0010
0000
0000
0100
,
0000
0000
0001
0000
1000
0000
0000
0100
0010
0000
0100
0000
0100
0000
1000
0000
,
1000
0001
0001
1000
0100
0100
0001
0100
,
0010
0000
0001
0010
0001
0000
0000
0010
0000
0000
0001
0000
1000
0000
0100
0000
,
0010
0000
0100
0010
0100
0000
0000
1000
0000
0000
1000
0000
0100
0000
0000
0100
,
0000
0000
0010
0000
0001
0000
0000
0100
0000
0000
0010
0000
0100
0010
0100
0010
,
0100
0000
0010
0100
0010
0000
0000
0100
0000
0000
0010
0000
0000
0000
1000
0000
,
1001
0000
0100
1000
0001
0010
0100
1000
,
0001
0010
0100
1000
0100
0010
0100
1000
,
0100
0000
0010
0000
0001
0000
1000
0000
0001
0000
0000
0000
0001
0010
0001
0100
,
0001
0000
0000
0000
0100
0000
1000
0000
0100
0000
0000
0000
0100
0010
0100
0010
,
0100
0000
0000
0000
0001
0000
1000
0000
0001
0000
0000
0000
0001
0100
0001
0100
,
0001
0000
0000
0000
0100
0000
1000
0000
0100
0000
0000
0000
0100
0010
0100
0010
,
0100
0000
0000
0000
0001
0000
1000
0000
0001
0000
0000
0000
0001
0100
0001
0100
,
0001
0000
0100
1000
0100
0000
2200
0000
,
0000
0000
3300
0000
1000
0100
0001
0100
,
1000
0001
1000
0100
0010
0001
1000
0100
,
0010
0001
0200
0000
0000
0002
0000
0000
,
0300
0000
2000
0003
0000
0200
0000
0000
,
3300
0000
0000
0000
0001
0010
0001
0000
0001
0000
1000
0000
0001
0000
0100
0000
,
0001
0000
0100
1000
0100
0010
0001
1000
,
0100
0000
0001
1000
0001
1000
0001
1000
,
0001
0000
0010
0000
0001
0100
0001
0100
0010
0001
0010
0001
0010
0100
0010
0100
,
1000
0100
0010
0100
1000
0000
0100
0000
0010
0000
0100
0000
1000
0000
0001
0000
,
0100
0000
0000
0000
0001
0000
1000
0000
0100
0000
0000
0000
1000
0100
1000
0010
,
1000
0000
0000
0000
0001
0000
1000
0000
0001
0000
0000
0000
0001
0100
0001
0100
,
0001
0000
0100
0010
0100
0010
0100
1000
,
1001
0000
0000
0000
;

//---------------dance-single - ----------------
#NOTES:
     dance-single:
     :
     Hard:
     13:
     1.000,0.946,0.449,0.220,1.000,689.000,47.000,23.000,0.000,2.000:
0000
0000
0000
0000
,
0000
0000
0000
0000
0100
0000
1000
0100
1000
0000
0000
0000
0100
0000
0010
0001
0010
0000
0000
0000
0100
0000
1000
0100
1000
0000
0001
0000
0010
0000
0100
0000
,
1000
0000
0000
0000
0100
0000
0010
0001
0010
0000
0000
0000
0001
0000
0010
0100
0010
0000
0000
0000
0100
0000
1000
0100
1000
0000
0100
0000
0010
0000
0001
0000
,
0010
0000
0000
0000
0100
0000
0010
0001
0010
0000
0000
0000
0100
0000
1000
0100
1000
0000
0000
0000
0100
0000
0010
0001
0010
0000
0100
0000
1000
0000
0100
0000
,
0010
0000
0000
0000
0100
0000
1000
0100
1000
0000
0000
0000
0100
0000
0010
0001
0010
0000
0000
0000
0001
0000
0010
0100
0010
0000
0100
0000
1000
0000
0100
0000
,
0010
0000
0000
0000
0001
0000
0010
0100
0010
0000
0000
0000
0100
0000
1000
0100
1000
0000
0000
0000
0100
0000
0010
0100
0010
0000
1000
0000
0100
0000
0010
0000
,
0100
0000
0000
0000
0110
0000
0000
1010
0000
0000
0100
0010
1000
0100
0010
0100
,
1000
0000
0010
0000
0110
0000
0000
1010
0000
0000
1100
0000
0100
0010
0100
0010
,
0001
0000
0010
0000
0011
0000
0000
0110
0000
0000
1000
0100
0010
0001
0010
0100
,
0010
0000
0110
0000
1100
0000
0000
0110
0000
0000
0010
0100
1000
0100
0010
0100
,
1000
0000
0100
1000
0100
0000
0000
1000
0000
0000
0100
1000
0100
0010
0100
1000
,
0100
0000
0001
0010
0001
0000
0000
0100
0000
0000
0100
1000
0100
0010
0001
1000
,
0100
0000
1000
0001
0100
0000
0000
0100
0000
0000
0010
0100
1000
0100
0010
0100
,
1000
0000
0000
0000
0100
0000
0010
0000
0100
0000
0000
0000
0000
0000
0100
0000
0000
0000
0000
0000
0010
0000
0100
1000
0100
0000
0000
0000
0000
0000
0010
0000
,
0000
0000
0000
0000
0100
0000
1000
0100
1000
0000
0000
0000
0000
0000
0100
0010
0100
0000
0000
0000
0000
0000
0010
0001
0010
0000
0100
0000
1000
0000
0100
0000
,
1000
0000
0000
0000
0000
0000
0100
0010
0100
0000
0000
0000
0000
0000
1000
0100
1000
0000
0000
0000
0000
0000
0100
0010
0100
0000
0010
0000
1000
0000
0010
0000
,
0100
0000
0000
0000
0000
0000
0100
0010
0100
0000
0000
0000
0000
0000
1000
0100
1000
0000
0000
0000
0000
0000
0100
0010
0100
0000
1000
0000
0100
0000
1000
0000
,
0100
0000
0000
0000
0000
0000
0001
0010
0100
0000
0000
0000
0000
0000
0010
0100
1000
0000
0000
0000
0000
0000
0100
0010
0100
0000
0010
0000
0100
0000
1000
0000
,
0100
0000
0020
0000
2000
0000
0000
0000
0030
0000
3100
0010
1000
0100
1000
0100
,
0010
0000
0100
0000
1000
0000
0000
0000
0110
0000
0000
0000
0000
0000
0010
0100
0010
0000
0000
0000
0100
0000
0010
0000
1000
0000
0010
0000
0100
0000
1000
0000
,
0100
0000
0200
0000
2000
0000
0000
0000
3300
0000
0100
1000
0001
1000
0100
1000
,
0001
0100
0010
0000
0020
0000
0000
0000
0000
0000
0130
1000
0001
1000
0100
1000
,
0100
0010
0200
0000
2000
0000
0000
0000
0300
0000
0010
0000
3020
0000
0000
0000
,
0030
1000
0100
0000
0020
0000
0000
0000
0000
0000
1030
0100
1000
0100
1000
0001
,
0020
0000
0100
0000
1000
0000
0100
0000
0130
0000
0001
0010
0100
1000
0001
0010
,
0200
0000
1000
0000
0010
0000
0010
0000
0001
0000
0001
0000
0010
0000
0310
1000
,
0100
0000
0100
0000
0010
0100
0010
1000
0100
0010
0001
0010
0100
1000
0100
0010
,
0100
1000
0001
0010
0100
1000
0010
1000
0100
0001
0100
1000
0010
0100
0010
1000
,
0001
0100
0010
1000
1001
0000
0101
0000
0110
0000
0001
1000
0001
0010
0001
1000
,
0001
0000
0100
0010
0100
0000
0001
1000
0001
0000
0100
0010
0100
1000
0001
0010
,
0100
0000
0001
1000
0010
0000
0010
1000
0010
0000
0100
1000
0000
0100
1000
0100
,
1000
0000
1100
0000
0101
0000
1001
0000
1010
0000
0010
0100
0000
0100
0010
0100
,
0010
0000
0100
1000
1100
0000
0000
1100
0000
0000
1001
0000
0220
0000
0000
0000
,
0330
0000
1000
0001
1001
0000
0000
1001
0000
0000
1100
0000
0021
0000
0000
0100
,
0000
0000
0001
0000
1000
0000
0000
0100
0000
0000
0130
1000
0100
0010
1000
0001
,
1000
0000
0001
1000
0001
0000
1000
0010
0100
0000
0100
0010
0001
0010
0100
1000
,
1001
0000
0001
0010
0011
0000
0000
0011
0000
0000
1001
0000
1001
0000
0100
1000
,
0010
0000
0100
0010
0110
0000
0000
1100
0000
0000
1001
0000
2100
0000
0000
0200
,
0000
0000
0001
0000
3301
0000
0000
0110
0000
0000
0110
0000
0100
1000
0100
0010
,
0100
0000
0100
1000
1100
0000
0000
0110
0000
0000
0202
0000
0303
0000
1100
0000
,
1001
0000
0000
0000
0000
0000
1000
0100
0010
0000
0000
0000
0000
0000
0001
0010
0001
0000
0000
0000
0000
0000
0100
0010
0100
0000
1000
0000
0100
0000
1000
0000
,
0100
0000
0000
0000
0000
0000
0100
0010
0100
0000
0000
0000
0000
0000
0010
1000
0010
0000
0000
0000
0000
0000
0100
0010
0100
0000
1000
0000
0100
0000
0010
0000
,
0100
0000
1000
0100
0010
0000
0001
0010
0100
0000
1000
0100
0010
0100
1000
0100
,
0010
0000
0001
0010
0001
0000
0010
0100
0010
0000
0001
0010
0100
1000
0100
0010
,
0100
0000
0000
0000
1000
0000
0100
0000
0010
0000
0000
0000
0100
0000
0010
0000
1000
0000
0100
0000
1000
0100
1000
0100
1000
0000
0010
0000
1000
0000
0100
0000
,
1000
0000
0100
0010
0001
0000
0001
0010
0100
0000
0100
1000
0100
0010
0001
0100
,
1000
0000
0010
1000
0100
0000
1000
0100
0010
0000
0001
0010
0100
1000
0100
0010
,
0001
0000
0001
0010
0100
0000
1000
0100
1000
0000
0100
0000
2200
0000
0000
0000
,
0000
0000
0000
0000
3300
0000
0100
0010
1000
0000
0100
1000
0100
1000
0100
0010
,
0001
0000
0000
0000
0010
0000
0100
0000
0010
0000
0000
0000
0100
0000
1000
0000
0100
0000
0000
0000
0010
0001
0010
0001
0010
0000
1000
0000
0100
0000
0010
0000
,
0100
0000
0100
1000
0100
0000
0100
1000
0100
0000
0100
1000
0100
0010
0001
0010
,
0100
0000
0001
1000
0001
0000
0100
1000
0010
0000
0100
1000
0001
1000
0010
1000
,
0100
0000
0001
0010
0001
0000
0100
1000
0100
0000
0001
1000
0001
1000
0001
1000
,
0001
0000
0100
1000
0010
0000
0100
0010
0100
0000
0100
1000
0100
0010
0001
0010
,
0110
0000
0100
0010
0001
0010
0100
1000
0010
0100
0010
0100
0010
1000
0001
1000
,
0001
0100
0010
0100
0010
1000
0001
0010
0100
1000
0001
1000
0100
1000
0001
0100
,
0010
1000
0010
1000
1100
0000
0100
0000
1000
0000
0100
1000
0100
1000
0100
0010
,
1010
0000
0200
0000
0010
0000
1000
0000
0010
0000
0301
0010
0001
0010
0100
1000
,
0002
0000
0100
0000
0010
0000
1000
0000
0010
0000
0103
1000
0100
0010
0001
0010
,
0200
0000
1000
0000
0010
0000
0000
0000
1000
0000
0300
0010
0001
0010
0100
0010
,
0110
0000
0000
0000
;
