#TITLE:Surfin' Bird;
#SUBTITLE:Bird is the Word (1963);
#ARTIST:The Trashmen;
#TITLETRANSLIT:;
#SUBTITLETRANSLIT:;
#ARTISTTRANSLIT:;
#CREDIT:Owem;
#BANNER:../banner.png;
#BACKGROUND:../bg.png;
#LYRICSPATH:;
#CDTITLE:../cdtitleowem.png;
#MUSIC:The Trashmen - Surfin' Bird - Bird is the Word (1963).ogg;
#OFFSET:-0.252;
#SAMPLESTART:17.475;
#SAMPLELENGTH:29.999;
#SELECTABLE:YES;
#DISPLAYBPM:198.000;
#BPMS:0.000=198.568,81.000=197.568,97.000=196.568,105.000=195.568,128.000=199.568,161.000=201.568,171.000=197.568,217.000=196.568,259.000=210.568,261.000=212.568,262.000=213.568,263.000=214.568,264.000=215.568,265.000=216.568,266.000=217.568,274.000=210.568,281.000=201.568,293.000=198.568,298.000=199.568,318.000=198.568,336.000=197.568,349.000=200.568,377.000=201.568,394.000=199.568,404.000=197.568,426.000=198.568,440.000=199.568;
#STOPS:;
#BGCHANGES:;
// cache tags:
#FIRSTBEAT:0.000;
#LASTBEAT:464.250;
#SONGFILENAME:Songs/Owem's Simfiles 08 - 1.2/Surfin' Bird - [Owem] v1.0.0/Surfin' Bird.sm;
#HASMUSIC:1;
#HASBANNER:1;
#MUSICLENGTH:140.094;
// end cache tags

//---------------dance-single - 16 (Owem)----------------
#NOTES:
     dance-single:
     16 (Owem):
     Challenge:
     16:
     1.000,1.000,0.014,0.550,1.000,1529.000,2.000,77.000,0.000,0.000:
1000
0000
0000
0000
0100
0000
0000
0000
0020
0000
0000
0000
0000
0030
0000
0000
0001
0000
0000
0000
1000
0000
0000
0000
0020
0000
0000
0000
0000
0000
0000
0000
,
0030
0000
0000
0000
0000
0000
0100
0000
0000
0000
0002
0000
0000
0000
0003
0000
0000
1000
0000
0000
0000
0200
0000
0000
0000
0000
0000
0300
0000
0000
0010
0000
,
0000
0000
0000
0001
0000
0000
0000
0000
0000
0000
1000
0000
0000
0000
0000
0000
0010
0000
0000
0000
0100
0000
0000
0000
0001
0000
0000
0000
1000
0000
0000
0000
0100
0000
0000
0000
1000
0000
0000
0000
0001
0000
0000
0000
0100
0000
0000
0000
0010
0000
0000
0000
1000
0000
0000
0000
0010
0000
0000
0000
0100
0000
0000
0000
,
0010
1000
0001
0100
0001
0010
0100
1000
0001
0010
0001
0100
0010
0100
0001
1000
,
0010
1000
0100
0010
0001
1000
0001
0100
0010
1000
0010
0100
0001
1000
0100
0010
,
0001
1000
0100
1000
0001
0100
0010
1000
0010
0100
0010
1000
0001
1000
0100
0010
,
0001
1000
0100
0010
0100
1000
0001
0010
0001
1000
0001
0100
0010
0100
0001
1000
,
0010
1000
0100
0010
0001
1000
0100
1000
0010
0100
0001
1000
0001
0010
0100
1000
,
0001
0010
0001
0100
0010
0100
0001
1000
0010
1000
0100
0010
0001
1000
0100
1000
,
0001
0100
0010
1000
0010
0100
0010
1000
0001
0100
0001
0010
0100
1000
0001
0010
,
0001
1000
0100
1000
0010
0100
0001
0100
0010
1000
0001
1000
0100
0010
0100
1000
,
0001
0010
0001
0100
0010
1000
0001
0100
0010
0100
0001
1000
0010
1000
0100
0010
,
0001
1000
0100
1000
0010
0100
0001
1000
0001
0010
0100
1000
0001
0010
0100
0010
,
0001
1000
0100
1000
0010
0100
0010
1000
0001
0100
0001
1000
0100
0010
0001
1000
,
0010
0100
0001
1000
0100
1000
0010
0100
0001
1000
0100
1000
0010
0100
0010
1000
,
0001
0010
0100
0010
0001
1000
0100
1000
0010
0100
0001
0100
0010
1000
0001
1000
,
0100
0010
0100
1000
0001
0010
0001
0100
0010
1000
0010
0100
0001
1000
0100
1000
,
0010
0100
0010
1000
0001
0010
0100
0010
0001
1000
0100
1000
0010
0100
0010
1000
,
0001
0100
0010
1000
0010
0100
0001
1000
0100
1000
0010
0100
0010
1000
0001
0010
,
0100
0010
0001
1000
0100
1000
0001
0100
0010
1000
0010
0100
0010
1000
0001
1000
,
0100
0010
0001
1000
0020
0000
0030
0000
0200
0000
0300
0000
0002
0000
0000
0000
,
0003
0000
0000
0000
2000
0000
0000
3000
0010
0000
0200
0000
0000
0300
0002
0000
,
1003
0010
0100
0010
1000
0001
0200
0000
,
0310
1000
0002
1003
0100
0020
0000
0031
,
1000
0000
0001
0000
1000
0100
0010
0001
0100
0010
0100
0001
1000
0100
1000
0001
,
0010
0100
0010
0001
1000
0100
1000
0010
0100
0001
0100
0010
1000
0001
1000
0100
,
0010
0001
1000
0010
0200
0000
0000
0300
0001
0000
0001
0000
0010
0000
0100
0000
,
1000
0001
1000
0010
0100
0100
0001
0010
,
0001
1000
0010
0100
0001
0001
1000
0100
,
1000
0010
0100
0001
1000
1000
0100
0020
,
0032
0000
2003
0000
3020
0000
0230
0000
0320
0000
2030
0000
3002
0000
0000
0003
,
0000
0000
0000
0000
0000
0000
0010
0000
0000
0000
0000
0000
0200
0000
0000
0000
0000
0000
0000
0000
0000
0300
0000
0000
1000
0000
0000
0000
0000
0000
0020
0000
0000
0000
0000
0000
0000
0000
0000
0030
0000
0000
0100
0000
0001
0000
0100
0000
,
0001
1000
0010
0000
1000
0100
0010
0001
1000
0010
0100
0010
1000
0001
0010
0001
,
0100
0010
1000
0010
0100
0010
1000
0001
0100
0001
1000
0001
0010
0100
1000
0001
,
0010
0001
0100
0010
0100
0001
1000
0010
1000
0100
0010
0100
1000
0001
0010
0001
,
0100
0001
1000
0100
0010
0001
1000
0010
0100
0001
0100
0010
1000
0001
1000
0100
,
0010
0001
1000
0100
1000
0001
0100
0001
1000
0010
0100
0010
1000
0001
0010
0100
,
0010
0001
1000
0100
1000
0010
0100
0010
1000
0001
0010
0001
0100
0010
0100
0001
,
1000
0100
0010
0001
1000
0001
0100
0010
0100
0001
0010
0001
1000
0100
0010
0100
,
1000
0001
0010
0001
0100
0010
1000
0010
0100
0001
1000
0001
0010
0100
0010
0001
,
1000
0100
1000
0010
0100
0010
1000
0001
0100
0001
0010
0100
1000
0001
0010
0001
,
0100
0010
0100
0001
1000
0010
1000
0001
1000
0100
0010
0001
1000
0100
1000
0001
,
0100
0010
0100
0001
1000
0010
0100
0001
1000
0001
0010
0100
0010
0001
1000
0100
,
1000
0010
0100
0010
1000
0001
0100
0001
0100
0010
1000
0001
1000
0100
0010
0001
,
1000
0100
1000
0010
0100
0010
1000
0001
0010
0100
0010
0001
1000
0100
1000
0010
,
0100
0010
1000
0001
0010
0001
0100
0010
0100
0001
1000
0010
1000
0100
0010
0001
,
1000
0100
1000
0010
0100
0001
0100
0010
1000
0001
1000
0100
0010
0001
1000
0100
,
1000
0001
0010
0001
0100
0010
1000
0010
0100
0010
1000
0001
0100
0001
0010
0100
,
1000
0100
0010
0001
2000
0000
3000
0000
0020
0000
0030
0000
0200
0000
0000
0000
,
0300
0000
0000
0000
0002
0000
0000
0003
1000
0000
0200
0000
0300
0000
0020
0000
,
0031
1000
0001
0010
0100
1000
0001
0100
,
0010
0000
0010
0000
2000
0000
0000
3000
0001
0000
0200
0000
0300
0000
0010
0000
,
1000
0000
0010
0000
1000
0010
0100
0001
0010
0001
1000
0100
1000
0010
0100
0001
,
1000
0001
0010
0100
0010
0001
1000
0100
1000
0010
0100
0001
1000
0001
0100
0010
,
0100
0001
1000
0100
0020
0000
0000
0000
0030
0000
0000
0000
0002
0000
0000
0000
,
0000
0000
0003
0000
2000
0000
0000
3000
,
0020
0000
0130
0001
1000
0100
1000
0010
0100
0010
1000
0001
1000
0010
1000
0001
,
0100
0001
1000
0001
0100
0010
0100
0001
1000
0010
1000
0100
0010
0001
0010
0100
,
1000
0001
1000
0100
1000
0010
0100
0001
2000
3000
0010
0100
0010
0000
0100
0001
,
0100
0010
1000
0200
0300
0010
0000
0001
2000
3000
0020
0000
0130
0000
0001
1000
,
0000
0020
0000
0030
0100
0001
1000
0000
0100
0010
0001
1000
0001
0000
0100
0000
,
0100
0000
0010
1000
0002
0000
0103
0010
0200
0000
0301
0000
1000
0000
0200
0000
,
0300
0000
0010
0000
0000
0000
0001
0000
0000
0000
1000
0000
0000
0000
0010
0000
0000
0000
0100
0000
0000
0001
0000
0000
1000
0000
0000
0000
0000
0000
0000
0000
,
0002
0000
0000
0003
0000
0000
0000
0000
0400
0000
0000
0000
0000
0000
0000
0000
0000
0000
0000
0000
0000
0000
0000
0000
0000
0000
0000
0000
0000
0000
0000
0000
,
0000
0000
0000
0300
0000
0001
1000
0100
,
0010
0001
1000
0100
0010
0001
1000
0100
,
0010
0001
1000
0100
0010
0001
1000
0100
,
0010
0001
1000
0100
0010
0001
1000
0100
,
0010
0000
0001
0000
1000
0000
0100
0000
0040
0000
0031
0000
0200
0000
0000
0300
,
0020
0000
0000
0030
1000
0000
1000
0000
0004
0000
0203
0000
0000
0300
0010
0000
,
0010
0000
1000
0000
0001
0000
1000
0000
0100
0010
0001
1000
0010
0100
0010
1000
,
0001
0010
0100
1000
0001
0010
0001
0100
0010
1000
0010
0100
0010
1000
0001
0100
,
0001
1000
0100
0010
0001
1000
0100
1000
0010
0100
0010
1000
0001
0100
0001
1000
,
0100
0010
0001
1000
0100
1000
0010
0100
0010
1000
0001
0010
0100
0010
0001
1000
,
0100
1000
0010
0100
0010
1000
0001
0010
0001
0100
0010
1000
0010
0100
0010
1000
,
0001
0010
0001
0100
0010
1000
0010
0100
0001
1000
0100
0010
0001
1000
0100
1000
,
0001
1000
0010
0100
0010
1000
0010
0100
0001
1000
0001
0010
0100
1000
0001
1000
,
0010
1000
0001
0100
0010
0100
0001
1000
0100
0010
0001
1000
0100
1000
0010
0100
,
0001
0100
0010
1000
0001
1000
0100
0010
0001
1000
0100
1000
0010
0100
0001
1000
,
0100
0010
0100
1000
0001
0100
0001
1000
0100
1000
0001
0010
0100
0010
0001
1000
,
0010
0100
0010
1000
0001
0010
0001
0100
0010
1000
0020
0130
0001
1000
0002
0103
,
0010
1000
0020
0130
0001
1000
0200
1300
0001
0010
0002
1003
0100
0010
0001
0100
,
0001
1000
0010
0100
0010
1000
0001
0010
0001
0100
0010
1000
0010
0100
0001
1000
,
0100
0010
0001
1000
0100
1000
0010
0100
0001
1000
0002
1003
0100
0010
0002
1003
,
0100
1000
0020
0130
0001
0100
0020
1030
0001
0010
0200
1300
0001
0010
0001
0100
,
0010
1000
0010
0100
0010
1000
0001
0100
0001
1000
0100
0010
0001
1000
0100
1000
,
0010
0100
0010
1000
0001
0100
0001
1000
0100
0010
0001
1000
0100
1000
0010
0100
,
0010
1000
0001
0010
0100
0010
0001
1000
0100
1000
0010
0100
0010
1000
0001
0010
,
0001
0100
0010
1000
0010
0100
0010
1000
0001
0010
0001
0100
0010
1000
0010
0100
,
0001
1000
0100
0010
0001
1000
0100
1000
0001
1000
0010
0100
0010
1000
0010
0100
,
0001
1000
0001
0010
0100
1000
0001
1000
0010
1000
0001
0100
0010
0100
0001
1000
,
0100
0010
0001
1000
0100
1000
0010
0100
0001
0100
0010
1000
0001
1000
0100
0010
,
0001
1000
0100
1000
0010
0100
0001
1000
0100
0010
0100
1000
0001
0100
0001
1000
,
0100
1000
0001
0010
0100
0010
0001
1000
0010
0100
0010
1000
0001
0010
0001
0100
,
0010
1000
0010
0100
0001
1000
0001
0100
0010
1000
0020
0130
0001
1000
0200
1300
,
0001
0010
0002
1003
0100
0010
0002
0103
0001
1000
0020
0130
0010
1000
0001
0010
,
0001
0100
0010
1000
0010
0100
0001
1000
0100
0010
0002
1003
0100
1000
0020
0130
,
0001
1000
0002
1003
0100
0010
0002
1003
0100
1000
0020
0130
0001
1000
0100
1000
,
0010
0100
0001
1000
0100
0010
0001
0010
0100
1000
0001
1000
0100
0010
0001
1000
,
0100
1000
0010
0100
0010
1000
0001
0010
0100
0010
0001
1000
0100
1000
0001
1000
,
0010
0100
0001
0100
0010
1000
0001
1000
0100
0010
0001
1000
0010
1000
0001
0100
,
0001
1000
0100
1000
0010
0100
0001
0010
0001
1000
0100
1000
0010
0100
0001
1000
,
0001
0010
0100
1000
0001
0000
0001
0000
2000
0000
3000
0000
0020
0000
0030
0000
,
0200
0000
0000
0000
0300
0000
0000
0000
0002
0000
0000
0003
1000
0000
0200
0000
,
0300
0020
0031
1000
0001
0010
0100
1000
,
0001
0100
0010
0010
2000
3001
0100
0020
,
0030
0000
1000
0000
0010
0000
1000
0000
0001
0100
0010
0100
0001
1000
0010
1000
,
0100
0010
0001
1000
0100
1000
0010
0100
0010
1000
0001
0100
0001
1000
0100
0010
,
0001
0010
0100
1000
0001
0010
0001
0100
0010
1000
0010
0100
0010
1000
0001
0100
,
0001
1000
0100
0010
0001
1000
0100
1000
0010
0100
0010
1000
0001
0010
0001
0100
,
0010
1000
0010
0100
0010
1000
0001
0100
0001
1000
0100
0010
0001
1000
0100
1000
,
0010
0100
0010
1000
0001
0010
0100
0010
0001
1000
0100
1000
0001
1000
0010
0100
,
0010
1000
0001
0100
0001
1000
0100
0010
0001
1000
0001
0100
0010
1000
0010
0100
,
0001
1000
0100
0010
0001
1000
0100
0010
0100
1000
0001
0010
0001
1000
0001
0100
,
0010
1000
0010
0100
0010
1000
0001
1000
0100
0010
0001
0010
0100
1000
0001
1000
,
0010
0100
0010
1000
0001
0100
0010
0100
0001
1000
0010
1000
0001
0100
0001
1000
,
0020
0030
0000
0000
0000
0000
0000
0000
0000
0000
0000
0000
0000
0000
0000
0000
;
