#TITLE:PACEMAKER;
#SUBTITLE:;
#ARTIST:The Quick Brown Fox;
#TITLETRANSLIT:;
#SUBTITLETRANSLIT:;
#ARTISTTRANSLIT:;
#CREDIT:owenviau1;
#BANNER:../BN.png;
#BACKGROUND:../BG.png;
#LYRICSPATH:;
#CDTITLE:../CDTitleOV1.png;
#MUSIC:The Quick Brown Fox - PACEMAKER.ogg;
#OFFSET:-0.089;
#SAMPLESTART:59.433;
#SAMPLELENGTH:29.999;
#SELECTABLE:YES;
#DISPLAYBPM:307.728;
#BPMS:0.000=125.000,2.000=135.000,4.000=145.002,6.000=155.027,7.000=155.018,8.000=165.014,10.000=175.000,12.000=185.009,13.000=184.996,14.000=195.003,16.000=205.005,18.000=215.017,20.000=225.000,22.000=235.012,23.000=234.991,24.000=245.000,26.000=255.036,28.000=265.024,29.000=264.997,30.000=275.023,31.000=274.995,32.000=285.006,34.000=295.016,36.000=305.014,38.000=315.000,40.000=325.022,41.000=324.982,42.000=335.022,43.000=334.979,44.000=345.025,45.000=344.980,46.000=355.025,47.000=354.977,48.000=365.016,50.000=375.000,52.000=385.041,53.000=384.985,54.000=395.043,55.000=394.984,56.000=405.021,58.000=415.059,59.000=425.060,60.000=424.992,61.000=435.054,62.000=434.983,63.000=445.005,65.000=455.030,67.000=465.026,69.000=475.045,70.000=474.960,71.000=485.060,72.000=484.971,73.000=495.042,75.000=505.058,76.000=504.962,77.000=515.087,78.000=514.986,79.000=525.000,81.000=535.086,82.000=534.978,83.000=545.005,85.000=555.066,86.000=554.950,87.000=565.022,89.000=575.092,90.000=574.967,91.000=585.010,93.000=595.008,95.000=605.077,96.000=604.938,97.000=615.063,99.000=625.089,100.000=624.941,101.000=635.142,102.000=634.989,103.000=645.051,105.000=655.113,106.000=654.951,107.000=665.158,108.000=664.991,109.000=675.000,111.000=685.137,112.000=684.960,113.000=695.035,115.000=705.036,117.000=715.135,118.000=714.942,119.000=725.130,120.000=724.931,121.000=307.746,122.000=307.710,123.000=307.746,124.000=307.710,125.000=307.746,126.000=307.710,127.000=307.746,128.000=307.710,129.000=307.746,130.000=307.710,131.000=307.746,132.000=307.710,133.000=307.746,134.000=307.710,135.000=307.746,136.000=307.710,137.000=307.746,138.000=307.710,139.000=307.746,140.000=307.710,141.000=307.746,142.000=307.710,143.000=307.746,144.000=307.710,145.000=307.746,146.000=307.710,147.000=307.746,148.000=307.710,149.000=307.746,150.000=307.710,151.000=307.746,152.000=307.710,153.000=307.746,154.000=307.710,155.000=307.746,156.000=307.710,157.000=307.746,158.000=307.710,159.000=307.746,160.000=307.710,161.000=307.746,162.000=307.710,163.000=307.746,164.000=307.710,165.000=307.746,166.000=307.710,167.000=307.746,168.000=307.710,169.000=307.746,170.000=307.710,171.000=307.746,172.000=307.710,173.000=307.746,174.000=307.710,175.000=307.746,176.000=307.710,177.000=307.746,178.000=307.710,179.000=307.746,180.000=307.710,181.000=307.746,182.000=307.710,183.000=307.746,184.000=307.710,185.000=307.746,186.000=307.710,187.000=153.864,251.000=307.710,252.000=307.746,253.000=307.710,254.000=307.746,255.000=307.710,256.000=307.746,257.000=307.710,258.000=307.746,259.000=307.710,260.000=307.746,261.000=307.710,262.000=307.746,263.000=307.710,264.000=307.746,265.000=307.710,266.000=307.746,267.000=307.710,268.000=307.746,269.000=307.710,270.000=307.746,271.000=307.710,272.000=307.746,273.000=307.710,274.000=307.746,275.000=307.710,276.000=307.746,277.000=307.710,278.000=307.746,279.000=307.710,280.000=307.746,281.000=307.710,282.000=307.746,283.000=307.710,284.000=307.746,285.000=307.710,286.000=307.746,287.000=307.710,288.000=307.746,289.000=307.710,290.000=307.746,291.000=307.710,292.000=307.746,293.000=307.710,294.000=307.746,295.000=307.710,296.000=307.746,297.000=307.710,298.000=307.746,299.000=307.710,300.000=307.746,301.000=307.710,302.000=307.746,303.000=307.710,304.000=307.746,305.000=307.710,306.000=307.746,307.000=307.710,308.000=307.746,309.000=307.710,310.000=307.746,311.000=307.710,312.000=307.746,313.000=307.710,314.000=307.746,315.000=307.710,316.000=307.746,317.000=307.710,318.000=307.746,319.000=307.710,320.000=307.746,321.000=307.710,322.000=307.746,323.000=307.710,324.000=307.746,325.000=307.710,326.000=307.746,327.000=307.710,328.000=307.746,329.000=307.710,330.000=307.746,331.000=307.710,332.000=307.746,333.000=307.710,334.000=307.746,335.000=307.710,336.000=307.746,337.000=307.710,339.000=307.746,341.000=307.710,342.000=307.746,343.000=307.710,344.000=307.746,345.000=307.710,346.000=307.746,347.000=307.710,348.000=307.746,349.000=307.710,350.000=307.746,351.000=307.710,353.000=307.746,354.000=307.710,355.000=307.746,356.000=307.710,357.000=307.746,359.000=307.710,360.000=307.746,361.000=307.710,362.000=307.746,363.000=307.710,364.000=307.746,365.000=307.710,366.000=307.746,367.000=307.710,369.000=307.746,370.000=307.710,371.000=307.746,372.000=307.710,373.000=307.746,374.000=307.710,375.000=307.746,377.000=307.710,378.000=307.746,379.000=307.710,380.000=307.746,381.000=307.710,383.000=307.746,384.000=307.710,385.000=307.746,386.000=307.710,387.000=307.746,388.000=307.710,389.000=307.746,390.000=307.710,391.000=307.746,392.000=307.710,393.000=307.746,395.000=307.710,396.000=307.746,397.000=307.710,399.000=307.746,400.000=307.710,401.000=307.746,402.000=307.710,403.000=307.746,404.000=307.710,405.000=307.746,406.000=307.710,407.000=307.746,408.000=307.710,409.000=307.746,410.000=307.710,411.000=307.746,412.000=307.710,413.000=307.746,414.000=307.710,415.000=307.746,416.000=307.710,417.000=307.746,418.000=307.710,419.000=307.746,420.000=307.710,421.000=307.746,422.000=307.710,423.000=307.746,424.000=307.710,425.000=307.746,426.000=307.710,427.000=307.746,428.000=307.710,429.000=307.746,430.000=307.710,431.000=307.746,432.000=307.710,433.000=307.746,434.000=307.710,435.000=307.746,436.000=307.710,437.000=307.746,438.000=307.710,439.000=307.746,440.000=307.710,441.000=307.746,442.000=307.710,443.000=307.746,444.000=307.710,446.000=307.746,447.000=307.710,448.000=300.000,451.000=290.004,452.000=280.000,454.000=270.000,456.000=259.998,458.000=250.000,462.000=240.000,463.000=230.007,465.000=220.005,467.000=210.000,469.000=200.000,471.000=190.004,473.000=180.000,475.000=170.008,476.000=169.997,477.000=160.005,478.000=159.995,479.000=160.005,480.000=150.000,481.000=140.000,484.000=129.999,485.000=130.005,486.000=120.000,487.000=110.002,488.000=109.998,489.000=110.002,490.000=100.000,492.000=95.002,493.000=85.001,494.000=84.998,495.000=75.000,496.000=72.501,497.000=70.000,498.000=65.001,499.000=60.000;
#STOPS:;
#BGCHANGES:;
// cache tags:
#FIRSTBEAT:0.000;
#LASTBEAT:498.875;
#SONGFILENAME:Songs/Index Gradation/PACEMAKER - [Owen71]/PACEMAKER.sm;
#HASMUSIC:1;
#HASBANNER:1;
#MUSICLENGTH:124.943;
// end cache tags

//---------------dance-single - ----------------
#NOTES:
     dance-single:
     :
     Challenge:
     32:
     1.000,1.000,0.008,0.216,1.000,1515.000,1.000,27.000,85.000,0.000:
1000
0100
0010
0001
0100
0001
1000
0010
0100
0001
0100
0010
1000
0100
1000
0001
,
0010
0100
1000
0001
0010
0001
0100
0010
1000
0010
0100
0001
1000
0100
0010
0001
,
1000
0001
0100
0010
1000
0010
0100
0001
0100
0010
1000
0001
0010
0100
0010
0001
,
1000
0100
1000
0001
0100
0010
1000
0010
0100
0001
0100
0010
1000
0001
0010
0100
,
1000
0001
0100
0001
1000
0100
0010
0100
1000
0001
0010
0001
0100
0010
1000
0010
,
0100
0001
1000
0100
1000
0001
0010
0001
0100
0010
1000
0010
0100
0001
1000
0001
,
0100
0010
1000
0010
0100
0001
1000
0100
1000
0010
0100
0001
1000
0001
0010
0100
,
1000
0001
0010
0001
0100
0010
1000
0010
0100
0001
1000
0100
1000
0001
0100
0010
,
0100
0001
1000
0100
0010
0001
0010
0100
4000
0004
0000
0000
00M0
0000
0000
0000
,
0M00
00M0
0M00
00M0
,
0M00
00M0
0M00
00M0
,
0M00
00M0
0M00
00M0
,
0M00
00M0
0M00
00M0
,
0M00
00M0
0M00
00M0
,
0M00
00M0
0M00
00M0
,
0M00
00M0
0M00
00M0
,
0M00
00M0
0M00
00M0
,
0M00
00M0
0M00
00M0
,
0M00
00M0
0M00
00M0
,
0M00
00M0
0M00
00M0
,
0M00
00M0
0M00
00M0
,
0M00
00M0
0M00
00M0
,
0M00
00M0
0M00
00M0
,
0M00
00M0
0M00
00M0
,
0M00
00M0
0M00
00M0
,
0M00
00M0
0M00
00M0
,
0M00
00M0
0M00
00M0
,
0M00
00M0
0M00
00M0
,
0M00
00M0
0M00
00M0
,
0M00
00M0
0M00
30M0
,
0000
0000
0000
0000
1003
0010
0100
0001
0100
0000
0010
0000
1000
0001
0100
0010
,
1000
0001
0100
0001
0010
0100
1000
0001
0010
0001
0100
0010
1000
0100
1000
0001
,
0010
0001
0100
0010
1000
0010
0100
0001
1000
0100
0010
0001
0100
0001
1000
0010
,
0100
0001
1000
0010
1000
0001
0100
0010
1000
0010
0100
0001
1000
0100
0010
0001
,
1000
0001
0100
0010
0100
0001
1000
0100
0010
0100
1000
0001
0010
0001
0100
0010
,
1000
0010
0100
0001
1000
0100
1000
0001
0010
0100
0010
0001
1000
0100
1000
0010
,
0100
0001
1000
0001
0100
0010
1000
0010
0100
0001
0100
0010
1000
0001
1000
0100
,
0010
0001
1000
0100
1000
0001
0010
0100
1000
0100
0010
0001
1000
0100
1000
0010
,
0100
0001
0100
0010
1000
0001
1000
0010
0100
0001
0100
0010
1000
0001
1000
0100
,
0010
0001
1000
0100
1000
0001
0100
0010
0100
0001
1000
0010
0100
0001
0100
0010
,
1000
0001
1000
0010
0100
0010
1000
0001
0100
0010
0100
0001
1000
0001
0100
0010
,
1000
0001
0010
0100
1000
0100
0010
0001
0100
0010
0100
0001
1000
0100
0010
0001
,
1000
0100
1000
0001
0100
0001
1000
0010
1000
0001
0100
0010
1000
0010
0100
0001
,
1000
0100
1000
0001
0010
0001
0100
0010
1000
0010
0100
0001
1000
0100
1000
0001
,
0010
0001
0100
0010
1000
0010
0100
0001
1000
0100
1000
0001
0010
0001
0100
0010
,
1000
0010
0100
0001
1000
0100
1000
0010
0100
0001
0100
0010
1000
0001
1000
0100
,
0010
0001
1000
0100
1000
0001
0100
0010
0100
0001
1000
0010
0200
0000
0000
0000
,
0000
0000
0302
0000
0000
0003
2000
0000
,
0000
3000
0000
0200
,
0000
0300
0020
0000
0000
0000
0000
0030
0002
0000
0000
0000
0000
0000
0000
0000
,
0000
0003
0000
0000
0000
0000
0000
0000
,
0000
0000
0000
0000
2000
0000
0000
0000
0000
0000
0000
3000
0020
0000
0000
0000
,
0000
0000
0000
0030
0200
0000
0000
0000
0000
0300
0000
0000
0002
0000
0000
0000
,
0000
0003
1000
0010
0200
0000
0000
0300
0002
0000
0000
0000
0000
0000
0000
0000
,
0000
0000
0000
0000
0003
0000
0000
0000
0000
0000
0000
0000
0000
0000
0000
0000
1000
0010
1000
0001
0100
0000
0010
0000
2000
0000
0000
0000
0000
0000
0000
0000
,
0000
0000
0000
0000
3200
0000
0000
0000
0000
0000
0000
0300
0020
0000
0000
0000
,
0000
0032
0003
2000
,
0000
3000
0020
0000
0000
0000
0030
0000
0200
0000
0000
0000
0000
0300
0002
0000
,
1003
0010
0100
0000
0001
0000
1000
0010
0100
0001
1000
0000
0100
0010
0000
0001
,
1000
0000
0010
0100
0002
0000
0000
0000
0000
0000
0000
0003
2000
0000
0000
0000
,
0000
0000
0000
3000
0020
0000
0000
0000
0000
0000
0030
0000
0200
0000
0000
0000
,
0000
0300
0002
0000
0000
0000
0000
0003
2000
0000
0000
0000
0000
3000
0020
0000
,
0130
0000
0000
0000
0001
0000
1000
0000
0010
0000
0100
0000
0001
0000
1000
0000
0001
0100
0010
1000
0010
0000
0100
0000
0001
0000
1000
0000
0001
0000
0100
0000
,
0010
1000
0010
0100
0001
1000
0100
1000
0010
0100
0010
1000
0001
0100
0001
0010
,
0100
1000
0001
0010
0001
0100
0010
1000
0010
0100
0001
1000
0010
1000
0001
0100
,
0010
1000
0010
0100
0001
1000
0100
0010
0001
1000
0100
1000
0010
0100
0001
0100
,
0010
1000
0001
1000
0010
0100
0010
1000
0001
0100
0001
0010
0100
1000
0001
0010
,
0001
0100
0010
1000
0010
0100
0001
1000
0010
1000
0100
0010
0001
1000
0100
1000
,
0001
0010
0001
0100
0010
1000
0010
0100
0001
1000
0100
1000
0010
0100
0010
1000
,
0001
0100
0001
0010
0100
1000
0100
0010
0001
1000
0010
1000
0001
0100
0001
1000
,
0010
0100
0010
1000
0001
0100
0001
0010
0100
1000
0100
0010
0001
1000
0100
1000
,
0001
0100
0010
1000
0010
0100
0001
1000
0100
1000
0010
0100
0001
0100
0010
1000
,
0001
1000
0100
0010
0001
1000
0100
1000
0010
0100
0001
0100
0010
1000
0001
1000
,
0010
0100
0010
1000
0001
0100
0010
1000
0010
0100
0001
1000
0100
0010
0001
1000
,
0100
1000
0010
0100
0001
1000
0001
0100
0010
1000
0010
0100
0001
1000
0100
1000
,
0010
0100
0010
1000
0001
0100
0001
0010
0100
1000
0001
0010
0001
0100
0010
1000
,
0010
0100
0001
1000
0010
1000
0001
0100
0010
1000
0010
0100
0001
1000
0100
0010
,
0001
1000
0100
1000
0010
0100
0001
0100
0010
1000
0001
1000
0010
0100
0010
1000
,
0001
0100
0001
0010
0100
1000
0001
0010
0001
0100
0010
1000
0010
0100
0001
1000
,
0010
1000
0100
0010
0001
1000
0100
1000
0001
0010
0001
0100
0010
1000
0010
0100
,
0001
1000
0100
1000
0010
0100
0010
1000
0001
0100
0001
0010
0100
1000
0100
0010
,
0001
1000
0010
1000
0001
0100
0001
1000
0010
0100
0010
1000
0001
0100
0001
0010
,
0100
1000
0100
0010
0001
1000
0100
1000
0001
0100
0010
1000
0010
0100
0001
1000
,
0100
1000
0010
0100
0001
0100
0010
1000
0001
1000
0100
0010
0001
1000
0100
1000
,
0010
0100
0001
0100
0010
1000
0001
1000
0010
0100
0010
1000
0001
0100
0010
1000
,
0010
0100
0001
1000
0100
0010
0001
1000
0100
1000
0010
0100
0001
1000
0001
0100
,
0010
1000
0010
0100
0001
1000
0100
1000
0010
0100
0010
1000
0001
0100
0001
0010
,
0100
1000
0001
0010
0001
0100
0010
1000
0010
0100
0001
1000
0010
1000
0001
0100
,
0010
1000
0010
0100
0001
1000
0100
0010
0001
1000
0100
1000
0010
0100
0001
0100
,
0010
1000
0001
1000
0010
0100
0010
1000
0001
0100
0001
0010
0100
1000
0001
0010
,
0001
0100
0010
1000
0010
0100
0001
1000
0010
1000
0100
0010
0001
1000
0100
1000
,
0001
0010
0001
0100
0010
1000
0010
0100
0001
1000
0100
1000
0010
0100
0010
1000
,
0001
0100
0001
0010
0100
1000
0100
0010
0001
1000
0010
1000
0001
0100
0001
1000
,
0010
0100
0010
1000
0001
0100
0001
0010
0100
1000
0100
0010
0001
1000
0100
1000
,
0001
0100
0010
1000
0010
0100
0001
1000
0100
1000
0010
0100
0001
0100
0010
1000
,
0001
1000
0100
0010
0001
1000
0100
1000
0010
0100
0001
0100
0010
1000
0001
1000
,
0010
0100
0010
1000
0001
0100
0010
1000
0010
0100
0001
1000
0100
0010
0001
1000
,
0100
1000
0010
0100
0001
1000
0001
0100
0010
1000
0010
0100
0001
1000
0100
1000
,
0010
0100
0010
1000
0001
0100
0001
0010
0100
1000
0001
0010
0001
0100
0010
1000
,
0010
0100
0001
1000
0010
1000
0001
0100
0010
1000
0010
0100
0001
1000
0100
0010
,
0001
1000
0100
1000
0010
0100
0001
0100
0010
1000
0001
1000
0010
0100
0010
1000
,
0001
0100
0001
0010
0100
1000
0001
0010
0001
0100
0010
1000
0010
0100
0001
1000
,
0010
1000
0100
0010
0001
1000
0100
1000
0001
0010
0001
0100
0010
1000
0010
0100
,
0001
1000
0100
1000
0010
0100
0010
1000
0001
0100
0001
0010
0100
1000
0100
0010
,
0001
1000
0010
1000
0001
0100
0001
1000
0010
0100
0010
1000
0001
0100
0001
0010
,
0100
1000
0100
0010
0001
1000
0100
1000
0001
0100
0010
1000
0010
0100
0001
1000
,
0100
1000
0010
0100
0001
0100
0010
1000
0001
1000
0100
0010
0001
1000
0100
1000
,
0010
0100
0001
0100
0010
1000
0001
1000
0010
0100
0010
1000
0001
0100
0010
1000
,
0010
0100
0001
1000
0100
0010
0001
1000
0100
1000
0010
0100
0001
1000
0001
0100
,
0010
1000
0010
0100
0001
1000
0100
1000
0010
0100
0010
1000
0001
0100
0001
0010
,
0100
1000
0001
0010
0001
0100
0010
1000
0010
0100
0001
1000
0010
1000
0001
0100
,
0010
1000
0010
0100
0001
1000
0100
0010
0001
1000
0100
1000
0010
0100
0001
0100
,
0010
1000
0001
1000
0010
0100
0010
1000
0001
0100
0001
0010
0100
1000
0001
0010
,
0001
0100
0010
1000
0010
0100
0001
1000
0010
1000
0100
0010
0001
1000
0100
1000
,
0001
0010
0001
0100
0010
1000
0010
0100
0001
1000
0100
1000
0010
0100
0010
1000
,
0001
0100
0001
0010
0100
1000
0100
0010
0001
1000
0010
1000
0001
0100
0001
1000
,
0010
0100
0010
1000
0001
0100
0001
0010
0100
1000
0100
0010
0001
1000
0100
1000
,
0001
0100
0010
1000
0010
0100
0001
1000
0100
1000
0010
0100
0001
0100
0010
1000
,
0001
1000
0100
0010
0001
1000
0100
1000
0010
0100
0001
0100
0010
1000
0001
1000
,
0010
0100
0010
1000
0001
0100
0010
1000
0010
0100
0001
1000
0100
0010
0001
1000
,
0100
0000
0000
1000
0000
0000
0010
0000
0000
0100
0000
0000
0001
0000
1000
0000
0010
0000
1000
0000
0001
0000
0100
0000
0010
0000
1000
0000
0010
0000
0100
0000
0001
0000
1000
0000
0100
0000
1000
0000
0010
0000
0100
0000
0001
0000
1000
0000
,
0010
0000
0000
0000
0100
0000
0000
0000
0010
0000
0000
0000
1000
0000
0000
0000
0001
0000
0000
0000
1000
0000
0000
0000
0100
0000
0000
0000
0010
0000
0000
0000
0001
0000
0000
0000
1000
0000
0000
0000
0010
0000
0000
0000
1000
0000
0000
0000
0001
0000
0000
0100
0000
0000
0010
0000
0000
1000
0000
0000
0010
0000
0000
0100
0000
0000
0001
0000
0000
1000
0000
0000
0100
0000
0000
1000
0000
0000
0010
0000
0000
0100
0000
0000
0001
0000
0000
1000
0000
0000
0001
0000
0000
0100
0000
0000
,
0010
1000
0010
0100
0001
1000
0100
1000
0010
0100
0001
1000
0100
1000
0001
0010
0001
0100
0010
1000
0010
0100
0001
1000
0100
1000
0010
0100
0010
1000
0001
0100
,
0001
0010
0100
1000
0001
0010
0001
0100
0010
1000
0010
0100
0001
1000
0010
1000
0001
0100
0010
1000
0001
0010
0100
0010
0001
1000
0100
1000
0010
0100
0001
1000
,
0100
1000
0010
0100
0001
1000
0001
0100
0010
1000
0010
0100
0001
1000
0100
1000
0010
0100
0001
1000
0100
0010
0001
1000
0000
0000
0000
0000
0000
0000
0000
0000
,
0000
0000
0000
0000
,
0000
0000
0000
0000
;
