#TITLE:Bringer of Plagues;
#SUBTITLE:;
#ARTIST:Divine Heresy;
#TITLETRANSLIT:;
#SUBTITLETRANSLIT:;
#ARTISTTRANSLIT:;
#CREDIT:MURDER.V01DKeng07;
#BANNER:Plagues-bn.png;
#BACKGROUND:Plagues-bg.png;
#LYRICSPATH:;
#CDTITLE:Murder-cd-title.png;
#MUSIC:Bringer of Plagues.ogg;
#OFFSET:-0.016;
#SAMPLESTART:23.645;
#SAMPLELENGTH:11.700;
#SELECTABLE:YES;
#BPMS:0.000=255.000,404.000=270.000,464.000=228.000,626.000=255.000,770.000=270.000;
#STOPS:;
#BGCHANGES:0.000=Plagues-bg.png=1.000=0=0=1,
99999=-nosongbg-=1.000=0=0=0 // don't automatically add -songbackground-
;
// cache tags:
#FIRSTBEAT:4.000;
#LASTBEAT:891.000;
#SONGFILENAME:Songs/SSSC Pack 2/Bringer of Plagues - [VO1D]/Bringer of Plagues.sm;
#HASMUSIC:1;
#HASBANNER:1;
#MUSICLENGTH:218.409;
// end cache tags

//---------------dance-single - V01DKeng07----------------
#NOTES:
     dance-single:
     V01DKeng07:
     Challenge:
     17:
     1.000,1.000,0.101,0.160,1.000,2327.000,22.000,35.000,21.000,0.000:

0000
0000
0000
0000
,
0020
0000
0000
0000
0130
0001
0100
0001
0100
0010
1000
0010
1000
0001
1000
0001
,
1000
0100
1000
0100
0010
0001
0010
0001
2000
0000
0000
0000
3020
0000
0000
0000
,
0130
0000
0000
0000
0010
1000
0001
1000
0001
0010
0001
0010
0100
1000
0100
1000
,
0001
1000
0001
0100
0010
1000
0010
1000
0001
1000
0001
1000
0200
0000
0000
0000
,
0310
0000
0000
0000
0001
0010
0001
0010
0100
1000
0100
1000
0001
1000
0001
0100
,
0010
1000
0010
1000
0010
0100
0001
0100
0002
0000
0000
0000
0023
0000
0000
0000
,
0031
0000
0000
0000
1000
0010
1000
0010
0100
0001
0100
0001
0100
0010
1000
0010
,
1000
0001
1000
0001
1000
0001
0010
0001
0010
0100
1000
0100
2000
0000
0000
0000
,
3010
0000
0000
0000
0100
0010
0100
0010
1000
0001
1000
0001
1000
0001
0010
0001
,
0010
0100
1000
0100
1000
0100
0010
0001
0010
0001
1000
0001
1000
0001
0100
0001
,
0100
0010
1000
0010
1000
0010
0100
0010
0100
0001
0100
0001
1000
0001
1000
0001
,
1000
0001
0010
0001
0010
0100
1000
0100
1000
0100
0010
0001
0010
0100
1000
0001
,
1000
0001
0100
0010
1000
0010
1000
0001
1000
0001
0010
0001
0010
0001
0010
0100
,
1000
0100
1000
0100
0010
0100
0010
0100
1000
0100
1000
0100
1000
0001
1000
0001
,
0100
0001
0100
0001
0100
0010
0100
0010
0100
0010
1000
0010
1000
0001
1000
0001
,
1000
0001
1000
0001
1000
0001
0010
0001
0010
0100
1000
0100
2000
0000
0000
0000
,
3001
0100
0001
0100
0001
0100
0001
0100
0010
1000
0010
0100
0001
1000
0001
1000
,
0001
1000
0001
0010
0001
0010
0100
1000
0100
0000
0010
0001
1000
0001
0100
0001
,
0100
0010
1000
0010
1000
0001
1000
0001
0010
0100
1000
0001
0010
0100
1000
0001
,
1000
0001
0100
0010
0100
0001
1000
0001
1000
0000
0000
0000
MMMM
0000
0000
0000
,
0001
0010
0001
0010
0001
0000
0000
0000
1000
0001
1000
0001
1000
0000
0000
0000
,
0010
0100
0010
0100
0010
0000
0000
0000
1010
0000
0000
0000
1000
0001
1000
0001
,
1000
0000
0000
0000
0011
0000
0000
0000
0001
0010
0100
1000
0001
0000
0000
0000
,
1000
0100
0010
0001
1000
0000
0000
0000
0010
0100
0010
0100
0001
0000
0000
0000
,
1000
0001
1000
0001
0010
0000
0000
0000
0100
1000
0100
1000
0001
0000
0000
0000
,
0100
0010
0100
0010
1000
0000
0000
0000
1001
0000
0000
0000
0001
0100
0001
0100
,
0010
0000
0000
0000
1010
0000
0000
0000
1000
0001
1000
0001
0010
0000
0000
0000
,
0001
0010
0001
0010
0001
0000
0000
0000
1000
0010
1000
0010
1000
0000
0000
0000
,
0001
1000
0001
1000
0001
0000
0000
0000
0010
0100
1000
0100
0010
0000
0000
0000
,
0001
1000
0001
1000
0001
0000
0000
0000
0110
0000
0000
0000
1000
0001
1000
0001
,
1000
0000
0000
0000
0011
0000
0000
0000
0010
0100
0010
0100
0010
0000
0000
0000
,
0100
1000
0100
1000
0100
0000
0000
0000
1000
0001
1000
0001
1000
0000
0000
0000
,
0010
0100
0010
0100
0010
0000
0000
0000
0100
0001
0100
0001
0100
0000
0000
0000
,
0010
1000
0010
1000
0010
0000
0000
0000
1001
0000
0000
0000
1000
0100
1000
0100
,
1000
0000
0000
0000
0011
0000
0000
0000
0001
1000
0001
1000
0010
0000
0000
0000
,
1000
0001
1000
0001
0010
0000
0000
0000
0100
1000
0100
1000
0001
0000
0000
0000
,
0201
0000
0000
0000
0310
0000
1000
0000
0001
0000
1000
0000
0100
0000
0010
0001
,
0010
0000
0001
0000
1000
0000
0010
0000
0100
0000
0001
0000
0100
0000
0010
1000
,
0010
1000
0001
1000
0100
1000
0020
0000
,
0130
0001
0100
0001
0100
0001
0100
0001
0100
0001
0100
0001
0100
0000
0010
0000
,
1000
0001
0010
0100
1000
0100
0010
0001
,
0010
0000
0100
0000
1000
0000
0001
0000
0100
0000
0010
0000
1000
0000
0001
1000
,
0001
0000
0010
0000
0001
0000
1000
0000
0010
0000
0100
0000
0001
1000
0001
1000
,
0001
0000
0010
0001
0010
0000
0001
1000
0001
0100
0010
0100
0010
1000
0001
1000
,
0002
0000
0000
0000
0013
0000
0001
0000
1000
0000
0010
0000
0100
0000
0001
1000
,
0001
0010
0100
1000
0010
0100
0001
0100
,
0010
0000
1000
0000
0001
0000
1000
0000
0100
0000
0010
0001
0020
0000
0000
0000
,
0031
1000
0001
1000
0001
1000
0001
1000
0001
1000
0001
1000
0001
0000
0100
0000
,
0010
0000
1000
0000
0100
0000
1000
0000
0001
0000
0100
0000
0010
0000
1000
0010
,
1000
0000
0001
0000
0010
0000
0100
0000
1000
0000
0001
0000
1000
0000
0100
0010
,
0100
1000
0001
0100
0010
1000
0001
0010
,
0001
0000
1000
0000
0100
0000
1000
0000
0010
0100
0010
0100
0020
0000
0000
0000
,
2030
0000
0000
0000
3001
0010
0001
0010
0100
1000
0100
1000
0001
1000
0001
0100
,
0010
0100
0010
0100
0001
1000
0001
1000
0200
0000
0000
0000
2300
0000
0000
0000
,
3010
0000
M00M
0000
0100
0010
0100
0010
0100
0001
1000
0001
1000
0001
0010
0001
,
0010
0100
1000
0100
1000
0001
1000
0001
0100
0010
1000
0001
2000
0000
0000
0000
,
3001
0000
MM00
0000
0010
0001
0010
0100
1000
0100
0010
0001
1000
0001
1000
0001
,
0100
0010
1000
0010
1000
0001
1000
0100
2000
0000
0000
0000
3200
0000
0000
0000
,
0310
0000
MM00
0000
0001
0010
0001
0010
0100
1000
0100
1000
0001
1000
0001
0100
,
0001
0100
0010
0100
0010
1000
0010
1000
0001
1000
0001
1000
0002
0000
0000
0000
,
0013
0000
0000
0000
0001
1000
0001
1000
0010
1000
0010
1000
0010
0100
0010
0100
,
0001
0100
0001
1000
0001
1000
0001
0010
0100
1000
0001
0010
0100
1000
0100
1000
,
0100
0010
0001
0010
0001
1000
0001
1000
0001
0100
0010
0100
0010
1000
0001
1000
,
0001
1000
0100
1000
0100
0010
0100
0010
0001
0010
0001
0010
0100
1000
0100
1000
,
0001
1000
0001
0100
0001
0100
0010
1000
0010
0100
0001
1000
0001
1000
0001
0010
,
0001
0010
0100
1000
0100
1000
0001
1000
0001
0100
0010
0100
0010
1000
0001
1000
,
0001
0010
0001
0010
0100
1000
0100
1000
0100
0010
0100
0010
0100
1000
0100
1000
,
0001
1000
0001
0100
0001
0100
0010
0100
0010
1000
0001
1000
0002
0000
0000
0000
,
1003
0100
1000
0100
1000
0000
0010
0000
0100
0001
0100
0001
0100
0000
0010
0000
,
1000
0001
1000
0001
1000
0000
0001
0000
0010
0000
0001
0000
1000
0010
1000
0010
,
0100
0000
0001
0000
0100
0000
0010
0000
1000
0001
1000
0001
0010
0000
0000
0000
,
0100
1000
0100
1000
0001
0000
0000
0000
0100
0010
0100
0001
0100
0000
0000
0000
,
0010
1000
0001
1000
0001
0000
0010
0000
0001
1000
0001
1000
0010
0000
0100
0000
,
0010
1000
0010
1000
0001
0000
1000
0000
0100
0000
0010
0000
0001
0010
0001
1000
,
0001
0000
0100
0000
0010
0000
1000
0000
0001
1000
0001
1000
0100
0000
0010
0000
,
0001
0010
0001
0010
0100
0000
0000
0000
1000
0001
1000
0001
0100
0000
0000
0000
,
0010
1000
0001
1000
0001
0000
0010
0000
0001
1000
0001
0100
0010
0000
0100
0000
,
0010
1000
0010
1000
0001
0000
1000
0000
0100
0000
1000
0000
0010
1000
0010
1000
,
0001
0000
0010
0000
0001
0000
0010
0000
0100
1000
0100
1000
0001
0000
1000
0000
,
0100
1000
0001
1000
0001
0000
0000
0000
0100
0010
0100
0010
0100
0000
0000
0000
,
0001
1000
0001
1000
0100
0000
0010
0000
0001
0010
0001
1000
0001
0000
0100
0000
,
0010
1000
0001
1000
0001
0000
0010
0000
0001
0000
1000
0000
0010
1000
0010
1000
,
0010
0000
0100
0000
0001
0000
0100
0000
0010
1000
0001
1000
0001
0000
1000
0000
,
0100
1000
0100
1000
0001
0000
0100
0000
0010
0100
0010
0100
0001
0000
0000
0000
,
1020
0000
0000
0000
0130
0000
0001
0000
1000
0000
0001
0000
0010
0000
0100
1000
,
0100
0000
1000
0000
0001
0000
0100
0000
0010
0000
1000
0000
0010
0000
0100
0001
,
0100
0001
1000
0001
0010
0001
0200
0000
,
0310
1000
0010
1000
0010
1000
0010
1000
0010
1000
0010
1000
0010
0000
0100
0000
,
0001
1000
0100
0010
0001
0010
0100
1000
,
0100
0000
0010
0000
0001
0000
1000
0000
0010
0000
0100
0000
0001
0000
1000
0001
,
1000
0000
0100
0000
1000
0000
0001
0000
0100
0000
0010
0000
1000
0001
1000
0001
,
1000
0000
0100
1000
0100
0000
1000
0001
1000
0010
0100
0010
0100
0001
1000
0001
,
2000
0000
0000
0000
3100
0000
1000
0000
0001
0000
0100
0000
0010
0000
1000
0001
,
1000
0100
0010
0001
0100
0010
1000
0010
,
0100
0000
0001
0000
1000
0000
0001
0000
0010
0000
0100
1000
0200
0000
0000
0000
,
1300
0001
1000
0001
1000
0001
1000
0001
1000
0001
1000
0001
1000
0000
0010
0000
,
0100
0000
0001
0000
0010
0000
0001
0000
1000
0000
0010
0000
0100
0000
0001
0100
,
0001
0000
1000
0000
0100
0000
0010
0000
0001
0000
1000
0000
0001
0000
0010
0100
,
0010
0001
1000
0010
0100
0001
1000
0100
,
1000
0001
0100
0010
1000
0001
0010
0001
,
1001
1000
0010
0100
0001
1000
0001
0010
,
0100
1000
0100
0010
0001
0010
1000
0010
,
0001
0100
0010
1000
0010
0100
0001
1000
,
0001
0010
0001
1000
0100
1000
0001
0100
,
0010
0001
0010
1000
0001
1000
0001
0010
,
0100
1000
0100
0001
0100
1000
0001
0100
,
0010
1000
0001
1000
0100
0010
0100
1000
,
0100
0010
0001
1000
0001
0100
0010
1000
,
0001
0010
0001
1000
0100
1000
0001
0100
,
0010
1000
0001
0010
0001
1000
0100
1000
,
0001
1000
0100
1000
0001
0100
0010
1000
,
0001
0010
0001
1000
0001
0100
0010
1000
,
0001
0010
0100
1000
0100
0010
0001
1000
,
0001
0100
0010
1000
0001
1000
0100
0010
,
0011
0000
M000
0M00
00M0
000M
00M0
0M00
,
M001
0000
0100
0000
0010
0000
1000
0000
0001
1000
0100
0010
0001
0010
0001
0000
,
1000
0000
0010
0000
0100
0000
0001
1000
0001
0000
1000
0100
1000
0000
0010
1000
,
0010
0000
0100
0001
0100
0000
0001
1000
0001
0000
1000
0100
1000
0000
0100
0010
,
0100
0000
0010
0001
0010
0000
0001
1000
0001
0000
1000
0100
1000
0000
0010
1000
,
0010
0000
0100
0001
0200
0000
0000
0000
0310
1000
0001
1000
0001
1000
0001
0000
,
0010
0000
0001
0000
1000
0000
0010
0100
0010
0000
1000
0001
1000
0000
0001
0010
,
0001
0000
0010
0100
0010
0000
0100
1000
0100
1000
0001
1000
0010
0100
0001
1000
,
0001
0010
0001
0010
0001
0010
0100
1000
0100
1000
0001
1000
0010
0100
0001
0100
,
0010
1000
0001
1000
0001
0000
0010
0000
0001
0010
0001
0010
0100
1000
0100
1000
,
0001
1000
0001
0100
0010
0100
0010
1000
0001
1000
0001
1000
0001
1000
0100
1000
,
0100
0010
0100
0010
0100
1000
0001
1000
0001
0100
0001
0100
0010
1000
0010
1000
,
0001
0100
0001
0100
0010
1000
0010
1000
0001
0100
0001
0100
0010
1000
0001
1000
,
0100
0010
0001
1000
0100
0010
0001
1000
0001
1000
0001
0010
0100
1000
0001
1000
,
0001
0100
0010
0100
0010
1000
0010
1000
0001
1000
0001
0010
0100
1000
0100
1000
,
0001
0100
0001
0100
0010
1000
0010
1000
0001
1000
0100
1000
0100
0010
0001
1000
,
0001
0100
0010
0100
0001
1000
0001
1000
0100
1000
0100
1000
0001
0100
0010
1000
,
0010
0100
0001
1000
0001
0010
0100
1000
0001
0000
0100
0000
0010
0000
2000
0000
,
0000
0000
3001
0000
0010
0000
0100
0000
1000
0000
0001
0100
0001
0100
0001
0100
,
0001
0000
1000
0001
1000
0001
1000
0001
1000
0000
0100
0000
0010
0000
0200
0000
,
0000
0000
1300
0000
0001
0000
0100
0000
0010
0000
1000
0001
1000
0001
1000
0001
,
1000
0000
0100
1000
0100
1000
0001
1000
0001
0000
1000
0000
0100
0000
2000
0000
,
0000
0000
3010
0000
0100
0000
0001
0000
1000
0000
0001
0010
0001
0010
0001
0010
,
0001
0000
1000
0010
1000
0010
1000
0010
1000
0000
0001
0000
1000
0000
0002
0000
,
0000
0000
0013
0000
0100
0000
1000
0000
0001
0000
0100
0001
0100
0001
0100
0001
,
0100
0000
0010
1000
0010
0000
1000
0000
0001
1000
0100
1000
0100
0010
0001
0010
,
0001
1000
0001
1000
0010
0100
0001
0100
0004
1000
0000
1000
0000
1000
0000
1000
,
0000
1000
0000
1000
0000
1003
0010
0100
0010
1000
0001
1000
0001
0000
1000
0000
,
0100
1000
0100
1000
0001
0100
0001
0100
0040
1000
0000
1000
0000
1000
0000
1000
,
0000
1000
0000
1000
0000
1000
0030
0100
0001
1000
0001
1000
0001
0000
0010
0000
,
0100
1000
0001
1000
0001
0100
0001
0100
0040
0100
0000
0100
0000
0100
0000
0100
,
0000
0100
0000
0100
0000
0100
0030
0100
0001
1000
0100
1000
0100
0000
0010
0000
,
0001
1000
0001
1000
0001
1000
0001
1000
0400
1000
0000
1000
0000
1000
0000
1000
,
0000
1000
0000
1000
0000
1000
0300
0010
0001
1000
0001
1000
0010
0000
0100
0000
,
0001
0100
0001
0100
0010
1000
0010
1000
0004
1000
0000
1000
0000
1000
0000
1000
,
0000
1000
0000
1000
0000
1000
0003
1000
0100
0010
0001
0010
0001
0000
1000
0000
,
0010
0100
0010
0100
0001
1000
0001
1000
0400
0010
0000
0010
0000
0010
0000
0010
,
0000
0010
0000
0010
0000
0010
0300
1000
0001
0100
0010
0100
0001
0000
0100
0000
,
0010
1000
0001
1000
0100
0010
0001
0010
0004
0010
0000
0010
0000
0010
0000
0010
,
0000
0010
0000
0010
0000
0010
0003
1000
0001
1000
0010
0100
0001
0000
0100
0000
,
0010
1000
0010
1000
0001
0100
0001
0100
0040
1000
0000
1000
0000
1000
0000
1000
,
0000
1000
0000
1000
0000
1000
0030
0100
0001
0100
0001
0100
0001
0100
0001
0100
,
0010
1000
0010
0100
0001
1000
0001
1000
0001
1000
0001
0010
0001
0010
0100
1000
,
0100
0000
0010
0001
1000
0001
0100
0001
0100
0010
1000
0010
1000
0001
1000
0001
,
0010
0100
1000
0001
0010
0100
1000
0001
1000
0001
0100
0010
0100
0001
1000
0001
,
1000
0000
0000
0000
MMMM
0000
0000
0000
0001
0010
0001
0010
0001
0000
0000
0000
,
1000
0001
1000
0001
1000
0000
0000
0000
0010
0100
0010
0100
0010
0000
0000
0000
,
1010
0000
0000
0000
1000
0001
1000
0001
1000
0000
0000
0000
0011
0000
0000
0000
,
0001
0010
0100
1000
0001
0000
0000
0000
1000
0100
0010
0001
1000
0000
0000
0000
,
0010
0100
0010
0100
0001
0000
0000
0000
1000
0001
1000
0001
0010
0000
0000
0000
,
0100
1000
0100
1000
0001
0000
0000
0000
0100
0010
0100
0010
1000
0000
0000
0000
,
1001
0000
0000
0000
0001
0100
0001
0100
0010
0000
0000
0000
1010
0000
0000
0000
,
1000
0001
1000
0001
0010
0000
0000
0000
0001
0010
0001
0010
0001
0000
0000
0000
,
1000
0010
1000
0010
1000
0000
0000
0000
0001
1000
0001
1000
0001
0000
0000
0000
,
0010
0100
1000
0100
0010
0000
0000
0000
0001
1000
0001
1000
0001
0000
0000
0000
,
0110
0000
0000
0000
1000
0001
1000
0001
1000
0000
0000
0000
0011
0000
0000
0000
,
0010
0100
0010
0100
0010
0000
0000
0000
0100
1000
0100
1000
0100
0000
0000
0000
,
1000
0001
1000
0001
1000
0000
0000
0000
0010
0100
0010
0100
0010
0000
0000
0000
,
0100
0001
0100
0001
0100
0000
0000
0000
0010
1000
0010
1000
0010
0000
0000
0000
,
1001
0000
0000
0000
1000
0100
1000
0100
1000
0000
0000
0000
0011
0000
0000
0000
,
0001
1000
0001
1000
0010
0000
0000
0000
1000
0001
1000
0001
0010
0000
0000
0000
,
0100
1000
0100
1000
0001
0000
0000
0000
1020
0000
0000
0000
0130
0000
0001
0000
,
1000
0000
0001
0000
0010
0000
0100
1000
0100
0000
1000
0000
0001
0000
0100
0000
,
0010
0000
1000
0000
0010
0000
0100
0001
0100
0000
0001
0000
1000
0000
0001
0000
,
0010
0000
0001
0000
0200
0000
0000
0000
0310
1000
0010
1000
0010
1000
0010
1000
,
0010
1000
0010
1000
0010
0000
0100
0000
0001
0000
1000
0000
0100
0000
0010
0000
,
0001
0010
0100
1000
0100
0010
0001
1000
,
0010
0000
0100
0000
0001
0000
1000
0001
1000
0000
0100
0000
1000
0000
0001
0000
,
0100
0000
0010
0000
1000
0001
1000
0001
1000
0000
0100
1000
0100
0000
1000
0001
,
1000
0010
0100
0010
0100
0001
1000
0001
2000
0000
0000
0000
3100
0000
1000
0000
,
0001
0000
0100
0000
0010
0000
1000
0001
1000
0000
0100
0000
0010
0000
0001
0000
,
0100
0010
1000
0010
0100
0001
1000
0001
,
0010
0000
0100
1000
0200
0000
0000
0000
1300
0001
1000
0001
1000
0001
1000
0001
,
1000
0001
1000
0001
1000
0000
0010
0000
0100
0000
0001
0000
0010
0000
0001
0000
,
1000
0000
0010
0000
0100
0000
0001
0100
0001
0000
1000
0000
0100
0000
0010
0000
,
0001
0000
1000
0000
0001
0000
0010
0100
0010
0000
0001
0000
1000
0000
0010
0000
,
0100
0001
1000
0100
1000
0001
0010
0001
,
1000
0010
0100
0001
1000
0001
0100
0010
,
1000
0001
1000
0100
0010
0001
0010
0100
,
1000
0100
0001
0100
1000
0010
0100
0001
,
0100
0010
1000
0001
1000
0100
1000
0001
,
0010
0001
1000
0010
0100
1000
0100
0001
,
1000
0001
1000
0100
0010
0001
0010
1000
,
0010
0001
1000
0010
0100
0001
1000
0001
,
0010
0100
0010
0001
0010
0100
1000
0001
,
1000
0010
0100
0001
1000
0100
1000
0001
,
0010
0001
1000
0010
0100
0001
1000
0100
,
1000
0001
0010
0001
1000
0001
0010
0001
,
1000
0010
0100
0001
1000
0100
1000
0001
,
1000
0010
0100
0001
1000
0100
0010
0001
,
0010
0100
1000
0001
1000
0010
0100
0001
,
1000
0000
0001
0000
0010
0000
0100
0000
1000
0001
1000
0000
0010
0000
0100
0000
,
0001
0100
0001
0000
1000
0000
0100
0000
0010
0000
0001
0000
0010
0000
0100
0000
,
1000
0001
0100
0010
0100
0010
1000
0001
,
1000
0100
0010
0001
0010
0100
1000
0001
,
0100
0001
1000
0010
1000
0100
0010
0001
,
0010
0100
1000
0001
0100
0010
0100
0001
,
0100
0010
1000
0001
1000
0100
0010
0001
,
0010
0100
1000
0001
0100
0001
1000
0010
,
1000
0001
1000
0100
0010
0001
0010
0001
,
0010
0100
1000
0001
1000
0001
0100
0010
,
1000
0001
1000
0100
0010
0001
0010
0100
,
0010
0001
1000
0001
0100
0010
1000
0010
,
0100
0001
0100
0010
1000
0001
1000
0100
,
0010
0001
1000
0010
0100
0001
0100
0010
,
1000
0001
0010
0100
0010
0001
0100
0010
,
1000
0010
0100
0001
1000
0001
0010
0100
,
1000
0001
1000
0010
0200
0000
0300
0000
;
