#TITLE:桜 Unlimited;
#SUBTITLE:(Toasted MixX);
#ARTIST:RevenG vs. Z;
#TITLETRANSLIT:SAKURA Unlimited;
#SUBTITLETRANSLIT:;
#ARTISTTRANSLIT:;
#CREDIT:;
#BANNER:SAKUnl.png;
#BACKGROUND:SAKUnl-bg.png;
#LYRICSPATH:;
#CDTITLE:!hiryuu.png;
#MUSIC:SAKUnl.mp3;
#OFFSET:-1.077;
#SAMPLESTART:1.077;
#SAMPLELENGTH:26.683;
#SELECTABLE:YES;
#DISPLAYBPM:*;
#BPMS:0.000=360.000,160.000=336.000,192.000=360.000,288.000=168.000,296.000=384.100;
#STOPS:;
#BGCHANGES:;
// cache tags:
#FIRSTBEAT:32.000;
#LASTBEAT:557.500;
#SONGFILENAME:Songs/toune 2/SAKUnl/SAKUnl.sm;
#HASMUSIC:1;
#HASBANNER:1;
#MUSICLENGTH:94.119;
// end cache tags

//---------------dance-single - ----------------
#NOTES:
     dance-single:
     :
     Challenge:
     12:
     1.000,1.000,1.000,0.127,0.053,702.000,98.000,12.000,0.000,0.000:
0000
0000
0000
0000
,
0000
0000
0000
0000
,
0000
0000
0000
0000
,
0000
0000
0000
0000
,
0000
0000
0000
0000
,
0000
0000
0000
0000
,
0000
0000
0000
0000
,
0000
0000
0000
0000
,
1000
0010
0100
0001
,
1000
0000
0010
0000
0100
0010
0100
0000
,
0001
0100
0010
1000
,
0010
0000
0100
0000
0010
0100
0010
1000
,
0010
0100
0001
1000
,
0010
0100
0011
1100
,
0101
0000
0000
1010
0000
0000
0110
0000
,
0001
0100
0010
1000
0010
0100
0001
0100
,
0001
0000
0100
0020
0000
1030
0000
0010
,
0100
0000
0010
2000
0000
3010
0000
0100
,
0001
0000
0100
0002
0000
1003
0000
0001
,
1000
0001
1000
0001
1000
0001
1000
0001
,
0100
0000
0010
2000
0000
3010
0000
0100
,
0001
0000
0100
0020
0000
1030
0000
0001
,
0100
0000
0010
2000
0000
3010
0000
0100
,
0010
0100
0010
0000
1000
0001
1000
0000
,
0001
0000
0100
1010
0000
0010
0100
0001
,
1000
0000
0010
0101
0000
0010
1000
0010
,
0100
0000
0001
0110
0000
0010
1000
0001
,
1000
0100
1000
0000
0001
0010
0001
0000
,
0100
0000
0010
1100
0000
0010
0100
0001
,
0100
0000
0001
0110
0000
0010
0100
0001
,
1000
0000
0010
0101
0000
0010
1000
0000
,
0001
0100
0001
0000
1000
0010
1000
0000
,
0001
0100
0001
0100
0000
0110
0000
0010
,
1000
0010
1000
0010
0000
1010
0000
0010
,
0100
0010
0100
0010
0000
0110
0000
0001
,
1000
0010
0100
0000
0001
0100
0010
0000
,
1000
0100
1000
0100
0000
1100
0000
0001
,
0010
0001
0010
0001
0000
0011
0000
1000
,
0001
1000
0001
1000
0000
1001
0000
0001
,
0100
0001
0010
0000
1000
0010
0100
0000
,
0001
0100
0000
0100
0001
0000
0001
1000
,
0000
1000
0010
0000
0110
0000
1001
0000
,
1000
0010
0000
0010
0100
0000
0100
0001
,
0000
0001
0100
0000
0110
0000
1001
0000
,
0001
0100
0000
0100
0010
0000
0010
1000
,
0000
1000
0100
0000
1100
0000
0011
0000
,
0001
0100
0000
0100
0010
0000
0010
1000
,
0000
1000
0010
0100
0001
0100
0010
1000
,
0001
0100
0010
1000
,
0010
0100
0001
1000
,
0010
0100
0001
1000
,
0010
0000
0100
0000
0001
0100
0010
0000
,
1000
0010
0100
0001
,
0100
0010
1000
0100
,
1000
0000
0001
0000
0010
0000
0100
1000
,
0100
0010
1000
0010
0100
0001
0100
0010
,
0000
0000
0010
0100
0000
0100
0001
0000
,
0001
1000
0000
1000
0110
0000
0110
0000
,
1001
0000
0001
0100
0000
0100
0010
0000
,
0010
1000
0000
1000
1010
0000
1010
0000
,
0101
0000
0001
0100
0000
0100
0001
0000
,
0001
1000
0000
1000
0110
0000
0110
0000
,
0011
0000
0000
0110
0000
0000
1100
0000
,
0000
0001
0100
0010
1000
0010
0100
0010
,
1000
0010
0100
0010
,
0100
0001
0010
0001
,
0100
0010
1000
0010
,
0100
0001
1000
0010
,
1000
0010
0100
0000
0001
0100
0010
0000
,
0100
0010
1000
0000
0010
0100
0001
0000
,
0100
0010
1000
0010
0100
0000
0101
0000
,
0010
0001
0100
0010
1000
0010
0100
0010
,
0000
0000
0100
0010
0000
0010
0100
0000
0100
0001
0000
0001
1000
0000
0010
0100
,
0001
0000
0100
0010
0000
0010
1000
0000
1000
0010
0000
0010
0100
0000
0100
0010
,
1010
0000
0010
0110
0000
0100
0001
0100
,
0101
0000
0100
0110
0000
0010
1000
0010
,
0110
0000
0001
0011
0000
0100
0010
1000
,
0010
0200
0020
0000
0000
0000
0330
0000
,
0011
0000
0100
0110
0000
0010
1000
0010
,
1100
0000
0010
0011
0000
0100
0010
1000
,
1010
0000
0010
0110
0000
0100
0001
1000
,
0010
0100
0010
0000
0001
1000
0001
0000
,
1100
0000
0100
0110
0000
0001
0100
0010
,
0101
0000
0100
0110
0000
0010
1000
0010
,
1100
0000
0100
0101
0000
0001
0101
0000
,
1000
0010
0100
0000
0001
0100
0010
0000
,
1010
0000
0100
0101
0000
0010
1000
0010
,
0110
0000
0010
1010
0000
0100
0001
0100
,
0011
0000
0100
0110
0000
0010
1010
0000
,
0100
0010
1000
0000
0010
0100
0001
0000
,
1000
0010
0100
0001
,
0100
0000
0010
0000
0100
0010
1000
0000
,
0001
0100
0010
1000
,
0010
0000
0100
0000
0001
0100
0010
0100
,
0010
1000
0001
0100
,
0010
0000
1000
0000
0010
0100
0001
0000
,
1010
0000
0100
0110
0000
0000
0011
0000
,
0110
0000
0100
1100
0000
0000
0011
0000
,
0100
0010
1000
0001
,
0100
0000
0010
0000
1000
0010
0100
0000
,
0001
0100
0010
1000
,
0010
0000
0100
0000
0001
1000
0001
0100
,
0010
1000
0001
0100
,
0010
0000
1000
0000
0010
0100
0001
0000
,
0101
0000
0100
0110
0000
0000
1010
0000
,
1100
0000
1000
1010
0000
0000
0101
0000
,
1000
0100
1000
0100
0000
0000
1100
0000
,
0001
0010
0001
0010
0000
0000
0011
0000
,
0100
0010
0100
0010
0000
0000
1000
0001
,
0100
0002
2000
0000
0000
0000
3003
0000
,
0001
0100
0001
0100
0000
0000
0110
0000
,
1000
0010
1000
0010
0000
0000
1001
0000
,
0100
0001
0100
0001
0000
0000
0110
0000
,
1000
0010
0100
0000
0001
0100
0010
0000
,
1000
0100
0010
0001
0000
0000
0011
0000
,
0001
0010
0100
1000
0000
0000
1100
0000
,
0100
0001
0000
0001
0100
0000
0100
0010
,
1000
0010
0100
0000
0001
0100
0010
0000
,
1000
0010
0100
0001
0000
0000
0101
0000
,
0001
0100
0010
1000
0000
0000
1010
0000
,
0010
0100
0000
0100
0001
0000
0001
1000
,
0100
0010
0100
0000
0001
1000
0001
0000
,
1000
0010
1000
0000
0010
0100
0010
0000
,
0001
0100
0001
0000
0100
0010
0100
0000
,
1000
0010
1000
0000
0001
0100
0001
0000
,
0100
0010
0100
0000
1000
0010
1000
0000
,
0001
0100
0010
0100
0001
0100
0010
0000
,
1000
0010
1000
0010
0100
0010
1000
0000
,
0101
0000
0100
0110
0000
0000
1010
0000
,
1100
0000
0100
0110
0000
0000
0011
0000
,
1001
0000
0000
1000
0011
0000
0000
0001
,
1100
0000
0000
1000
0001
0100
0001
0010
,
0110
0000
0000
0100
0011
0000
0000
0010
,
1100
0000
0000
0100
0010
1000
0001
0010
,
0100
0010
0100
0010
0100
0001
0010
0001
,
0010
1000
0100
1000
0100
0001
1000
0001
,
1000
1010
0000
0101
0000
0110
0000
0100
,
0010
1000
0001
0100
0010
0100
0001
2002
,
0000
0000
0000
0000
,
0000
0000
0000
3003
0000
0000
0000
0000
;

//---------------dance-single - ----------------
#NOTES:
     dance-single:
     :
     Hard:
     10:
     0.855,0.963,1.000,0.085,0.021,448.000,107.000,8.000,0.000,0.000:
0000
0000
0000
0000
,
0000
0000
0000
0000
,
0000
0000
0000
0000
,
0000
0000
0000
0000
,
0000
0000
0000
0000
,
0000
0000
0000
0000
,
0000
0000
0000
0000
,
0000
0000
0000
0000
,
1000
0010
0100
0010
,
1000
0010
0100
0010
,
0100
0001
0010
0001
,
0100
0001
0010
0001
,
1000
0010
0100
0001
,
0010
0100
0001
1000
,
0110
0000
0000
0101
0000
0000
1010
0000
,
0001
0100
0001
0000
1000
0010
1000
0000
,
0001
0000
0101
0000
0000
0100
0000
1000
,
0100
0000
1100
0000
0000
0010
0000
0100
,
0001
0000
0011
0000
0000
0100
0000
0001
,
2002
0000
0000
3003
,
0100
0000
0110
0000
0000
0010
0000
0100
,
0001
0000
0101
0000
0000
0100
0000
0010
,
1000
0000
1100
0000
0000
0010
0000
0100
,
0110
0000
1001
0000
,
0001
0100
0010
1000
,
0010
0000
0110
0000
,
1000
0010
0100
0001
,
1000
0000
1001
0000
,
0001
0100
0010
0000
,
1000
0010
0100
0000
,
0001
0100
0010
1000
,
0010
0100
0100
0100
,
0001
0100
0010
1000
,
0001
1000
0110
0000
,
0010
0100
0001
1000
,
0010
0000
0100
0001
0100
0000
0010
0000
,
1000
0010
1000
0010
,
0001
0100
0001
0100
,
0001
0010
0100
1000
,
0100
0011
0110
1010
,
0110
0000
0000
1010
0000
0000
0110
0000
,
0000
0101
0000
0000
0001
0000
1000
0000
,
1100
0000
0000
0011
0000
0000
0110
0000
,
0000
1001
0000
0000
0010
0000
0100
0000
,
0011
0000
0000
1100
0000
0000
0110
0000
,
0000
0011
0000
0000
1000
0000
0001
0000
,
1100
0000
0000
0011
0000
0000
1100
0000
,
0001
0100
0010
1000
,
0001
0010
0001
0010
,
0100
1000
0100
1000
,
0001
0010
0001
0010
,
0100
0010
0110
0000
,
1000
0100
1000
0100
,
0010
0001
0010
0001
,
1000
0100
1000
0001
,
1000
0001
1001
0000
,
0000
0000
0101
0000
0000
1001
0000
0000
,
0101
0000
0000
0011
0000
0000
0101
0000
,
0000
0000
1100
0000
0000
1010
0000
0000
,
1100
0000
0000
1001
0000
0000
1100
0000
,
0011
0000
0110
0000
0000
1010
0000
0000
,
0110
0000
0000
0101
0000
0000
0110
0000
,
0000
0000
1001
0000
0000
0101
0000
0000
,
1001
0000
0000
1010
0000
0000
1001
0000
,
0001
0100
0001
0100
,
0001
0100
0101
0000
,
1000
0010
1000
0010
,
1000
0010
1010
0000
,
0010
0100
0001
0100
,
0010
1000
0010
0100
,
0001
0010
0100
1000
,
0001
0100
0010
1000
,
0000
0000
0001
0000
0000
0100
0000
0000
0010
0000
0000
1000
0000
0000
0001
0000
,
0000
0000
0100
0000
0000
0010
0000
0000
1000
0000
0000
0001
0000
0000
0100
0000
,
0001
0000
0000
0101
0000
0000
0000
0000
,
1000
0000
0000
1010
0000
0000
0000
0000
,
0001
0000
0000
1001
0000
0000
0001
0000
,
1000
0000
0220
0000
0000
0000
0000
0330
,
0010
0000
0000
1010
0000
0000
0000
0000
,
0100
0000
0000
0101
0000
0000
0000
0000
,
0001
0000
0000
1001
0000
0000
0000
0000
,
1000
0010
0100
0001
,
0010
0000
0000
0110
0000
0000
0000
0000
,
1000
0000
0000
1001
0000
0000
0000
0000
,
0101
0000
0000
1010
0000
0000
0110
0000
,
0010
0100
0000
0000
,
0010
0000
0000
1010
0000
0000
0000
0000
,
0100
0000
0000
0101
0000
0000
0000
0000
,
0101
0000
0000
1010
0000
0000
1001
0000
,
0001
1000
0000
0000
,
1000
0010
0100
0010
,
1000
0010
0100
0010
,
0100
0001
0100
0010
,
0100
0001
0100
0010
,
1000
0001
1000
0001
,
0100
0010
1000
0001
,
0100
0000
0000
0101
0000
0000
0001
0000
,
1000
0000
0000
1010
0000
0000
0010
0000
,
0100
0001
0100
0010
,
0100
0001
0100
0010
,
1000
0100
1000
0010
,
1000
0100
1000
0010
,
0100
0001
1000
0010
,
0100
0001
1000
0010
,
0100
0000
0000
0110
0000
0000
0010
0000
,
1000
0000
0000
1001
0000
0000
0001
0000
,
0100
0000
0000
0110
0000
0000
0010
0000
,
1000
0000
0000
1010
0000
0000
0010
0000
,
0100
0000
0000
0101
0000
0000
0001
0000
,
1000
0000
2002
0000
0000
0000
0000
3003
,
0001
0000
0000
0101
0000
0000
0100
0000
,
0010
0000
0000
1010
0000
0000
1000
0000
,
0010
0000
0000
0110
0000
0000
0100
0000
,
0001
0101
0100
0110
,
0010
0000
0000
1010
0000
0000
1000
0000
,
0010
0000
0000
1010
0000
0000
0100
0000
,
0101
0000
0000
0110
0000
0000
1001
0000
,
0001
0100
0010
1000
,
0001
0000
0000
0101
0000
0000
0100
0000
,
0010
0000
0000
1010
0000
0000
1000
0000
,
1010
0000
0000
0101
0000
0000
0110
0000
,
0010
0100
0001
1000
,
0010
0100
0001
1000
,
0010
0000
0100
0000
0001
0010
0001
0000
,
0010
0001
0100
0010
,
1000
0000
0010
0000
0100
0010
1000
0001
,
1000
0001
1000
0001
,
0100
0010
0001
0000
1000
0100
0010
0000
,
0001
0000
0000
0101
0000
0000
1000
0000
,
0010
0000
0000
1010
0000
0000
0100
0000
,
0101
0000
0000
0100
0001
0000
0000
0100
,
0001
0000
0000
0100
0001
0000
0000
1000
,
1010
0000
0000
1000
0010
0000
0000
1000
,
0010
0000
0000
1000
0010
0000
0000
0100
,
0000
0010
0000
0100
0000
0010
0000
1000
,
0000
0001
0000
1000
0000
0001
0000
1001
,
0000
1001
0000
1001
0000
1001
0000
0001
,
0000
0100
0000
0010
0000
1000
0000
2002
,
0000
0000
0000
0000
,
0000
0000
0000
3003
0000
0000
0000
0000
;

//---------------dance-single - ----------------
#NOTES:
     dance-single:
     :
     Medium:
     8:
     0.551,0.814,0.329,0.085,0.021,324.000,31.000,8.000,0.000,0.000:
0000
0000
0000
0000
,
0000
0000
0000
0000
,
0000
0000
0000
0000
,
0000
0000
0000
0000
,
0000
0000
0000
0000
,
0000
0000
0000
0000
,
0000
0000
0000
0000
,
0000
0000
0000
0000
,
1000
0000
0010
0000
,
1000
0000
0010
0000
,
0100
0000
0001
0000
,
0100
0001
0100
0000
,
0010
0000
0100
0000
,
0001
0000
1000
0000
,
0010
0000
0000
0100
0000
0000
0010
0000
,
0100
0001
1000
0010
,
0100
0000
0100
0000
0000
0100
0000
0000
,
0010
0000
0010
0000
0000
0010
0000
0000
,
1000
0000
1000
0000
0000
0001
0000
0000
,
2002
0000
0000
3003
,
0100
0000
0100
0000
0000
0100
0000
0000
,
0001
0000
0001
0000
0000
0001
0000
0000
,
1000
0000
1000
0000
0000
0010
0000
0000
,
0110
0000
1001
0000
,
0001
0000
0010
0000
,
0001
0010
0001
0000
,
1000
0000
0100
0000
,
1000
0100
1000
0000
,
0001
0000
0100
0000
,
0010
0000
1000
0000
,
0001
0000
0100
0010
,
1000
0000
1001
0000
,
0001
0100
0001
0000
,
0100
0000
0010
0000
,
1000
0100
1000
0000
,
0010
0000
0100
0000
,
0001
0000
0100
0000
,
0010
0000
1000
0000
,
0001
0010
0001
0000
,
1000
0100
1000
0000
,
0010
0000
0000
0010
0000
0000
0010
0000
,
0000
0000
0110
0000
,
1000
0000
0000
1000
0000
0000
1000
0000
,
0000
0000
1001
0000
,
0001
0000
0000
0100
0000
0000
0010
0000
,
0000
0000
1100
0000
,
1000
0000
0000
0100
0000
0000
0010
0000
,
0000
0010
0100
1000
,
0001
0000
0001
0000
,
1000
0000
1000
0000
,
0001
0010
0001
0000
,
0101
0000
0000
0000
,
0100
0000
0100
0000
,
0010
0000
0010
0000
,
0100
0001
0100
0000
,
0110
0000
1001
0000
,
0000
0000
0001
0000
0000
0001
0000
0000
,
0001
0000
0000
0010
0000
0000
0100
0000
,
0000
0000
1000
0000
0000
1000
0000
0000
,
1000
0000
0000
0100
0000
0000
0010
0000
,
0000
0000
0010
0000
0000
0010
0000
0000
,
0010
0000
0000
0100
0000
0000
1000
0000
,
0000
0000
0100
0000
0000
0100
0000
0000
,
0100
0000
0000
0010
0000
0000
0001
0000
,
1000
0001
1000
0000
,
0010
0100
0010
0000
,
1000
0010
1000
0010
,
1000
0000
0010
0000
,
0001
0100
0001
0000
,
1000
0010
1000
0000
,
0100
0010
0100
0010
,
0100
0000
0010
0000
,
0000
0000
0001
0000
0000
0001
0000
0000
0001
0000
0000
0001
0000
0000
0001
0000
,
0000
0000
1000
0000
0000
1000
0000
0000
1000
0000
0000
1000
0000
0000
1000
0000
,
0001
0000
0000
0001
0000
0000
0000
0000
,
1000
0000
0000
1000
0000
0000
0000
0000
,
0001
0000
0000
1000
0000
0000
0010
0000
,
0200
0000
0020
0000
0000
0000
0000
0330
,
0010
0000
0000
0010
0000
0000
0000
0000
,
0100
0000
0000
0100
0000
0000
0000
0000
,
0001
0000
0000
1000
0000
0000
0000
0000
,
1010
0000
0101
0000
,
0010
0000
0000
0010
0000
0000
0000
0000
,
1000
0000
0000
1000
0000
0000
0000
0000
,
0001
0000
0000
0010
0000
0000
0100
0000
,
1000
0100
0000
0000
,
0010
0000
0000
0010
0000
0000
0000
0000
,
0100
0000
0000
0100
0000
0000
0000
0000
,
0001
0000
0000
0100
0000
0000
0010
0000
,
1000
0010
0000
0000
,
1000
0000
0100
0000
,
1000
0100
1000
0000
,
0001
0000
0100
0000
,
0001
0010
0001
0000
,
1000
0000
0001
0000
,
0100
0010
0100
0000
,
0010
0000
0000
0010
0000
0000
0000
0000
,
0100
0000
0000
0100
0000
0000
0000
0000
,
0100
0000
0001
0000
,
0100
0001
0100
0000
,
1000
0000
0100
0000
,
1000
0100
1000
0000
,
0100
0000
0010
0000
,
0100
0010
0100
0000
,
0001
0000
0000
0001
0000
0000
0000
0000
,
1000
0000
0000
1000
0000
0000
0000
0000
,
0100
0000
0000
0110
0000
0000
0000
0000
,
1000
0000
0000
1010
0000
0000
0000
0000
,
0100
0000
0000
0101
0000
0000
0001
0000
,
2000
0000
0002
0000
0000
0000
0000
3003
,
0001
0000
0000
0101
0000
0000
0000
0000
,
0010
0000
0000
1010
0000
0000
0000
0000
,
0010
0000
0000
0110
0000
0000
0000
0000
,
0001
0100
0001
0100
,
0010
0000
0000
1010
0000
0000
0000
0000
,
0010
0000
0000
1010
0000
0000
0000
0000
,
0010
0000
0000
0110
0000
0000
0100
0000
,
0001
1000
0000
0000
,
0001
0000
0000
0101
0000
0000
0000
0000
,
0010
0000
0000
1010
0000
0000
0000
0000
,
1000
0000
0000
1001
0000
0000
1000
0000
,
0010
0100
0000
0000
,
0010
0100
0010
0000
,
1000
0001
1000
0000
,
0001
0010
0001
0000
,
1000
0100
1000
0000
,
1000
0001
1000
0001
,
0100
0010
0100
0010
,
0100
0000
0000
0101
0000
0000
0000
0000
,
0010
0000
0000
1010
0000
0000
0000
0000
,
0101
0000
0001
0000
,
0001
0000
0001
0000
,
1010
0000
0010
0000
,
0010
0000
0000
0000
0010
0000
0000
1001
,
0000
0000
0000
0001
0000
0000
0000
0110
,
0000
0000
0000
0100
0000
0000
0000
0001
,
0000
1000
0000
0001
0000
1000
0000
0001
,
0000
0100
0000
0010
0000
1000
0000
2002
,
0000
0000
0000
0000
,
0000
0000
0000
3003
0000
0000
0000
0000
;

//---------------dance-single - ----------------
#NOTES:
     dance-single:
     :
     Easy:
     5:
     0.364,0.592,0.266,0.149,0.000,201.000,25.000,14.000,0.000,0.000:
0000
0000
0000
0000
,
0000
0000
0000
0000
,
0000
0000
0000
0000
,
0000
0000
0000
0000
,
0000
0000
0000
0000
,
0000
0000
0000
0000
,
0000
0000
0000
0000
,
0000
0000
0000
0000
,
1000
0000
0000
0000
,
1000
0000
0000
0000
,
0001
0000
0000
0000
,
0001
0000
0000
0000
,
0100
0000
0000
0000
,
0100
0000
0000
0000
,
0010
0000
0000
0000
,
0010
0000
0000
0000
,
1000
0000
1000
0000
,
0010
0000
0010
0000
,
0100
0000
0100
0000
,
0002
0000
0003
0000
,
0010
0000
0010
0000
,
0100
0000
0100
0000
,
1000
0000
1000
0000
,
2000
0000
3000
0000
,
0001
0000
0000
0000
0000
0010
0000
0000
,
0001
0000
0000
0000
0000
0010
0000
0000
,
0001
0000
0000
0000
0000
0010
0000
0000
,
0001
0000
0001
0000
,
1000
0000
0000
0000
0000
0100
0000
0000
,
1000
0000
0000
0000
0000
0100
0000
0000
,
1000
0000
0000
0000
0000
0100
0000
0000
,
1000
0000
0001
0000
,
0100
0100
0000
0000
,
0010
0010
0000
0000
,
1000
1000
0000
0000
,
0001
0010
0001
0000
,
0010
0010
0000
0000
,
0100
0100
0000
0000
,
1000
1000
0000
0000
,
0010
1000
0010
0000
,
0100
0000
0000
0100
,
0000
0000
0110
0000
,
1000
0000
0000
1000
,
0000
0000
1001
0000
,
0001
0000
0000
0010
,
0000
0000
1100
0000
,
1000
0000
0000
0010
,
0000
0000
0011
0000
,
0001
0000
0001
0000
,
1000
0000
1000
0000
,
0001
0000
1000
0000
,
0001
0000
1000
0000
,
0100
0000
0100
0000
,
0010
0000
0010
0000
,
0100
0000
0010
0000
,
0100
0000
0010
0000
,
0000
0001
0000
0000
,
0001
0000
0000
0100
,
0000
1000
0000
0000
,
1000
0000
0000
0010
,
0000
0001
0000
0000
,
0010
0000
0000
1000
,
0000
0100
0000
0000
,
0010
0000
0000
0001
,
1000
0000
1000
0000
,
0010
0000
0010
0000
,
0100
0000
0100
0000
,
0001
0000
0000
0000
,
0001
0000
0001
0000
,
0010
0000
0010
0000
,
0100
0000
0100
0000
,
1000
0000
0000
0000
,
0000
0002
0000
0000
0000
0000
0003
0000
,
0000
2000
0000
0000
0000
0000
3000
0000
,
0001
0000
0000
0000
,
0001
0000
0000
0000
,
0001
0000
0000
0000
,
2002
0000
0000
3003
,
0100
0000
0000
0000
,
0100
0000
0000
0000
,
0100
0000
0000
0000
,
0220
0000
0000
0330
,
0001
0000
0000
0000
,
0100
0000
0000
0000
,
0010
0000
0000
0000
,
1000
0000
0000
0000
,
0001
0000
0000
0000
,
0010
0000
0000
0000
,
0100
0000
0000
0000
,
1000
0000
0000
0000
,
1000
0000
1000
0000
,
0010
0000
0010
0000
,
0100
0000
0100
0000
,
0001
0000
0001
0000
,
1000
0000
1000
0000
,
0100
0000
0100
0000
,
0010
0000
0010
0000
,
0001
0000
0001
0000
,
1000
0000
0001
0000
,
1000
0000
0001
0000
,
0100
0000
0010
0000
,
0100
0000
0010
0000
,
1000
0000
0010
0000
,
0001
0000
0100
0000
,
1000
0000
1000
0000
,
0001
0000
0001
0000
,
1001
0000
0000
0000
,
1010
0000
0000
0000
,
0101
0000
0000
0000
,
2002
0000
0000
3003
,
0011
0000
0000
0000
,
0110
0000
0000
0000
,
1010
0000
0000
0000
,
0220
0000
0000
0330
,
1010
0000
0000
0000
,
0011
0000
0000
0000
,
0010
0000
0100
0000
,
0110
0000
0000
0000
,
0011
0000
0000
0000
,
1010
0000
0000
0000
,
1000
0000
0001
0000
,
1001
0000
0000
0000
,
0010
0000
0010
0000
,
1000
0000
1000
0000
,
0001
0000
0001
0000
,
0100
0000
0100
0000
,
0001
0000
0001
0000
,
1000
0000
1000
0000
,
0001
0000
0000
0000
,
1000
0000
0000
0000
,
1001
0000
0000
0000
,
0000
0000
0000
0000
,
0110
0000
0000
0000
,
0000
0000
0000
0000
0000
0000
0000
1001
,
0000
0000
0000
0000
0000
0000
0000
0110
,
0000
0000
0000
0000
0000
0000
0000
0001
,
0000
0000
0000
0010
0000
0000
0000
0100
,
0000
0000
0000
1000
0000
0000
0000
2002
,
0000
0000
0000
0000
,
0000
0000
0000
3003
0000
0000
0000
0000
;
