#TITLE:Clear Your Mind;
#SUBTITLE:;
#ARTIST:TaQ;
#TITLETRANSLIT:;
#SUBTITLETRANSLIT:;
#ARTISTTRANSLIT:;
#CREDIT:;
#BANNER:clearyourmind-banner.png;
#BACKGROUND:clearyourmind-bg.png;
#LYRICSPATH:;
#CDTITLE:renb.png;
#MUSIC:Clear Your Mind.mp3;
#OFFSET:0.069;
#SAMPLESTART:63.900;
#SAMPLELENGTH:17.150;
#SELECTABLE:YES;
#BPMS:0.000=77.500,51.000=155.000,275.000=77.500,283.000=155.000,343.000=77.500,344.000=310.000,348.000=155.000,482.000=77.500,486.000=38.750,502.000=77.500,523.000=155.000,781.000=77.500,782.000=310.000,786.000=155.000,866.000=77.500;
#STOPS:655.000=0.122
,655.500=0.122
,656.000=0.122
,656.500=0.387
;
#BGCHANGES:;
// cache tags:
#FIRSTBEAT:24.000;
#LASTBEAT:908.000;
#SONGFILENAME:Songs/Community Keyboard Megapack - Volume 1/(Ren) Clear Your Mind/clear your mind.sm;
#HASMUSIC:1;
#HASBANNER:1;
#MUSICLENGTH:421.799;
// end cache tags

//---------------dance-single - ----------------
#NOTES:
     dance-single:
     :
     Hard:
     10:
     0.782,1.000,0.296,0.102,0.865,2142.000,125.000,43.000,0.000,0.000:  // measure 1
0000
0000
0000
0000
,  // measure 2
0000
0000
0000
0000
,  // measure 3
0000
0000
0000
0000
,  // measure 4
0000
0000
0000
0000
,  // measure 5
0000
0000
0000
0000
,  // measure 6
0000
0000
0000
0000
,  // measure 7
1000
0001
1000
0001
,  // measure 8
1000
0000
0001
0000
1000
0000
0002
0003
,  // measure 9
1000
0000
0001
0000
1000
0000
0002
0003
,  // measure 10
1000
0000
0001
0000
1000
0000
0002
0003
,  // measure 11
1000
0000
0001
0000
1000
0000
0002
0003
,  // measure 12
1000
0000
0001
0000
1000
0000
0002
0003
,  // measure 13
0020
0030
0200
0300
2000
3000
1001
0000
,  // measure 14
0001
1000
1000
0001
,  // measure 15
1000
0001
1000
0110
,  // measure 16
0010
0100
0100
0010
,  // measure 17
0100
0010
0100
1001
,  // measure 18
1000
0001
0001
0100
,  // measure 19
0010
0100
0010
0110
,  // measure 20
0100
0010
0010
1000
,  // measure 21
0001
0000
1000
0000
0001
0001
0001
0100
,  // measure 22
1000
0100
0001
0100
1000
0100
1000
0100
,  // measure 23
0001
0100
1000
0100
0001
0100
0001
0010
,  // measure 24
1000
0010
0001
0010
1000
0010
1000
0010
,  // measure 25
0001
0010
1000
0010
0001
0010
0110
0100
,  // measure 26
1000
0010
0001
0010
1000
0100
0010
0001
,  // measure 27
0100
1000
0100
0001
0010
1000
0010
0001
,  // measure 28
0100
1000
0100
0001
0010
0100
1000
0010
,  // measure 29
0001
0010
1000
0100
0001
0001
0001
0100
,  // measure 30
1010
0010
1000
0010
1000
0010
1000
0010
,  // measure 31
0101
0100
0001
0100
0001
0100
0001
0100
,  // measure 32
0011
0010
0001
0010
0001
0010
0001
0010
,  // measure 33
1100
0100
1000
0100
1000
0100
1000
0100
,  // measure 34
1001
0000
0100
0010
1001
0000
0001
0010
,  // measure 35
1100
0000
0000
0000
1000
0000
0010
0000
0101
0000
0000
0000
1000
0100
1000
0000
,  // measure 36
0100
0000
0010
0000
0001
0100
0001
0000
0100
0000
0010
0000
1000
0010
1000
0000
,  // measure 37
0001
0010
0001
0000
1000
0010
1000
0000
0001
0010
0001
0000
1000
0000
0010
0000
,  // measure 38
0010
0000
0100
0001
0000
0000
1000
0000
0000
0000
1000
0000
0001
0000
0010
0000
,  // measure 39
0010
0000
0100
1000
0000
0000
0001
0000
0000
0000
0001
0000
0100
0000
1000
0000
,  // measure 40
0100
0000
0001
1000
0000
0000
1000
0000
0000
0000
1000
0000
0100
0000
0001
0000
,  // measure 41
0100
0000
1000
0001
0000
0000
0001
0000
0000
0000
0010
0000
0100
0000
1000
0000
,  // measure 42
1100
0000
0010
0002
0000
0000
1003
0000
0000
0000
0010
0000
0100
0000
0001
0000
,  // measure 43
0101
0000
0010
2000
0000
0000
3001
0000
0000
0000
0001
0000
0010
0000
0100
0000
,  // measure 44
0001
0000
0100
2000
0000
0000
3010
0000
0000
0000
1000
0000
0010
0000
0100
0000
,  // measure 45
1000
0000
0100
0002
0000
0000
0013
0000
0000
0000
0100
0000
1000
0000
0010
0000
,  // measure 46
0011
0000
0010
2000
0000
0000
3001
0000
0000
0000
0100
0000
0001
0000
0010
0000
,  // measure 47
1010
0000
0010
0002
0000
0000
1003
0000
0000
0000
0010
0000
1000
0000
0100
0000
,  // measure 48
0101
0000
0100
2000
0000
0000
3001
0000
0000
0000
0010
0000
0001
0000
0100
0000
,  // measure 49
1100
0000
0100
0002
0000
0000
1003
0000
0000
0000
1001
0000
0010
0000
0100
0000
,  // measure 50
0001
0000
0010
0100
0000
0100
1000
0000
0001
0000
1001
0000
0010
0000
0100
0000
,  // measure 51
1000
0000
0010
0100
0000
0100
0001
0000
1000
0000
0011
0000
1000
0000
0001
0000
,  // measure 52
1100
0000
0010
0100
0000
0001
1000
0000
0101
0000
1010
0000
0001
0000
1000
0000
,  // measure 53
0101
0000
0010
0100
0000
1000
0001
0000
1100
0000
0011
0000
1000
0001
1000
0000
,  // measure 54
1000
0000
0010
0000
0010
0100
0010
0000
0100
0000
0001
0000
0001
0010
0001
0000
,  // measure 55
0010
0000
0100
0000
0100
1000
0100
0000
1000
0000
0010
0000
0100
0001
0000
1000
,  // measure 56
0010
0000
1000
0000
0100
0010
0000
0001
1000
0000
1000
0000
0010
1000
0000
0001
,  // measure 57
0010
0000
0100
0000
1000
0001
0000
0100
1000
0000
0100
0000
0010
1000
0010
0000
,  // measure 58
0100
0000
0001
0000
0001
1000
0001
0000
0100
0000
0010
0000
0010
1000
0010
0000
,  // measure 59
1000
0000
0100
0000
0100
0010
0100
0000
1000
0000
1000
0000
0010
0100
0000
0100
,  // measure 60
0001
0000
1000
0000
1000
0001
0000
0001
1000
0000
0010
0000
0100
0001
0000
0001
,  // measure 61
0010
0000
0100
0000
1000
0010
1000
0010
1000
0010
1000
0010
1000
0000
0001
0000
,  // measure 62
0010
0000
0100
1000
0000
0001
0100
0001
0100
0000
0001
0000
1000
0000
0100
0000
,  // measure 63
0010
0000
0001
1000
0000
0010
0100
0010
0100
0000
0010
0000
1000
0000
0100
0000
,  // measure 64
0001
0000
0100
0010
0000
0001
0010
0001
0010
0000
0100
0000
1000
0000
0001
0000
,  // measure 65
0100
0000
0001
0010
0000
0100
1000
0100
1000
0000
0010
0000
0100
0000
0001
0000
,  // measure 66
0100
0000
0010
1000
0000
0001
0010
0100
1000
0000
0010
0000
0100
0000
0001
0000
,  // measure 67
0010
0000
0001
0010
0000
0100
1000
0001
0010
0000
0100
0000
0010
0000
0001
0000
,  // measure 68
1000
0000
0010
0100
0000
0010
1000
0001
0100
0000
0001
0000
1000
0100
0010
0001
,  // measure 69
0100
0000
0010
0000
1000
0000
0100
0000
0010
0000
0001
0000
0100
0000
0010
0000
1000
0000
0100
0000
0010
0000
0001
0000
1000
0001
1000
0001
0000
1000
0001
0010
,  // measure 70
0000
0000
0000
0001
0010
0100
1000
0001
0000
0100
0001
0100
0000
0010
1000
0001
0000
0000
0000
0001
0010
0100
1000
0100
0000
1000
0100
1000
0000
0100
0010
0001
,  // measure 71
0000
0000
0000
1000
0100
0001
0100
1000
0000
0010
0100
0010
0000
0001
0100
0010
0000
0000
0000
1000
0010
0100
0001
0100
0010
0000
0100
0000
0010
0000
1000
0000
,  // measure 72
0000
0001
0100
0010
0000
0000
0010
0100
0001
0010
0100
0010
0000
0100
1000
0100
,  // measure 73
0000
0100
0010
0001
0000
0000
0010
0100
1000
0100
1000
0010
0000
1000
0010
0100
,  // measure 74
0000
0100
0001
0010
0000
0000
0001
0010
0100
0001
0100
0001
0000
0100
1000
0001
,  // measure 75
0000
0001
1000
0010
0000
0000
1000
0010
0100
0010
0100
0010
0000
0100
0001
0100
,  // measure 76
0000
0010
1000
0001
0000
0000
1000
0001
0010
0001
0010
0001
0000
0001
1000
0100
,  // measure 77
0000
0010
0100
1000
0000
0000
0001
0100
0010
0100
1000
0100
0000
0100
0010
1000
,  // measure 78
0000
1000
0001
0010
0000
0000
0100
1000
0100
0001
0100
1000
0000
1000
0001
1000
,  // measure 79
0000
0010
0100
0010
0000
0000
0001
1000
0010
0100
0001
0010
1001
0000
0010
0000
,  // measure 80
1001
0000
1000
0000
0010
0100
0001
1000
0100
0000
0010
0000
0101
0000
0010
0000
,  // measure 81
1100
0000
0001
0000
0100
0010
1000
0001
0010
0000
0100
0000
1010
0000
0100
0000
,  // measure 82
0011
0000
1000
0000
1000
0001
0100
0001
0100
0000
0010
0000
0011
0000
1000
0000
,  // measure 83
1100
0000
0100
0000
0010
0001
0100
0010
0100
0000
0001
0000
1000
0100
0010
0000
,  // measure 84
0001
0000
0100
0000
0010
0100
0001
0000
0100
0000
0010
0000
1000
0001
0100
0000
,  // measure 85
0010
0000
0100
0000
0001
0010
0100
0000
1000
0000
0010
0000
0100
0001
1000
0000
,  // measure 86
1000
0100
0010
0000
0010
0001
1000
0000
1000
0010
0200
0000
0000
0000
0000
0000
,  // measure 87
0000
0000
0000
0000
,  // measure 88
0310
1000
0010
1000
0010
1000
0010
1000
0001
0000
0001
0000
1000
0000
0100
0010
,  // measure 89
0100
0000
1000
0000
1000
0010
0000
0010
0100
0000
0001
0000
1000
0000
1000
0100
,  // measure 90
0010
0001
0010
0001
0010
0001
0010
0001
1000
0000
1000
0000
0001
0000
0100
0010
,  // measure 91
0100
0000
0001
0000
0001
0010
0000
0010
0100
0000
1000
0000
0001
0000
1000
0001
,  // measure 92
0100
0010
0100
0010
0100
0010
0100
0010
1000
0000
0100
0000
0010
0000
0001
0100
,  // measure 93
0001
0000
1000
0000
0100
0010
0000
0010
0001
0000
1000
0000
0100
0000
0010
0100
,  // measure 94
1000
0001
1000
0001
1000
0001
1000
0001
0010
0000
0001
0000
0100
0000
0010
0100
,  // measure 95
0010
0000
1000
0000
0010
1000
0000
0001
0100
0000
0010
0000
1000
0000
0001
0010
,  // measure 96
0100
1000
0010
0100
0001
0010
0100
1000
0010
0000
0100
0000
0001
0000
1000
0010
,  // measure 97
1000
0000
0100
0000
0010
0001
0000
0010
0001
0000
0100
0000
0010
0000
1000
0100
,  // measure 98
0010
0001
0100
0010
1000
0100
0010
0001
0100
0000
0001
0000
1000
0000
0010
0100
,  // measure 99
0010
0000
1000
0000
0100
0010
0000
0100
0010
0000
0001
0000
0010
0000
0001
0100
,  // measure 100
0001
1000
0100
1000
0001
0010
0001
1000
0010
0000
0100
0000
0001
0000
0010
0100
,  // measure 101
1000
0000
0010
0000
1000
0001
0000
1000
0001
0000
0010
0000
0100
0000
1000
0010
,  // measure 102
1000
0001
0100
0001
1000
0100
1000
0001
0010
0000
0001
0000
1000
0000
0010
0100
,  // measure 103
0010
0000
0001
0000
1000
0010
0000
1000
0010
0000
0100
0000
0001
0000
1000
0100
,  // measure 104
1000
0100
0010
0001
0010
0001
1000
0010
1000
0000
0001
0000
1000
0000
0100
1000
,  // measure 105
0100
0001
0100
0010
0001
1000
0010
0100
0010
0000
0101
0000
1100
0000
0001
0100
,  // measure 106
0001
0100
0010
1000
0010
1000
0001
0010
0001
0000
1000
0000
0001
0000
0100
0001
,  // measure 107
0100
1000
0100
0010
1000
0001
0010
0100
0010
0000
1100
0000
0101
0000
0001
1000
,  // measure 108
0001
0010
0100
0010
0001
1000
0001
0010
0100
0000
1000
0000
1100
0000
1000
0100
,  // measure 109
0010
0001
0010
0100
1000
0100
0010
0001
0010
0000
0011
0000
1100
0000
1000
0001
,  // measure 110
1000
0010
0100
0010
1000
0001
1000
0010
0100
0000
0001
0000
0101
0000
0001
0100
,  // measure 111
0010
1000
0010
0100
0001
0100
0010
1000
0010
0000
1010
0000
0101
0000
0001
1000
,  // measure 112
0001
0100
0010
0100
0001
0100
0010
0100
,  // measure 113
0010
1000
0001
1000
0010
1000
0001
1000
,  // measure 114
0001
0010
0100
1000
0100
0010
0100
1000
,  // measure 115
0010
1000
0010
0100
0001
0010
0100
0010
,  // measure 116
0001
0100
1000
0100
0010
1000
0001
0010
,  // measure 117
0100
0001
0100
1000
0010
0001
0010
1000
,  // measure 118
0001
0010
0100
1000
0010
0100
0001
0010
,  // measure 119
0100
1000
0010
0100
0001
0000
1000
0000
,  // measure 120
0010
0100
0010
1000
,  // measure 121
0001
0000
0010
0000
0001
1000
0001
1000
,  // measure 122
0010
0100
0010
0100
2002
0000
0000
0000
,  // measure 123
0000
0000
0000
0000
,  // measure 124
0000
0000
0000
0000
,  // measure 125
0000
0000
0000
0000
,  // measure 126
0000
0000
3003
0000
,  // measure 127
0000
0000
0000
0000
0001
0000
0000
0001
0000
0000
0000
0000
0000
0000
0000
0100
0000
0000
0000
0010
1000
0000
0000
0000
0000
0000
0000
0000
0000
0000
0000
0000
,  // measure 128
0000
0000
0000
0000
0001
0000
0000
0001
0000
0000
0000
0000
0000
0000
0000
0010
0000
0000
0000
0100
1000
0000
0000
0000
0000
0000
0000
0000
0000
0000
0000
0000
,  // measure 129
0000
0000
0000
0000
0001
0000
0000
0001
0000
0000
0000
0000
0000
0000
0000
1000
0000
0000
0000
0010
0100
0000
0000
0000
0000
0000
0000
0000
0000
0000
0000
0000
,  // measure 130
0000
0000
0000
0000
0001
0000
0000
0001
0000
0000
0000
0000
0000
0000
0000
1000
0000
0000
0000
0100
0010
0000
0000
0000
0000
0000
0000
0000
0000
0000
0000
0000
,  // measure 131
0000
0000
0000
0000
0001
0000
0000
0001
0000
0000
0000
0000
0000
0000
0000
1001
0000
0000
0000
0010
0200
0000
0000
0000
0000
0000
0000
0000
0000
0000
0000
0000
,  // measure 132
0000
0000
0000
0000
,  // measure 133
0000
0000
0000
0000
0000
0000
0000
0000
0000
0000
0000
0000
0000
0000
0000
0000
0301
0010
0100
1000
0010
0100
0001
0000
1000
0000
0001
0000
1000
0000
0010
0000
,  // measure 134
0100
0001
0100
0001
0010
0100
1000
0010
1001
0100
1000
0110
1000
0100
0010
0001
,  // measure 135
0010
0100
0001
0100
1000
0100
0010
0100
1000
0010
0100
0001
0010
0100
0010
0100
,  // measure 136
1000
0010
0100
0010
1000
0001
0010
0100
1001
0010
0001
0110
0001
0100
0010
1000
,  // measure 137
0010
0100
1000
0100
0001
0100
0010
0100
0001
0010
0100
1000
0010
0100
0010
0100
,  // measure 138
0001
0010
0100
0010
0001
1000
0001
1000
0110
1000
0100
1001
0100
0001
0010
0001
,  // measure 139
0010
0100
0001
0100
1000
0100
0010
0100
1000
0010
0100
0001
0010
0100
0010
0100
,  // measure 140
1000
0010
0100
0010
1000
0001
1000
0001
0110
0001
0100
1001
0100
1000
0010
1000
,  // measure 141
0010
0100
1000
0100
0001
0100
0010
0100
0001
0010
0100
0010
1001
0010
0001
0100
,  // measure 142
0010
0100
0001
1000
0100
0010
0001
1000
0101
0010
1000
0101
0010
1000
0100
0010
,  // measure 143
0001
1000
0010
1000
0100
0010
0001
1000
0010
0100
0001
1000
0100
0010
0001
1000
,  // measure 144
0010
1000
0001
0010
0100
1000
0001
0100
1010
0001
0100
1010
0001
0010
0100
1000
,  // measure 145
0001
0100
0010
1000
0001
0010
0100
0010
0001
1000
0010
0100
0010
1000
0001
0010
,  // measure 146
0100
1000
0010
1000
0010
0100
0001
0010
1100
0010
0001
1100
0010
0001
0100
0010
,  // measure 147
1000
0001
0010
0001
0100
0010
1000
0001
0010
0100
1000
0001
0100
0010
1000
0001
,  // measure 148
0010
0001
1000
0010
0100
0001
1000
0100
0011
1000
0100
0011
1000
0001
0100
0001
,  // measure 149
1000
0001
1000
0001
1000
0001
1000
0010
0100
0001
0010
0100
1000
0001
0100
0001
,  // measure 150
0100
0001
0010
0100
1000
0010
0100
0010
1100
0001
1000
0110
1000
0100
0010
0100
,  // measure 151
0001
0100
1000
0010
0100
0010
1000
0010
0001
0010
0100
0001
1000
0100
0010
0001
,  // measure 152
1000
0100
1000
0010
0100
0010
0100
1000
0101
1000
0001
0110
1000
0001
0100
0010
,  // measure 153
0100
1000
0100
0001
0010
0100
0010
0001
0010
1000
0010
0100
1000
0001
0100
0010
,  // measure 154
1000
0001
0100
0001
0010
0100
0010
0001
1010
0001
1000
0110
1000
0001
1000
0001
,  // measure 155
0010
0100
0010
0100
1000
0001
0100
0010
1000
0001
0010
0100
1000
0001
0100
0010
,  // measure 156
1000
0001
0010
0001
0010
0100
1000
0100
1001
0100
0010
1100
0001
1000
0001
1000
,  // measure 157
0010
0100
0010
0100
0001
1000
0100
0010
0001
1000
0010
0100
0001
1000
0100
0010
,  // measure 158
0001
1000
0010
1000
0010
0100
0001
0100
1001
0100
0010
0101
1000
0010
1000
0010
,  // measure 159
0100
0001
0100
0001
1000
0010
1000
0010
0100
0001
0100
0001
1000
0100
0010
0001
,  // measure 160
1000
0100
0010
0001
1000
0010
0100
0001
1010
0001
1000
0101
1000
0010
0001
0010
,  // measure 161
0100
1000
0100
1000
0001
0010
0001
0010
0100
1000
0100
1000
0001
0100
0010
1000
,  // measure 162
0001
0010
0100
1000
0001
0100
0010
1000
0101
1000
0001
1010
0001
1000
0001
1000
,  // measure 163
0001
1000
0001
0100
0010
0100
0010
0100
0010
0100
0001
1000
0100
1000
0001
0100
,  // measure 164
0001
0010
0001
1000
0010
0100
0001
0010
1001
0100
0010
1001
0110
0000
0011
0000
,  // measure 165
0110
0000
1100
0000
1000
0000
0010
0000
0011
0000
0010
2000
0000
0000
3001
0000
,  // measure 166
0000
0000
0100
0000
0001
0000
0010
0000
1010
0000
0010
0002
0000
0000
1003
0000
,  // measure 167
0000
0000
0010
0000
1000
0000
0100
0000
0101
0000
0100
2000
0000
0000
3001
0000
,  // measure 168
0000
0000
0010
0000
0001
0000
0100
0000
1100
0000
0100
0002
0000
0000
1003
0000
,  // measure 169
0000
0000
1001
0000
0010
0000
0100
0000
0001
0000
0010
0100
0000
0100
1000
0000
,  // measure 170
0001
0000
1001
0000
0010
0000
0100
0000
1000
0000
0010
0100
0000
0100
0001
0000
,  // measure 171
1000
0000
0011
0000
1000
0000
0001
0000
1100
0000
0010
0100
0000
0001
1000
0000
,  // measure 172
0101
0000
1010
0000
0001
0000
1000
0000
0101
0000
0010
0100
0000
1000
0001
0000
,  // measure 173
1100
0000
0011
0000
1000
0001
1000
0000
1000
0000
0010
0000
0010
0100
0010
0000
,  // measure 174
0100
0000
0001
0000
0001
0010
0001
0000
0010
0000
0100
0000
0100
1000
0100
0000
,  // measure 175
1000
0000
0010
0000
0100
0001
0000
1000
0010
0000
1000
0000
0100
0010
0000
0001
,  // measure 176
1000
0000
1000
0000
0010
1000
0000
0001
0010
0000
0100
0000
1000
0001
0000
0100
,  // measure 177
1000
0000
0100
0000
0010
1000
0010
0000
0100
0000
0001
0000
0001
1000
0001
0000
,  // measure 178
0100
0000
0010
0000
0010
1000
0010
0000
1000
0000
0100
0000
0100
0010
0100
0000
,  // measure 179
1000
0000
1000
0000
0010
0100
0000
0100
0001
0000
1000
0000
1000
0001
0000
0001
,  // measure 180
1000
0000
0010
0000
0100
0001
0010
0100
1000
0010
0100
0001
0010
0100
0010
0100
,  // measure 181
0010
0100
0020
0000
1030
0001
1000
0010
0100
0001
0100
0001
0010
0100
1000
0010
,  // measure 182
1001
0100
1000
0110
1000
0100
0010
0001
0010
0100
0001
0100
1000
0100
0010
0100
,  // measure 183
1000
0010
0100
0001
0010
0100
0010
0100
1000
0010
0100
0010
1000
0001
0010
0100
,  // measure 184
1001
0010
0001
0110
0001
0100
0010
1000
0010
0100
1000
0100
0001
0100
0010
0100
,  // measure 185
0001
0010
0100
1000
0010
0100
0010
0100
0001
0010
0100
0010
0001
1000
0001
1000
,  // measure 186
0110
1000
0100
1001
0100
0001
0010
0001
0010
0100
0001
0100
1000
0100
0010
0100
,  // measure 187
1000
0010
0100
0001
0010
0100
0010
0100
1000
0010
0100
0010
1000
0001
1000
0001
,  // measure 188
0110
0001
0100
1001
0100
1000
0010
1000
0010
0100
1000
0100
0001
0100
0010
0100
,  // measure 189
0001
0010
0100
0010
1001
0010
0001
0100
0010
0100
0001
1000
0100
0010
0001
1000
,  // measure 190
0101
0010
1000
0101
0010
1000
0100
0010
0001
1000
0010
1000
0100
0010
0001
1000
,  // measure 191
0010
0100
0001
1000
0100
0010
0001
1000
0010
1000
0001
0010
0100
1000
0001
0100
,  // measure 192
1010
0001
0100
1010
0001
0010
0100
1000
0001
0100
0010
1000
0001
0010
0100
0010
,  // measure 193
0001
1000
0010
0100
0010
1000
0001
0010
0100
1000
0010
1000
0010
0100
0001
0010
,  // measure 194
1100
0010
0001
1100
0010
0001
0100
0010
1000
0001
0010
0001
0100
0010
1000
0001
,  // measure 195
0010
0100
1000
0001
0100
0010
1000
0001
0010
0001
1000
0010
0100
0001
1000
0100
,  // measure 196
0011
1000
0100
0011
0000
0000
0000
0000
0000
0000
0000
0000
0000
0000
0000
0000
,  // measure 197
0000
0000
0000
0000
0001
0100
1000
0100
,  // measure 198
0001
0100
1000
0100
1000
0100
0001
0100
,  // measure 199
1000
0100
0001
0100
0001
0010
1000
0010
,  // measure 200
0001
0010
1000
0010
1000
0010
0001
0010
,  // measure 201
1000
0010
0001
0010
0110
0100
1000
0010
,  // measure 202
0001
0010
1000
0100
0010
0001
0100
1000
,  // measure 203
0100
0001
0010
1000
0010
0001
0100
1000
,  // measure 204
0100
0001
0010
0100
1000
0010
0001
0010
,  // measure 205
1000
0100
0001
0001
0001
0100
1010
0010
,  // measure 206
1000
0010
1000
0010
1000
0010
0101
0100
,  // measure 207
0001
0100
0001
0100
0001
0100
0011
0010
,  // measure 208
0001
0010
0001
0010
0001
0010
1100
0100
,  // measure 209
1000
0100
1000
0100
1000
0100
1001
0000
,  // measure 210
0100
0010
1001
0000
0001
0010
1100
0000
,  // measure 211
1000
0000
0010
0000
0101
0000
0000
0000
1000
0100
1000
0000
0100
0000
0010
0000
,  // measure 212
0001
0100
0001
0000
0100
0000
0010
0000
1000
0010
1000
0000
0001
0010
0001
0000
,  // measure 213
1000
0010
1000
0000
0001
0010
0001
0000
2000
0000
0000
0000
3002
0000
0000
0000
,  // measure 214
2003
3002
0023
0230
,  // measure 215
0320
0230
2300
3020
,  // measure 216
0230
0302
2003
3200
,  // measure 217
0320
0000
0032
0000
1003
1000
0001
0001
,  // measure 218
1000
0001
1000
0001
0010
0010
0100
0100
,  // measure 219
0010
0100
0010
0100
2002
0000
0000
0000
,  // measure 220
0000
0000
0000
0000
,  // measure 221
0000
0000
0000
0000
,  // measure 222
0000
0000
0000
0000
,  // measure 223
0000
0000
0000
0000
,  // measure 224
0000
0000
0000
0000
,  // measure 225
0000
0000
0000
0000
,  // measure 226
0000
0000
0000
0000
,  // measure 227
0000
0000
0000
0000
,  // measure 228
3003
0000
0000
0000
;
