#TITLE:Hollaback Girl;
#SUBTITLE:Sexuality Violation;
#ARTIST:Gwen Stefani;
#TITLETRANSLIT:;
#SUBTITLETRANSLIT:;
#ARTISTTRANSLIT:;
#CREDIT:;
#BANNER:Hollaback Girl-bn.png;
#BACKGROUND:Hollaback Girl-bg.png;
#LYRICSPATH:;
#CDTITLE:;
#MUSIC:Hollaback Girl.ogg;
#OFFSET:0.891;
#SAMPLESTART:109.211;
#SAMPLELENGTH:17.660;
#SELECTABLE:YES;
#BPMS:0.000=220.000;
#STOPS:;
#BGCHANGES:;
// cache tags:
#FIRSTBEAT:4.000;
#LASTBEAT:724.500;
#SONGFILENAME:Songs/Sexuality Violation 2/Hollaback Girl - [Zaia]/Hollaback Girl.sm;
#HASMUSIC:1;
#HASBANNER:1;
#MUSICLENGTH:199.967;
// end cache tags

//---------------dance-single - Zaia - 264bpm----------------
#NOTES:
     dance-single:
     Zaia - 264bpm:
     Challenge:
     14:
     0.917,1.000,0.410,0.855,0.820,1031.000,82.000,171.000,0.000,1.000:
0000
0000
0000
0000
,
1000
0002
0203
0300
,
0010
1000
1001
0000
,
0001
0000
0010
0200
0000
0000
1300
0001
,
0200
0310
1010
0000
,
0001
0000
1000
0010
0000
0100
0001
1000
,
0100
0000
0010
0000
0001
0000
1000
0010
,
0100
0000
0001
1000
0000
0100
0010
0000
,
0002
0000
2003
0000
3200
0000
0310
0100
,
2000
0000
3002
0000
0203
0000
0310
2000
,
0000
0000
0000
0000
0000
0000
0000
0000
0000
0000
0000
0000
0000
0000
0000
0000
0000
0000
0000
0000
0000
0000
0000
0000
3000
0000
0000
0000
0000
0000
0000
0000
0000
0000
0000
0000
0000
0000
0000
0000
0000
0000
0000
0000
0000
0000
0000
0000
0001
0000
0000
0000
0000
0000
0000
0000
0000
0000
0100
0000
0000
0000
0000
0000
0000
0000
0000
0000
0010
0000
0000
0000
0000
0000
0000
0000
0000
0000
1000
0000
0000
0000
0000
0000
0000
0000
0000
0000
0001
0000
0000
0000
0000
0000
0000
0000
0000
0000
0010
0000
0000
0000
0000
0000
0000
0000
0000
0000
0001
0000
0000
0000
0000
0000
0000
0000
0000
0000
0000
1000
0000
0000
0000
0000
0000
0000
0000
0000
0000
0100
0000
0000
0000
0000
0000
0000
0000
0000
0000
1000
0000
0000
0000
0000
0000
0000
0000
0000
0000
0010
0000
0000
0000
0000
0000
0000
0000
0000
0000
0100
0000
0000
0000
0000
0000
0000
0000
0000
0000
0001
0000
0000
0000
0000
0000
0000
0000
0000
0000
0000
0000
0000
0000
0000
0000
0000
0000
0000
0000
0000
0000
0000
,
2000
0000
3002
0000
0023
0000
0031
0200
,
0000
0000
0000
0000
0000
0000
0000
0000
0000
0000
0000
0000
0000
0000
0000
0000
0000
0000
0000
0000
0000
0000
0000
0000
0300
0000
0000
0000
0000
0000
0000
0000
0000
0000
0000
0000
0000
0000
0000
0000
0000
0000
0000
0000
0000
0000
0000
0000
0010
0000
0000
0000
0000
0000
0000
0000
0000
0000
1000
0000
0000
0000
0000
0000
0000
0000
0000
0000
0001
0000
0000
0000
0000
0000
0000
0000
0000
0000
0010
0000
0000
0000
0000
0000
0000
0000
0000
0000
0001
0000
0000
0000
0000
0000
0000
0000
0000
0000
1000
0000
0000
0000
0000
0000
0000
0000
0000
0000
0010
0000
0000
0000
0000
0000
0000
0000
0000
0000
0100
0000
0000
0000
0000
0000
0000
0000
0000
0000
0001
0000
0000
0000
0000
0000
0000
0000
0000
0000
1000
0000
0000
0000
0000
0000
0000
0000
0000
0000
0000
0000
0000
0000
0000
0000
0000
0000
0000
0000
0000
0000
0000
0000
0000
0000
0000
0000
0000
0000
0000
0000
0000
0000
0000
0000
0000
0000
0000
0000
0000
0000
0000
0000
0000
0000
0000
0000
0000
0000
0000
0000
0000
0000
,
0100
0000
0000
0010
0000
0001
1000
0010
,
0200
0000
0302
0000
2003
0000
3100
0010
,
0001
0000
0100
0010
0000
1000
0001
0000
,
0020
0000
0230
0000
2300
0000
3001
0100
,
0020
0000
0230
0000
0302
0000
1003
0020
,
0000
0000
0000
0000
0000
0000
0000
0000
0000
0000
0000
0000
0000
0000
0000
0000
0000
0000
0000
0000
0000
0000
0000
0000
0030
0000
0000
0000
0000
0000
0000
0000
0000
0000
0000
0000
0000
0000
0000
0000
0000
0000
0000
0000
0000
0000
0000
0000
1000
0000
0000
0000
0000
0000
0000
0000
0000
0000
0100
0000
0000
0000
0000
0000
0000
0000
0000
0000
0010
0000
0000
0000
0000
0000
0000
0000
0000
0000
0001
0000
0000
0000
0000
0000
0000
0000
0000
0000
1000
0000
0000
0000
0000
0000
0000
0000
0000
0000
0010
0000
0000
0000
0000
0000
0000
0000
0000
0000
1000
0000
0000
0000
0000
0000
0000
0000
0000
0000
0000
0001
0000
0000
0000
0000
0000
0000
0000
0000
0000
0100
0000
0000
0000
0000
0000
0000
0000
0000
0000
0001
0000
0000
0000
0000
0000
0000
0000
0000
0000
0010
0000
0000
0000
0000
0000
0000
0000
0000
0000
0100
0000
0000
0000
0000
0000
0000
0000
0000
0000
1000
0000
0000
0000
0000
0000
0000
0000
0000
0000
0000
0000
0000
0000
0000
0000
0000
0000
0000
0000
0000
0000
0000
,
0002
0000
2003
0000
3200
0000
1300
0001
,
0000
0000
0000
0000
0000
0000
0000
0000
0000
0000
0000
0000
0000
0000
0000
0000
0000
0000
0000
0000
0000
0000
0000
0000
0000
0000
0000
0000
0000
0000
0000
0000
0000
0000
0000
0000
0000
0000
0000
0000
0000
0000
0000
0000
0000
0000
0000
0000
0010
0000
0000
0000
0000
0000
0000
0000
0000
0000
0001
0000
0000
0000
0000
0000
0000
0000
0000
0000
1000
0000
0000
0000
0000
0000
0000
0000
0000
0000
0010
0000
0000
0000
0000
0000
0000
0000
0000
0000
1000
0000
0000
0000
0000
0000
0000
0000
0000
0000
0001
0000
0000
0000
0000
0000
0000
0000
0000
0000
0010
0000
0000
0000
0000
0000
0000
0000
0000
0000
0100
0000
0000
0000
0000
0000
0000
0000
0000
0000
1000
0000
0000
0000
0000
0000
0000
0000
0000
0000
0002
0000
0000
0000
0000
0000
0000
0000
0000
0000
0000
0000
0000
0000
0000
0000
0000
0000
0000
0000
0000
0000
0000
0000
0000
0000
0000
0000
0000
0000
0000
0000
0000
0000
0000
0000
0000
0000
0000
0000
0000
0000
0000
0000
0000
0000
0000
0000
0000
0000
0000
0000
0000
0000
,
0203
0000
0000
0000
0000
0000
0000
0000
0000
0000
0000
0000
0000
0000
0000
0000
0000
0000
0000
0000
0000
0000
0000
0000
0000
0000
0000
0000
0000
0000
0000
0000
0000
0000
0000
0000
0000
0000
0000
0000
0000
0000
0000
0000
0000
0000
0000
0000
0320
0000
0000
0000
0000
0000
0000
0000
0000
0000
0000
0000
0000
0000
0000
0000
0000
0000
0000
0000
0000
0000
0000
0000
0000
0000
0000
0000
0000
0000
0000
0000
0000
0000
0000
0000
0030
0000
0000
0000
0000
0000
0000
0000
0000
0000
0000
0000
1000
0000
0000
0000
0000
0000
0000
0000
0000
0000
0010
0000
0000
0000
0000
0000
0000
0000
0000
0000
1000
0000
0000
0000
0000
0000
0000
0000
0000
0000
0001
0000
0000
0000
0000
0000
0000
0000
0000
0000
0010
0000
0000
0000
0000
0000
0000
0000
0000
0000
0001
0000
0000
0000
0000
0000
0000
0000
0000
0000
1000
0000
0000
0000
0000
0000
0000
0000
0000
0000
0100
0000
0000
0000
0000
0000
0000
0000
0000
0000
0010
0000
0000
0000
0000
0000
0000
0000
0000
0000
0001
0000
0000
0000
0000
0000
,
0000
1000
0000
0000
0000
0000
0000
0000
0000
0000
0000
0000
0000
0000
0000
0000
0000
0000
0000
0000
0000
0000
0000
0000
0001
0000
0000
0000
0000
0000
0000
0000
0000
0000
0000
0000
1000
0000
0000
0000
0000
0000
0000
0000
0000
0000
0000
0000
,
1100
0000
0000
0000
1000
0001
0100
0000
,
0101
0100
0010
2000
,
3002
0000
0000
0000
0000
0000
0000
0000
0000
0000
0000
0000
0000
0000
0000
0000
0000
0000
0000
0000
0000
0000
0000
0000
0000
0000
0000
0000
0000
0000
0000
0000
0000
0000
0000
0000
0000
0000
0000
0000
0000
0000
0000
0000
0000
0000
0000
0000
0023
0000
0000
0000
0000
0000
0000
0000
0000
0000
0000
0000
0000
0000
0000
0000
0000
0000
0000
0000
0000
0000
0000
0000
0000
0000
0000
0000
0000
0000
0000
0000
0000
0000
0000
0000
0000
0000
0000
0000
0000
0000
0000
0000
0000
0000
0000
0000
0130
0000
0000
0000
0000
0000
0000
0000
0000
0000
1000
0000
0000
0000
0000
0000
0000
0000
0000
0000
0001
0000
0000
0000
0000
0000
0000
0000
0000
0000
0100
0000
0000
0000
0000
0000
0000
0000
0000
0000
0010
0000
0000
0000
0000
0000
0000
0000
0000
0000
0100
0000
0000
0000
0000
0000
0000
0000
0000
0000
0001
0000
0000
0000
0000
0000
0000
0000
0000
0000
1000
0000
0000
0000
0000
0000
0000
0000
0000
0000
0001
0000
0000
0000
0000
0000
0000
0000
0000
0000
0010
0000
0000
0000
0000
0000
,
0000
0100
0000
0000
0000
0000
0000
0000
0000
0000
0000
0000
0000
0000
0000
0000
0000
0000
0000
0000
0000
0000
0000
0000
1000
0000
0000
0000
0000
0000
0000
0000
0000
0000
0000
0000
0100
0000
0000
0000
0000
0000
0000
0000
0000
0000
0000
0000
,
1100
0000
1000
0001
,
0101
0100
0010
2000
,
3002
0000
0000
0000
0000
0000
0000
0000
0000
0000
0000
0000
0000
0000
0000
0000
0000
0000
0000
0000
0000
0000
0000
0000
0000
0000
0000
0000
0000
0000
0000
0000
0000
0000
0000
0000
0000
0000
0000
0000
0000
0000
0000
0000
0000
0000
0000
0000
0023
0000
0000
0000
0000
0000
0000
0000
0000
0000
0000
0000
0000
0000
0000
0000
0000
0000
0000
0000
0000
0000
0000
0000
0000
0000
0000
0000
0000
0000
0000
0000
0000
0000
0000
0000
0030
0000
0000
0000
0000
0000
0000
0000
0000
0000
0000
0000
0100
0000
0000
0000
0000
0000
0000
0000
0000
0000
0010
0000
0000
0000
0000
0000
0000
0000
0000
0000
0001
0000
0000
0000
0000
0000
0000
0000
0000
0000
1000
0000
0000
0000
0000
0000
0000
0000
0000
0000
0010
0000
0000
0000
0000
0000
0000
0000
0000
0000
0100
0000
0000
0000
0000
0000
0000
0000
0000
0000
0010
0000
0000
0000
0000
0000
0000
0000
0000
0000
1000
0000
0000
0000
0000
0000
0000
0000
0000
0000
0001
0000
0000
0000
0000
0000
0000
0000
0000
0000
0100
0000
0000
0000
0000
0000
,
0000
0010
0000
0000
0000
0000
0000
0000
0000
0000
0000
0000
0000
0000
0000
0000
0000
0000
0000
0000
0000
0000
0000
0000
1000
0000
0000
0000
0000
0000
0000
0000
0000
0000
0000
0000
0010
0000
0000
0000
0000
0000
0000
0000
0000
0000
0000
0000
,
0101
0000
0000
0000
0001
1000
0100
0000
,
1100
0100
0010
0002
,
0203
0000
0000
0000
0000
0000
0000
0000
0000
0000
0000
0000
0000
0000
0000
0000
0000
0000
0000
0000
0000
0000
0000
0000
0000
0000
0000
0000
0000
0000
0000
0000
0000
0000
0000
0000
0000
0000
0000
0000
0000
0000
0000
0000
0000
0000
0000
0000
0320
0000
0000
0000
0000
0000
0000
0000
0000
0000
0000
0000
0000
0000
0000
0000
0000
0000
0000
0000
0000
0000
0000
0000
0000
0000
0000
0000
0000
0000
0000
0000
0000
0000
0000
0000
0000
0000
0000
0000
0000
0000
0000
0000
0000
0000
0000
0000
0130
0000
0000
0000
0000
0000
0000
0000
0000
0000
0001
0000
0000
0000
0000
0000
0000
0000
0000
0000
1000
0000
0000
0000
0000
0000
0000
0000
0000
0000
0001
0000
0000
0000
0000
0000
0000
0000
0000
0000
0010
0000
0000
0000
0000
0000
0000
0000
0000
0000
0100
0000
0000
0000
0000
0000
0000
0000
0000
0000
1000
0000
0000
0000
0000
0000
0000
0000
0000
0000
0001
0000
0000
0000
0000
0000
0000
0000
0000
0000
1000
0000
0000
0000
0000
0000
0000
0000
0000
0000
0010
0000
0000
0000
0000
0000
,
0000
0100
0000
0000
0000
0000
0000
0000
0000
0000
0000
0000
0001
0000
0000
0000
0000
0000
0000
0000
0000
0000
0000
0000
0100
0000
0000
0000
0000
0000
0000
0000
0000
0000
0000
0000
0010
0000
0000
0000
0000
0000
0000
0000
0000
0000
0000
0000
,
1010
0000
1000
0001
,
0011
0000
0010
0000
0100
0000
0000
1000
,
0001
0100
0010
1000
,
0001
0000
0010
0000
0110
0000
0100
1000
,
0001
0000
0100
0000
0010
1000
0010
0000
,
0200
0301
0010
0100
,
1000
1000
0001
0100
,
0010
1000
0001
0000
0010
0000
0100
1000
,
0001
0000
0001
0100
0000
0100
0010
0000
,
2000
0000
3001
0000
0010
0000
0100
1000
,
0001
1000
0010
0100
0001
0000
0010
0100
,
1000
0000
0001
0000
0100
0000
0010
1000
,
0100
0010
0001
0000
1000
0000
0010
0100
,
0002
0013
0200
2300
,
3001
0000
0100
0000
0100
0000
0010
1000
,
0001
0000
0010
0000
0100
0000
1000
0100
,
0010
0000
0010
0100
0000
0100
2000
0000
,
3002
0010
1003
0000
,
0001
0000
1000
0100
0000
0010
0001
1000
,
0010
0000
0100
0000
0001
0000
1000
0100
,
0010
0000
0001
1000
0000
0010
0100
0000
,
0002
0000
2003
0000
3020
0000
0130
0010
,
2000
0000
3002
0000
0023
0000
0130
2000
,
0000
0000
0000
0000
0000
0000
0000
0000
0000
0000
0000
0000
0000
0000
0000
0000
0000
0000
0000
0000
0000
0000
0000
0000
3000
0000
0000
0000
0000
0000
0000
0000
0000
0000
0000
0000
0000
0000
0000
0000
0000
0000
0000
0000
0000
0000
0000
0000
0001
0000
0000
0000
0000
0000
0000
0000
0000
0000
0010
0000
0000
0000
0000
0000
0000
0000
0000
0000
0100
0000
0000
0000
0000
0000
0000
0000
0000
0000
1000
0000
0000
0000
0000
0000
0000
0000
0000
0000
0001
0000
0000
0000
0000
0000
0000
0000
0000
0000
0100
0000
0000
0000
0000
0000
0000
0000
0000
0000
0001
0000
0000
0000
0000
0000
0000
0000
0000
0000
0000
1000
0000
0000
0000
0000
0000
0000
0000
0000
0000
0010
0000
0000
0000
0000
0000
0000
0000
0000
0000
1000
0000
0000
0000
0000
0000
0000
0000
0000
0000
0100
0000
0000
0000
0000
0000
0000
0000
0000
0000
0010
0000
0000
0000
0000
0000
0000
0000
0000
0000
0001
0000
0000
0000
0000
0000
0000
0000
0000
0000
0000
0000
0000
0000
0000
0000
0000
0000
0000
0000
0000
0000
0000
,
2000
0000
3002
0000
0203
0000
0301
0020
,
0000
0000
0000
0000
0000
0000
0000
0000
0000
0000
0000
0000
0000
0000
0000
0000
0000
0000
0000
0000
0000
0000
0000
0000
0030
0000
0000
0000
0000
0000
0000
0000
0000
0000
0000
0000
0000
0000
0000
0000
0000
0000
0000
0000
0000
0000
0000
0000
0100
0000
0000
0000
0000
0000
0000
0000
0000
0000
1000
0000
0000
0000
0000
0000
0000
0000
0000
0000
0001
0000
0000
0000
0000
0000
0000
0000
0000
0000
0100
0000
0000
0000
0000
0000
0000
0000
0000
0000
0001
0000
0000
0000
0000
0000
0000
0000
0000
0000
1000
0000
0000
0000
0000
0000
0000
0000
0000
0000
0100
0000
0000
0000
0000
0000
0000
0000
0000
0000
0010
0000
0000
0000
0000
0000
0000
0000
0000
0000
0001
0000
0000
0000
0000
0000
0000
0000
0000
0000
1000
0000
0000
0000
0000
0000
0000
0000
0000
0000
0000
0000
0000
0000
0000
0000
0000
0000
0000
0000
0000
0000
0000
0000
0000
0000
0000
0000
0000
0000
0000
0000
0000
0000
0000
0000
0000
0000
0000
0000
0000
0000
0000
0000
0000
0000
0000
0000
0000
0000
0000
0000
0000
0000
,
0010
0000
0000
0100
0000
0001
1000
0100
,
0020
0000
0032
0000
2003
0000
3010
0100
,
0001
0000
0010
0100
0000
1000
0001
0000
,
0200
0000
0320
0000
2030
0000
3001
0010
,
0200
0000
2300
0000
3020
0000
0130
0002
,
0000
0000
0000
0000
0000
0000
0000
0000
0000
0000
0000
0000
0000
0000
0000
0000
0000
0000
0000
0000
0000
0000
0000
0000
0003
0000
0000
0000
0000
0000
0000
0000
0000
0000
0000
0000
0000
0000
0000
0000
0000
0000
0000
0000
0000
0000
0000
0000
1000
0000
0000
0000
0000
0000
0000
0000
0000
0000
0010
0000
0000
0000
0000
0000
0000
0000
0000
0000
0100
0000
0000
0000
0000
0000
0000
0000
0000
0000
0001
0000
0000
0000
0000
0000
0000
0000
0000
0000
1000
0000
0000
0000
0000
0000
0000
0000
0000
0000
0100
0000
0000
0000
0000
0000
0000
0000
0000
0000
1000
0000
0000
0000
0000
0000
0000
0000
0000
0000
0000
0001
0000
0000
0000
0000
0000
0000
0000
0000
0000
0010
0000
0000
0000
0000
0000
0000
0000
0000
0000
0001
0000
0000
0000
0000
0000
0000
0000
0000
0000
0100
0000
0000
0000
0000
0000
0000
0000
0000
0000
0010
0000
0000
0000
0000
0000
0000
0000
0000
0000
1000
0000
0000
0000
0000
0000
0000
0000
0000
0000
0000
0000
0000
0000
0000
0000
0000
0000
0000
0000
0000
0000
0000
,
0002
0000
2003
0000
3200
0000
1300
0020
,
0000
0000
0000
0000
0000
0000
0000
0000
0000
0000
0000
0000
0000
0000
0000
0000
0000
0000
0000
0000
0000
0000
0000
0000
0030
0000
0000
0000
0000
0000
0000
0000
0000
0000
0000
0000
0000
0000
0000
0000
0000
0000
0000
0000
0000
0000
0000
0000
0100
0000
0000
0000
0000
0000
0000
0000
0000
0000
0001
0000
0000
0000
0000
0000
0000
0000
0000
0000
1000
0000
0000
0000
0000
0000
0000
0000
0000
0000
0100
0000
0000
0000
0000
0000
0000
0000
0000
0000
1000
0000
0000
0000
0000
0000
0000
0000
0000
0000
0001
0000
0000
0000
0000
0000
0000
0000
0000
0000
0100
0000
0000
0000
0000
0000
0000
0000
0000
0000
0010
0000
0000
0000
0000
0000
0000
0000
0000
0000
1000
0000
0000
0000
0000
0000
0000
0000
0000
0000
0002
0000
0000
0000
0000
0000
0000
0000
0000
0000
0000
0000
0000
0000
0000
0000
0000
0000
0000
0000
0000
0000
0000
0000
0000
0000
0000
0000
0000
0000
0000
0000
0000
0000
0000
0000
0000
0000
0000
0000
0000
0000
0000
0000
0000
0000
0000
0000
0000
0000
0000
0000
0000
0000
,
0023
0000
0000
0000
0000
0000
0000
0000
0000
0000
0000
0000
0000
0000
0000
0000
0000
0000
0000
0000
0000
0000
0000
0000
0000
0000
0000
0000
0000
0000
0000
0000
0000
0000
0000
0000
0000
0000
0000
0000
0000
0000
0000
0000
0000
0000
0000
0000
0130
0000
0000
0000
0000
0000
0000
0000
0000
0000
0000
0000
0000
0000
0000
0000
0000
0000
0000
0000
0000
0000
0000
0000
0000
0000
0000
0000
0000
0000
0000
0000
0000
0000
0000
0000
0000
0000
0000
0000
0000
0000
0000
0000
0000
0000
0000
0000
1000
0000
0000
0000
0000
0000
0000
0000
0000
0000
0100
0000
0000
0000
0000
0000
0000
0000
0000
0000
1000
0000
0000
0000
0000
0000
0000
0000
0000
0000
0001
0000
0000
0000
0000
0000
0000
0000
0000
0000
0100
0000
0000
0000
0000
0000
0000
0000
0000
0000
0001
0000
0000
0000
0000
0000
0000
0000
0000
0000
1000
0000
0000
0000
0000
0000
0000
0000
0000
0000
0010
0000
0000
0000
0000
0000
0000
0000
0000
0000
0100
0000
0000
0000
0000
0000
0000
0000
0000
0000
0001
0000
0000
0000
0000
0000
,
0000
1000
0000
0000
0000
0000
0000
0000
0000
0000
0000
0000
0100
0000
0000
0000
0000
0000
0000
0000
0000
0000
0000
0000
1000
0000
0000
0000
0000
0000
0000
0000
0000
0000
0000
0000
0001
0000
0000
0000
0000
0000
0000
0000
0000
0000
0000
0000
,
0011
0000
0010
0000
0001
1000
0010
0000
,
1010
0010
0200
0302
,
2003
0000
0000
0000
0000
0000
0000
0000
0000
0000
0000
0000
0000
0000
0000
0000
0000
0000
0000
0000
0000
0000
0000
0000
3000
0000
0000
0000
0000
0000
0000
0000
0000
0000
0000
0000
0000
0000
0000
0000
0000
0000
0000
0000
0000
0000
0000
0000
0010
0000
0000
0000
0000
0000
0000
0000
0000
0000
0000
0000
0000
0000
0000
0000
0000
0000
0000
0000
0000
0000
0000
0000
0000
0000
0000
0000
0000
0000
0000
0000
0000
0000
0000
0000
0000
0000
0000
0000
0000
0000
0000
0000
0000
0000
0000
0000
0100
0000
0000
0000
0000
0000
0000
0000
0000
0000
0001
0000
0000
0000
0000
0000
0000
0000
0000
0000
1000
0000
0000
0000
0000
0000
0000
0000
0000
0000
0100
0000
0000
0000
0000
0000
0000
0000
0000
0000
0010
0000
0000
0000
0000
0000
0000
0000
0000
0000
0100
0000
0000
0000
0000
0000
0000
0000
0000
0000
1000
0000
0000
0000
0000
0000
0000
0000
0000
0000
0001
0000
0000
0000
0000
0000
0000
0000
0000
0000
1000
0000
0000
0000
0000
0000
0000
0000
0000
0000
0010
0000
0000
0000
0000
0000
,
0000
0100
0000
0000
0000
0000
0000
0000
0000
0000
0000
0000
0001
0000
0000
0000
0000
0000
0000
0000
0000
0000
0000
0000
0100
0000
0000
0000
0000
0000
0000
0000
0000
0000
0000
0000
0010
0000
0000
0000
0000
0000
0000
0000
0000
0000
0000
0000
,
1010
1000
0001
0010
,
0011
0001
0020
0230
,
2300
0000
0000
0000
0000
0000
0000
0000
0000
0000
0000
0000
0000
0000
0000
0000
0000
0000
0000
0000
0000
0000
0000
0000
3000
0000
0000
0000
0000
0000
0000
0000
0000
0000
0000
0000
0000
0000
0000
0000
0000
0000
0000
0000
0000
0000
0000
0000
0001
0000
0000
0000
0000
0000
0000
0000
0000
0000
0000
0000
0000
0000
0000
0000
0000
0000
0000
0000
0000
0000
0000
0000
0000
0000
0000
0000
0000
0000
0000
0000
0000
0000
0000
0000
0000
0000
0000
0000
0000
0000
0000
0000
0000
0000
0000
0000
0100
0000
0000
0000
0000
0000
0000
0000
0000
0000
0010
0000
0000
0000
0000
0000
0000
0000
0000
0000
1000
0000
0000
0000
0000
0000
0000
0000
0000
0000
0001
0000
0000
0000
0000
0000
0000
0000
0000
0000
0010
0000
0000
0000
0000
0000
0000
0000
0000
0000
0100
0000
0000
0000
0000
0000
0000
0000
0000
0000
0010
0000
0000
0000
0000
0000
0000
0000
0000
0000
0001
0000
0000
0000
0000
0000
0000
0000
0000
0000
1000
0000
0000
0000
0000
0000
0000
0000
0000
0000
0010
0000
0000
0000
0000
0000
,
0000
1000
0000
0000
0000
0000
0000
0000
0000
0000
0000
0000
0001
0000
0000
0000
0000
0000
0000
0000
0000
0000
0000
0000
1000
0000
0000
0000
0000
0000
0000
0000
0000
0000
0000
0000
0100
0000
0000
0000
0000
0000
0000
0000
0000
0000
0000
0000
,
1100
0000
0001
0000
1000
0001
0010
0000
,
0011
0010
0200
2300
,
3002
0000
0000
0000
0000
0000
0000
0000
0000
0000
0000
0000
0000
0000
0000
0000
0000
0000
0000
0000
0000
0000
0000
0000
0003
0000
0000
0000
0000
0000
0000
0000
0000
0000
0000
0000
0000
0000
0000
0000
0000
0000
0000
0000
0000
0000
0000
0000
0100
0000
0000
0000
0000
0000
0000
0000
0000
0000
0000
0000
0000
0000
0000
0000
0000
0000
0000
0000
0000
0000
0000
0000
0000
0000
0000
0000
0000
0000
0000
0000
0000
0000
0000
0000
0000
0000
0000
0000
0000
0000
0000
0000
0000
0000
0000
0000
0010
0000
0000
0000
0000
0000
0000
0000
0000
0000
1000
0000
0000
0000
0000
0000
0000
0000
0000
0000
0001
0000
0000
0000
0000
0000
0000
0000
0000
0000
1000
0000
0000
0000
0000
0000
0000
0000
0000
0000
0010
0000
0000
0000
0000
0000
0000
0000
0000
0000
0100
0000
0000
0000
0000
0000
0000
0000
0000
0000
0001
0000
0000
0000
0000
0000
0000
0000
0000
0000
1000
0000
0000
0000
0000
0000
0000
0000
0000
0000
0001
0000
0000
0000
0000
0000
0000
0000
0000
0000
0010
0000
0000
0000
0000
0000
,
0000
0100
0000
0000
0000
0000
0000
0000
0000
0000
0000
0000
1000
0000
0000
0000
0000
0000
0000
0000
0000
0000
0000
0000
0100
0000
0000
0000
0000
0000
0000
0000
0000
0000
0000
0000
0010
0000
0000
0000
0000
0000
0000
0000
0000
0000
0000
0000
,
0011
0001
1000
0001
,
0101
0000
0100
0000
0020
0000
0000
0130
,
0001
0000
1000
0000
0100
0000
0010
0100
,
1000
0000
0001
0000
0100
0000
0010
1000
,
0001
0000
0010
0002
0000
0000
1003
0000
,
0010
0100
0002
0023
,
0130
0000
0100
0000
1000
0000
0001
1000
,
0100
0000
0010
0000
0100
0000
1000
0010
,
0100
0000
0001
1000
0000
0100
0010
0000
,
0002
0000
0000
0003
0000
0000
1000
0000
,
0100
0000
0010
0001
0100
0000
0010
1000
,
0100
1000
0001
0000
0100
0000
0010
1000
,
0001
0000
0010
0000
0100
0010
0100
0000
,
1000
0010
0200
0302
,
1013
1000
1001
0001
,
0011
0000
0010
0000
0100
0000
1000
0001
,
0010
0001
0100
0000
0010
0000
0100
0002
,
0000
0000
0003
0000
,
1000
0000
0001
0010
0000
0100
1000
0001
,
0100
0000
0010
0000
1000
0000
0001
0010
,
0100
0000
1000
0001
0000
0100
0010
0000
,
2000
0000
3002
0000
0203
0000
0310
0100
,
0002
0000
2003
0000
3200
0000
0310
0002
,
0000
0000
0000
0000
0000
0000
0000
0000
0000
0000
0000
0000
0000
0000
0000
0000
0000
0000
0000
0000
0000
0000
0000
0000
0003
0000
0000
0000
0000
0000
0000
0000
0000
0000
0000
0000
0000
0000
0000
0000
0000
0000
0000
0000
0000
0000
0000
0000
1000
0000
0000
0000
0000
0000
0000
0000
0000
0000
0100
0000
0000
0000
0000
0000
0000
0000
0000
0000
0010
0000
0000
0000
0000
0000
0000
0000
0000
0000
0001
0000
0000
0000
0000
0000
0000
0000
0000
0000
1000
0000
0000
0000
0000
0000
0000
0000
0000
0000
0010
0000
0000
0000
0000
0000
0000
0000
0000
0000
1000
0000
0000
0000
0000
0000
0000
0000
0000
0000
0000
0001
0000
0000
0000
0000
0000
0000
0000
0000
0000
0100
0000
0000
0000
0000
0000
0000
0000
0000
0000
0001
0000
0000
0000
0000
0000
0000
0000
0000
0000
0010
0000
0000
0000
0000
0000
0000
0000
0000
0000
0100
0000
0000
0000
0000
0000
0000
0000
0000
0000
1000
0000
0000
0000
0000
0000
0000
0000
0000
0000
0000
0000
0000
0000
0000
0000
0000
0000
0000
0000
0000
0000
0000
,
0002
0000
2003
0000
3020
0000
1030
0200
,
0000
0000
0000
0000
0000
0000
0000
0000
0000
0000
0000
0000
0000
0000
0000
0000
0000
0000
0000
0000
0000
0000
0000
0000
0300
0000
0000
0000
0000
0000
0000
0000
0000
0000
0000
0000
0000
0000
0000
0000
0000
0000
0000
0000
0000
0000
0000
0000
0010
0000
0000
0000
0000
0000
0000
0000
0000
0000
0001
0000
0000
0000
0000
0000
0000
0000
0000
0000
1000
0000
0000
0000
0000
0000
0000
0000
0000
0000
0010
0000
0000
0000
0000
0000
0000
0000
0000
0000
1000
0000
0000
0000
0000
0000
0000
0000
0000
0000
0001
0000
0000
0000
0000
0000
0000
0000
0000
0000
0010
0000
0000
0000
0000
0000
0000
0000
0000
0000
0100
0000
0000
0000
0000
0000
0000
0000
0000
0000
1000
0000
0000
0000
0000
0000
0000
0000
0000
0000
0001
0000
0000
0000
0000
0000
0000
0000
0000
0000
0000
0000
0000
0000
0000
0000
0000
0000
0000
0000
0000
0000
0000
0000
0000
0000
0000
0000
0000
0000
0000
0000
0000
0000
0000
0000
0000
0000
0000
0000
0000
0000
0000
0000
0000
0000
0000
0000
0000
0000
0000
0000
0000
0000
,
0100
0000
0000
0010
0000
1000
0001
0010
,
0200
0000
2300
0000
3002
0000
0103
0010
,
1000
0000
0100
0010
0000
0001
1000
0000
,
0020
0000
0230
0000
0302
0000
1003
0100
,
0020
0000
0230
0000
2300
0000
3001
0200
,
0000
0000
0000
0000
0000
0000
0000
0000
0000
0000
0000
0000
0000
0000
0000
0000
0000
0000
0000
0000
0000
0000
0000
0000
0300
0000
0000
0000
0000
0000
0000
0000
0000
0000
0000
0000
0000
0000
0000
0000
0000
0000
0000
0000
0000
0000
0000
0000
0001
0000
0000
0000
0000
0000
0000
0000
0000
0000
0100
0000
0000
0000
0000
0000
0000
0000
0000
0000
0010
0000
0000
0000
0000
0000
0000
0000
0000
0000
1000
0000
0000
0000
0000
0000
0000
0000
0000
0000
0001
0000
0000
0000
0000
0000
0000
0000
0000
0000
0010
0000
0000
0000
0000
0000
0000
0000
0000
0000
0001
0000
0000
0000
0000
0000
0000
0000
0000
0000
0000
1000
0000
0000
0000
0000
0000
0000
0000
0000
0000
0100
0000
0000
0000
0000
0000
0000
0000
0000
0000
1000
0000
0000
0000
0000
0000
0000
0000
0000
0000
0010
0000
0000
0000
0000
0000
0000
0000
0000
0000
0100
0000
0000
0000
0000
0000
0000
0000
0000
0000
0001
0000
0000
0000
0000
0000
0000
0000
0000
0000
0000
0000
0000
0000
0000
0000
0000
0000
0000
0000
0000
0000
0000
,
2000
0000
3002
0000
0023
0000
0031
0200
,
0000
0000
0000
0000
0000
0000
0000
0000
0000
0000
0000
0000
0000
0000
0000
0000
0000
0000
0000
0000
0000
0000
0000
0000
0300
0000
0000
0000
0000
0000
0000
0000
0000
0000
0000
0000
0000
0000
0000
0000
0000
0000
0000
0000
0000
0000
0000
0000
0010
0000
0000
0000
0000
0000
0000
0000
0000
0000
1000
0000
0000
0000
0000
0000
0000
0000
0000
0000
0001
0000
0000
0000
0000
0000
0000
0000
0000
0000
0010
0000
0000
0000
0000
0000
0000
0000
0000
0000
0001
0000
0000
0000
0000
0000
0000
0000
0000
0000
1000
0000
0000
0000
0000
0000
0000
0000
0000
0000
0010
0000
0000
0000
0000
0000
0000
0000
0000
0000
0100
0000
0000
0000
0000
0000
0000
0000
0000
0000
0001
0000
0000
0000
0000
0000
0000
0000
0000
0000
2000
0000
0000
0000
0000
0000
0000
0000
0000
0000
0000
0000
0000
0000
0000
0000
0000
0000
0000
0000
0000
0000
0000
0000
0000
0000
0000
0000
0000
0000
0000
0000
0000
0000
0000
0000
0000
0000
0000
0000
0000
0000
0000
0000
0000
0000
0000
0000
0000
0000
0000
0000
0000
0000
,
3200
0000
0000
0000
0000
0000
0000
0000
0000
0000
0000
0000
0000
0000
0000
0000
0000
0000
0000
0000
0000
0000
0000
0000
0000
0000
0000
0000
0000
0000
0000
0000
0000
0000
0000
0000
0000
0000
0000
0000
0000
0000
0000
0000
0000
0000
0000
0000
0310
0000
0000
0000
0000
0000
0000
0000
0000
0000
0000
0000
0000
0000
0000
0000
0000
0000
0000
0000
0000
0000
0000
0000
0000
0000
0000
0000
0000
0000
0000
0000
0000
0000
0000
0000
0000
0000
0000
0000
0000
0000
0000
0000
0000
0000
0000
0000
0001
0000
0000
0000
0000
0000
0000
0000
0000
0000
0010
0000
0000
0000
0000
0000
0000
0000
0000
0000
0001
0000
0000
0000
0000
0000
0000
0000
0000
0000
1000
0000
0000
0000
0000
0000
0000
0000
0000
0000
0010
0000
0000
0000
0000
0000
0000
0000
0000
0000
1000
0000
0000
0000
0000
0000
0000
0000
0000
0000
0001
0000
0000
0000
0000
0000
0000
0000
0000
0000
0100
0000
0000
0000
0000
0000
0000
0000
0000
0000
0010
0000
0000
0000
0000
0000
0000
0000
0000
0000
1000
0000
0000
0000
0000
0000
,
0000
0001
0000
0000
0000
0000
0000
0000
0000
0000
0000
0000
0010
0000
0000
0000
0000
0000
0000
0000
0000
0000
0000
0000
0001
0000
0000
0000
0000
0000
0000
0000
0000
0000
0000
0000
1000
0000
0000
0000
0000
0000
0000
0000
0000
0000
0000
0000
,
1100
0000
0100
0000
1000
0001
0100
0000
,
0101
0100
0020
2030
,
3002
0000
0000
0000
0000
0000
0000
0000
0000
0000
0000
0000
0000
0000
0000
0000
0000
0000
0000
0000
0000
0000
0000
0000
0003
0000
0000
0000
0000
0000
0000
0000
0000
0000
0000
0000
0000
0000
0000
0000
0000
0000
0000
0000
0000
0000
0000
0000
0100
0000
0000
0000
0000
0000
0000
0000
0000
0000
0000
0000
0000
0000
0000
0000
0000
0000
0000
0000
0000
0000
0000
0000
0000
0000
0000
0000
0000
0000
0000
0000
0000
0000
0000
0000
0000
0000
0000
0000
0000
0000
0000
0000
0000
0000
0000
0000
0010
0000
0000
0000
0000
0000
0000
0000
0000
0000
1000
0000
0000
0000
0000
0000
0000
0000
0000
0000
0001
0000
0000
0000
0000
0000
0000
0000
0000
0000
0010
0000
0000
0000
0000
0000
0000
0000
0000
0000
0100
0000
0000
0000
0000
0000
0000
0000
0000
0000
0010
0000
0000
0000
0000
0000
0000
0000
0000
0000
0001
0000
0000
0000
0000
0000
0000
0000
0000
0000
1000
0000
0000
0000
0000
0000
0000
0000
0000
0000
0001
0000
0000
0000
0000
0000
0000
0000
0000
0000
0100
0000
0000
0000
0000
0000
,
0000
0010
0000
0000
0000
0000
0000
0000
0000
0000
0000
0000
1000
0000
0000
0000
0000
0000
0000
0000
0000
0000
0000
0000
0010
0000
0000
0000
0000
0000
0000
0000
0000
0000
0000
0000
0100
0000
0000
0000
0000
0000
0000
0000
0000
0000
0000
0000
,
0101
0001
1000
0100
,
1100
1000
0200
0320
,
0032
0000
0000
0000
0000
0000
0000
0000
0000
0000
0000
0000
0000
0000
0000
0000
0000
0000
0000
0000
0000
0000
0000
0000
0003
0000
0000
0000
0000
0000
0000
0000
0000
0000
0000
0000
0000
0000
0000
0000
0000
0000
0000
0000
0000
0000
0000
0000
1000
0000
0000
0000
0000
0000
0000
0000
0000
0000
0000
0000
0000
0000
0000
0000
0000
0000
0000
0000
0000
0000
0000
0000
0000
0000
0000
0000
0000
0000
0000
0000
0000
0000
0000
0000
0000
0000
0000
0000
0000
0000
0000
0000
0000
0000
0000
0000
0010
0000
0000
0000
0000
0000
0000
0000
0000
0000
0100
0000
0000
0000
0000
0000
0000
0000
0000
0000
0001
0000
0000
0000
0000
0000
0000
0000
0000
0000
1000
0000
0000
0000
0000
0000
0000
0000
0000
0000
0100
0000
0000
0000
0000
0000
0000
0000
0000
0000
0010
0000
0000
0000
0000
0000
0000
0000
0000
0000
0100
0000
0000
0000
0000
0000
0000
0000
0000
0000
1000
0000
0000
0000
0000
0000
0000
0000
0000
0000
0001
0000
0000
0000
0000
0000
0000
0000
0000
0000
0100
0000
0000
0000
0000
0000
,
0000
0001
0000
0000
0000
0000
0000
0000
0000
0000
0000
0000
1000
0000
0000
0000
0000
0000
0000
0000
0000
0000
0000
0000
0001
0000
0000
0000
0000
0000
0000
0000
0000
0000
0000
0000
0010
0000
0000
0000
0000
0000
0000
0000
0000
0000
0000
0000
,
0011
0000
1000
0000
0001
1000
0100
0000
,
1100
0100
0020
0032
,
2003
0000
0000
0000
0000
0000
0000
0000
0000
0000
0000
0000
0000
0000
0000
0000
0000
0000
0000
0000
0000
0000
0000
0000
3000
0000
0000
0000
0000
0000
0000
0000
0000
0000
0000
0000
0000
0000
0000
0000
0000
0000
0000
0000
0000
0000
0000
0000
0010
0000
0000
0000
0000
0000
0000
0000
0000
0000
0000
0000
0000
0000
0000
0000
0000
0000
0000
0000
0000
0000
0000
0000
0000
0000
0000
0000
0000
0000
0000
0000
0000
0000
0000
0000
0000
0000
0000
0000
0000
0000
0000
0000
0000
0000
0000
0000
0100
0000
0000
0000
0000
0000
0000
0000
0000
0000
0001
0000
0000
0000
0000
0000
0000
0000
0000
0000
1000
0000
0000
0000
0000
0000
0000
0000
0000
0000
0001
0000
0000
0000
0000
0000
0000
0000
0000
0000
0100
0000
0000
0000
0000
0000
0000
0000
0000
0000
0010
0000
0000
0000
0000
0000
0000
0000
0000
0000
1000
0000
0000
0000
0000
0000
0000
0000
0000
0000
0001
0000
0000
0000
0000
0000
0000
0000
0000
0000
1000
0000
0000
0000
0000
0000
0000
0000
0000
0000
0100
0000
0000
0000
0000
0000
,
0000
0010
0000
0000
0000
0000
0000
0000
0000
0000
0000
0000
0001
0000
0000
0000
0000
0000
0000
0000
0000
0000
0000
0000
0100
0000
0000
0000
0000
0000
0000
0000
0000
0000
0000
0000
0010
0000
0000
0000
0000
0000
0000
0000
0000
0000
0000
0000
,
1010
1000
0002
0023
,
0230
2300
3020
0130
,
0101
0000
1100
0011
,
1100
0011
0000
1100
,
0000
0000
0011
0000
1100
0011
1100
0000
,
0011
1100
0011
1000
,
0001
0001
1010
0101
,
1010
0101
0000
1010
,
0000
0101
1010
0101
,
1010
0001
1000
0010
,
0100
0000
0011
1100
,
0011
1100
0000
0011
,
0000
0000
1100
0000
0011
1100
0011
0000
,
1100
0011
1100
0001
,
1000
1000
0101
1010
,
0101
1010
0000
0101
,
0000
1010
0101
1010
,
0101
1010
0102
0000
,
1003
0000
0001
0100
0000
0010
1000
0001
,
0010
0000
0100
0000
1000
0000
0001
0100
,
0010
0000
1000
0001
0000
0010
0100
0000
,
2000
0000
3002
0000
0023
0000
0130
0010
,
0002
0000
2003
0000
3020
0000
0130
0002
,
0000
0000
0000
0000
0000
0000
0000
0000
0000
0000
0000
0000
0000
0000
0000
0000
0000
0000
0000
0000
0000
0000
0000
0000
0003
0000
0000
0000
0000
0000
0000
0000
0000
0000
0000
0000
0000
0000
0000
0000
0000
0000
0000
0000
0000
0000
0000
0000
1000
0000
0000
0000
0000
0000
0000
0000
0000
0000
0010
0000
0000
0000
0000
0000
0000
0000
0000
0000
0100
0000
0000
0000
0000
0000
0000
0000
0000
0000
0001
0000
0000
0000
0000
0000
0000
0000
0000
0000
1000
0000
0000
0000
0000
0000
0000
0000
0000
0000
0100
0000
0000
0000
0000
0000
0000
0000
0000
0000
1000
0000
0000
0000
0000
0000
0000
0000
0000
0000
0000
0001
0000
0000
0000
0000
0000
0000
0000
0000
0000
0010
0000
0000
0000
0000
0000
0000
0000
0000
0000
0001
0000
0000
0000
0000
0000
0000
0000
0000
0000
0100
0000
0000
0000
0000
0000
0000
0000
0000
0000
0010
0000
0000
0000
0000
0000
0000
0000
0000
0000
1000
0000
0000
0000
0000
0000
0000
0000
0000
0000
0000
0000
0000
0000
0000
0000
0000
0000
0000
0000
0000
0000
0000
,
0002
0000
2003
0000
3200
0000
1300
0020
,
0000
0000
0000
0000
0000
0000
0000
0000
0000
0000
0000
0000
0000
0000
0000
0000
0000
0000
0000
0000
0000
0000
0000
0000
0030
0000
0000
0000
0000
0000
0000
0000
0000
0000
0000
0000
0000
0000
0000
0000
0000
0000
0000
0000
0000
0000
0000
0000
0100
0000
0000
0000
0000
0000
0000
0000
0000
0000
0001
0000
0000
0000
0000
0000
0000
0000
0000
0000
1000
0000
0000
0000
0000
0000
0000
0000
0000
0000
0100
0000
0000
0000
0000
0000
0000
0000
0000
0000
1000
0000
0000
0000
0000
0000
0000
0000
0000
0000
0001
0000
0000
0000
0000
0000
0000
0000
0000
0000
0100
0000
0000
0000
0000
0000
0000
0000
0000
0000
0010
0000
0000
0000
0000
0000
0000
0000
0000
0000
1000
0000
0000
0000
0000
0000
0000
0000
0000
0000
0001
0000
0000
0000
0000
0000
0000
0000
0000
0000
0000
0000
0000
0000
0000
0000
0000
0000
0000
0000
0000
0000
0000
0000
0000
0000
0000
0000
0000
0000
0000
0000
0000
0000
0000
0000
0000
0000
0000
0000
0000
0000
0000
0000
0000
0000
0000
0000
0000
0000
0000
0000
0000
0000
,
0010
0000
0000
0100
0000
1000
0001
0100
,
0020
0000
2030
0000
3002
0000
0013
0100
,
1000
0000
0010
0100
0000
0001
1000
0000
,
0200
0000
0320
0000
0032
0000
1003
0010
,
0200
0000
0320
0000
2030
0000
3001
0200
,
0000
0000
0000
0000
0000
0000
0000
0000
0000
0000
0000
0000
0000
0000
0000
0000
0000
0000
0000
0000
0000
0000
0000
0000
0300
0000
0000
0000
0000
0000
0000
0000
0000
0000
0000
0000
0000
0000
0000
0000
0000
0000
0000
0000
0000
0000
0000
0000
0001
0000
0000
0000
0000
0000
0000
0000
0000
0000
0010
0000
0000
0000
0000
0000
0000
0000
0000
0000
0100
0000
0000
0000
0000
0000
0000
0000
0000
0000
1000
0000
0000
0000
0000
0000
0000
0000
0000
0000
0001
0000
0000
0000
0000
0000
0000
0000
0000
0000
0100
0000
0000
0000
0000
0000
0000
0000
0000
0000
0001
0000
0000
0000
0000
0000
0000
0000
0000
0000
0000
1000
0000
0000
0000
0000
0000
0000
0000
0000
0000
0010
0000
0000
0000
0000
0000
0000
0000
0000
0000
1000
0000
0000
0000
0000
0000
0000
0000
0000
0000
0100
0000
0000
0000
0000
0000
0000
0000
0000
0000
0010
0000
0000
0000
0000
0000
0000
0000
0000
0000
0001
0000
0000
0000
0000
0000
0000
0000
0000
0000
0000
0000
0000
0000
0000
0000
0000
0000
0000
0000
0000
0000
0000
,
2000
0000
3002
0000
0023
0000
0031
2000
,
0000
0000
0000
0000
0000
0000
0000
0000
0000
0000
0000
0000
0000
0000
0000
0000
0000
0000
0000
0000
0000
0000
0000
0000
3000
0000
0000
0000
0000
0000
0000
0000
0000
0000
0000
0000
0000
0000
0000
0000
0000
0000
0000
0000
0000
0000
0000
0000
0100
0000
0000
0000
0000
0000
0000
0000
0000
0000
1000
0000
0000
0000
0000
0000
0000
0000
0000
0000
0001
0000
0000
0000
0000
0000
0000
0000
0000
0000
0100
0000
0000
0000
0000
0000
0000
0000
0000
0000
0001
0000
0000
0000
0000
0000
0000
0000
0000
0000
1000
0000
0000
0000
0000
0000
0000
0000
0000
0000
0100
0000
0000
0000
0000
0000
0000
0000
0000
0000
0010
0000
0000
0000
0000
0000
0000
0000
0000
0000
0001
0000
0000
0000
0000
0000
0000
0000
0000
0000
2000
0000
0000
0000
0000
0000
0000
0000
0000
0000
0000
0000
0000
0000
0000
0000
0000
0000
0000
0000
0000
0000
0000
0000
0000
0000
0000
0000
0000
0000
0000
0000
0000
0000
0000
0000
0000
0000
0000
0000
0000
0000
0000
0000
0000
0000
0000
0000
0000
0000
0000
0000
0000
0000
,
3200
0000
0000
0000
0000
0000
0000
0000
0000
0000
0000
0000
0000
0000
0000
0000
0000
0000
0000
0000
0000
0000
0000
0000
0000
0000
0000
0000
0000
0000
0000
0000
0000
0000
0000
0000
0000
0000
0000
0000
0000
0000
0000
0000
0000
0000
0000
0000
0310
0000
0000
0000
0000
0000
0000
0000
0000
0000
0000
0000
0000
0000
0000
0000
0000
0000
0000
0000
0000
0000
0000
0000
0000
0000
0000
0000
0000
0000
0000
0000
0000
0000
0000
0000
0000
0000
0000
0000
0000
0000
0000
0000
0000
0000
0000
0000
0001
0000
0000
0000
0000
0000
0000
0000
0000
0000
0010
0000
0000
0000
0000
0000
0000
0000
0000
0000
0001
0000
0000
0000
0000
0000
0000
0000
0000
0000
1000
0000
0000
0000
0000
0000
0000
0000
0000
0000
0010
0000
0000
0000
0000
0000
0000
0000
0000
0000
1000
0000
0000
0000
0000
0000
0000
0000
0000
0000
0001
0000
0000
0000
0000
0000
0000
0000
0000
0000
0100
0000
0000
0000
0000
0000
0000
0000
0000
0000
0010
0000
0000
0000
0000
0000
0000
0000
0000
0000
1000
0000
0000
0000
0000
0000
,
0000
0001
0000
0000
0000
0000
0000
0000
0000
0000
0000
0000
0010
0000
0000
0000
0000
0000
0000
0000
0000
0000
0000
0000
0001
0000
0000
0000
0000
0000
0000
0000
0000
0000
0000
0000
1000
0000
0000
0000
0000
0000
0000
0000
0000
0000
0000
0000
,
1100
0000
0100
0000
1000
0001
0100
0000
,
0101
0100
0020
2030
,
3002
0000
0000
0000
0000
0000
0000
0000
0000
0000
0000
0000
0000
0000
0000
0000
0000
0000
0000
0000
0000
0000
0000
0000
0003
0000
0000
0000
0000
0000
0000
0000
0000
0000
0000
0000
0000
0000
0000
0000
0000
0000
0000
0000
0000
0000
0000
0000
0100
0000
0000
0000
0000
0000
0000
0000
0000
0000
0000
0000
0000
0000
0000
0000
0000
0000
0000
0000
0000
0000
0000
0000
0000
0000
0000
0000
0000
0000
0000
0000
0000
0000
0000
0000
0000
0000
0000
0000
0000
0000
0000
0000
0000
0000
0000
0000
0010
0000
0000
0000
0000
0000
0000
0000
0000
0000
1000
0000
0000
0000
0000
0000
0000
0000
0000
0000
0001
0000
0000
0000
0000
0000
0000
0000
0000
0000
0010
0000
0000
0000
0000
0000
0000
0000
0000
0000
0100
0000
0000
0000
0000
0000
0000
0000
0000
0000
0010
0000
0000
0000
0000
0000
0000
0000
0000
0000
0001
0000
0000
0000
0000
0000
0000
0000
0000
0000
1000
0000
0000
0000
0000
0000
0000
0000
0000
0000
0001
0000
0000
0000
0000
0000
0000
0000
0000
0000
0100
0000
0000
0000
0000
0000
,
0000
0010
0000
0000
0000
0000
0000
0000
0000
0000
0000
0000
1000
0000
0000
0000
0000
0000
0000
0000
0000
0000
0000
0000
0010
0000
0000
0000
0000
0000
0000
0000
0000
0000
0000
0000
0100
0000
0000
0000
0000
0000
0000
0000
0000
0000
0000
0000
,
0101
0001
1000
0100
,
1100
1000
0200
0320
,
0032
0000
0000
0000
0000
0000
0000
0000
0000
0000
0000
0000
0000
0000
0000
0000
0000
0000
0000
0000
0000
0000
0000
0000
0003
0000
0000
0000
0000
0000
0000
0000
0000
0000
0000
0000
0000
0000
0000
0000
0000
0000
0000
0000
0000
0000
0000
0000
1000
0000
0000
0000
0000
0000
0000
0000
0000
0000
0000
0000
0000
0000
0000
0000
0000
0000
0000
0000
0000
0000
0000
0000
0000
0000
0000
0000
0000
0000
0000
0000
0000
0000
0000
0000
0000
0000
0000
0000
0000
0000
0000
0000
0000
0000
0000
0000
0010
0000
0000
0000
0000
0000
0000
0000
0000
0000
0100
0000
0000
0000
0000
0000
0000
0000
0000
0000
0001
0000
0000
0000
0000
0000
0000
0000
0000
0000
1000
0000
0000
0000
0000
0000
0000
0000
0000
0000
0100
0000
0000
0000
0000
0000
0000
0000
0000
0000
0010
0000
0000
0000
0000
0000
0000
0000
0000
0000
0100
0000
0000
0000
0000
0000
0000
0000
0000
0000
1000
0000
0000
0000
0000
0000
0000
0000
0000
0000
0001
0000
0000
0000
0000
0000
0000
0000
0000
0000
0100
0000
0000
0000
0000
0000
,
0000
0001
0000
0000
0000
0000
0000
0000
0000
0000
0000
0000
1000
0000
0000
0000
0000
0000
0000
0000
0000
0000
0000
0000
0001
0000
0000
0000
0000
0000
0000
0000
0000
0000
0000
0000
0010
0000
0000
0000
0000
0000
0000
0000
0000
0000
0000
0000
,
0011
0000
1000
0000
0001
1000
0100
0000
,
1100
0100
0020
0032
,
2003
0000
0000
0000
0000
0000
0000
0000
0000
0000
0000
0000
0000
0000
0000
0000
0000
0000
0000
0000
0000
0000
0000
0000
3000
0000
0000
0000
0000
0000
0000
0000
0000
0000
0000
0000
0000
0000
0000
0000
0000
0000
0000
0000
0000
0000
0000
0000
0010
0000
0000
0000
0000
0000
0000
0000
0000
0000
0000
0000
0000
0000
0000
0000
0000
0000
0000
0000
0000
0000
0000
0000
0000
0000
0000
0000
0000
0000
0000
0000
0000
0000
0000
0000
0000
0000
0000
0000
0000
0000
0000
0000
0000
0000
0000
0000
0100
0000
0000
0000
0000
0000
0000
0000
0000
0000
0001
0000
0000
0000
0000
0000
0000
0000
0000
0000
1000
0000
0000
0000
0000
0000
0000
0000
0000
0000
0001
0000
0000
0000
0000
0000
0000
0000
0000
0000
0100
0000
0000
0000
0000
0000
0000
0000
0000
0000
0010
0000
0000
0000
0000
0000
0000
0000
0000
0000
1000
0000
0000
0000
0000
0000
0000
0000
0000
0000
0001
0000
0000
0000
0000
0000
0000
0000
0000
0000
1000
0000
0000
0000
0000
0000
0000
0000
0000
0000
0100
0000
0000
0000
0000
0000
,
0000
0010
0000
0000
0000
0000
0000
0000
0000
0000
0000
0000
0001
0000
0000
0000
0000
0000
0000
0000
0000
0000
0000
0000
0010
0000
0000
0000
0000
0000
0000
0000
0000
0000
0000
0000
0100
0000
0000
0000
0000
0000
0000
0000
0000
0000
0000
0000
,
1100
1000
0001
1000
,
1010
0010
0200
0000
,
0320
0030
0000
0000
0000
0000
0000
0000
;

//---------------dance-single - Zaia - 220bpm----------------
#NOTES:
     dance-single:
     Zaia - 220bpm:
     Hard:
     12:
     0.880,1.000,0.410,0.875,0.340,975.000,82.000,175.000,0.000,1.000:

0000
0000
0000
0000
,
1000
0002
0203
0300
,
0010
1000
1001
0000
,
0001
0000
0010
0200
0000
0000
1300
0001
,
0200
0310
1010
0000
,
0001
0000
1000
0010
0000
0100
0001
1000
,
0100
0000
0010
0000
0001
0000
1000
0010
,
0100
0000
0001
1000
0000
0100
0010
0000
,
0002
0000
2003
0000
3200
0000
0310
0100
,
2000
0000
3002
0000
0203
0000
0310
2000
,
0000
0000
3000
0000
0001
0100
0010
1000
0001
1000
0001
0100
0001
0010
0100
0000
,
2000
0000
3002
0000
0023
0000
0031
0200
,
0000
0000
0300
0000
0010
1000
0001
1000
0100
0010
0100
1000
0001
0000
0000
0000
,
0100
0000
0000
0010
0000
1000
0001
0100
,
0020
0000
2030
0000
3002
0000
0013
0100
,
1000
0000
0010
0100
0000
0001
1000
0000
,
0200
0000
0320
0000
0032
0000
1003
0010
,
0200
0000
0320
0000
2030
0000
3001
0200
,
0000
0000
0300
0000
0001
0010
0100
1000
0001
1000
0001
0010
0001
0100
0010
0000
,
2000
0000
3002
0000
0203
0000
0301
0020
,
0000
0000
0030
0000
0100
1000
0001
1000
0010
0100
0010
1000
0002
0000
0000
0000
,
0023
0000
0000
0000
0230
0000
0000
0300
1000
0010
1000
0001
0010
0001
1000
0100
,
0010
0000
0001
1000
,
1100
0000
0000
0000
1000
0001
0100
0000
,
0101
0100
0010
2000
,
3002
0000
0000
0000
0023
0000
0000
0000
0130
1000
0001
0100
0001
1000
0010
1000
,
0001
0000
1000
0100
,
1100
0000
1000
0001
,
0101
0100
0010
2000
,
3002
0000
0000
0000
0023
0000
0000
0030
0100
0001
1000
0100
0010
0100
1000
0001
,
0100
0000
0010
1000
,
0101
0000
0000
0000
0001
1000
0100
0000
,
1100
0100
0010
0002
,
0203
0000
0000
0000
0320
0000
0000
0000
0130
0001
1000
0001
0010
0001
1000
0010
,
0100
0001
0100
0010
,
1010
0000
1000
0001
,
0011
0000
0010
0000
0100
0000
0000
1000
,
0001
0100
0010
1000
,
0001
0000
0010
0000
0110
0000
0100
1000
,
0001
0000
0100
0000
0010
1000
0010
0000
,
0200
0301
0010
0100
,
1000
1000
0001
0100
,
0010
1000
0001
0000
0010
0000
0100
1000
,
0001
0000
0001
0100
0000
0100
0010
0000
,
2000
0000
3001
0000
0010
0000
0100
1000
,
0001
1000
0010
0100
0001
0000
0010
0100
,
1000
0000
0001
0000
0100
0000
0010
1000
,
0100
0010
0001
0000
1000
0000
0010
0100
,
0002
0013
0200
2300
,
3001
0000
0100
0000
0100
0000
0010
1000
,
0001
0000
0010
0000
0100
0000
1000
0100
,
0010
0000
0010
0100
0000
0100
2000
0000
,
3002
0010
1003
0000
,
0001
0000
1000
0100
0000
0010
0001
1000
,
0010
0000
0100
0000
0001
0000
1000
0100
,
0010
0000
0001
1000
0000
0010
0100
0000
,
0002
0000
2003
0000
3020
0000
0130
0010
,
2000
0000
3002
0000
0023
0000
0130
2000
,
0000
0000
3000
0000
0001
0010
0100
1000
0001
1000
0001
0010
0001
0100
0010
0000
,
2000
0000
3002
0000
0203
0000
0301
0020
,
0000
0000
0030
0000
0100
1000
0001
1000
0010
0100
0010
1000
0001
0000
0000
0000
,
0010
0000
0000
0100
0000
1000
0001
0010
,
0200
0000
2300
0000
3002
0000
0103
0010
,
1000
0000
0100
0010
0000
0001
1000
0000
,
0020
0000
0230
0000
0302
0000
1003
0100
,
0020
0000
0230
0000
2300
0000
3001
0020
,
0000
0000
0030
0000
0001
0100
0010
1000
0001
1000
0001
0100
0001
0010
0100
0000
,
2000
0000
3002
0000
0023
0000
0031
0200
,
0000
0000
0300
0000
0010
1000
0001
1000
0100
0010
0100
1000
0002
0000
0000
0000
,
0203
0000
0000
0000
0320
0000
0000
0000
1030
0100
1000
0001
0100
0001
1000
0010
,
0100
0001
1000
0001
,
0011
0000
0001
0000
1000
0001
0010
0000
,
0011
0010
0200
2300
,
3002
0000
0003
0000
0100
0000
0000
0000
0010
1000
0001
0010
0001
1000
0100
1000
,
0001
0010
0100
1000
,
1010
0010
0100
0001
,
0011
0010
0200
2300
,
3002
0000
0003
0000
0100
0000
0000
0000
0010
1000
0001
0010
0100
0010
0001
1000
,
0010
0100
0001
0010
,
0110
0000
0010
0000
0001
1000
0010
0000
,
1010
0010
0200
0302
,
0023
0000
0030
0000
0100
0000
0000
0000
0010
0001
1000
0001
0100
0001
1000
0100
,
0010
0001
0010
0100
,
1100
0100
1000
0001
,
0101
0000
0100
0000
0020
0000
0000
1030
,
0001
0000
1000
0000
0100
0000
0010
0100
,
1000
0000
0001
0000
0100
0000
0010
1000
,
0001
0000
0010
0002
0000
0000
1003
0000
,
0010
0100
0002
0023
,
0130
0000
0100
0000
1000
0000
0001
1000
,
0100
0000
0010
0000
0100
0000
1000
0010
,
0100
0000
0001
1000
0000
0100
0010
0000
,
0002
0000
0000
0003
0000
0000
1000
0000
,
0100
0000
0010
0001
0100
0000
0010
1000
,
0100
1000
0001
0000
0100
0000
0010
1000
,
0001
0000
0010
0000
0100
0010
0100
0000
,
1000
0010
0200
0302
,
1013
1000
1001
0001
,
0011
0000
0010
0000
0100
0000
1000
0001
,
0010
0001
0100
0000
0010
0000
0100
0002
,
0000
0000
0003
0000
,
1000
0000
0001
0010
0000
0100
1000
0001
,
0100
0000
0010
0000
1000
0000
0001
0010
,
0100
0000
1000
0001
0000
0100
0010
0000
,
2000
0000
3002
0000
0203
0000
0310
0100
,
0002
0000
2003
0000
3200
0000
0310
0002
,
0000
0000
0003
0000
1000
0100
0010
0001
1000
0001
1000
0100
1000
0010
0100
0000
,
0002
0000
2003
0000
3020
0000
1030
0200
,
0000
0000
0300
0000
0010
0001
1000
0001
0100
0010
0100
0001
1000
0000
0000
0000
,
0100
0000
0000
0010
0000
0001
1000
0100
,
0020
0000
0032
0000
2003
0000
3010
0100
,
0001
0000
0010
0100
0000
1000
0001
0000
,
0200
0000
0320
0000
2030
0000
3001
0010
,
0200
0000
0320
0000
0032
0000
1003
0200
,
0000
0000
0300
0000
1000
0010
0100
0001
1000
0001
1000
0010
1000
0100
0010
0000
,
0002
0000
2003
0000
3200
0000
1300
0020
,
0000
0000
0030
0000
0100
0001
1000
0001
0010
0100
0010
0001
2000
0000
0000
0000
,
3020
0000
0000
0000
0230
0000
0000
0000
0301
0010
0001
1000
0010
1000
0001
0100
,
0010
1000
0001
1000
,
1100
0000
1000
0000
0001
1000
0100
0000
,
1100
0100
0020
0032
,
2003
0000
3000
0000
0010
0000
0000
0000
0100
0001
1000
0100
1000
0001
0010
0001
,
1000
0100
0010
0001
,
0101
0100
0010
1000
,
1100
0100
0020
0032
,
2003
0000
3000
0000
0010
0000
0000
0000
0100
0001
1000
0100
0010
0100
1000
0001
,
0100
0010
1000
0100
,
0110
0000
0100
0000
1000
0001
0100
0000
,
0101
0100
0020
2030
,
3200
0000
0300
0000
0010
0000
0000
0000
0100
1000
0001
1000
0010
1000
0001
0010
,
0100
1000
0100
0010
,
0011
0010
0002
0023
,
0230
2300
3020
0130
,
1010
0000
0011
1100
,
0011
1100
0000
0011
,
0000
0000
1100
0000
0011
1100
0011
0000
,
1100
0011
1100
0001
,
1000
1000
0101
1010
,
0101
1010
0000
0101
,
0000
1010
0101
1010
,
0101
1000
0001
0100
,
0010
0000
1100
0011
,
1100
0011
0000
1100
,
0000
0000
0011
0000
1100
0011
1100
0000
,
0011
1100
0011
1000
,
0001
0001
1010
0101
,
1010
0101
0000
1010
,
0000
0101
1010
0101
,
1010
0101
2010
0000
,
3001
0000
1000
0100
0000
0010
0001
1000
,
0010
0000
0100
0000
0001
0000
1000
0100
,
0010
0000
0001
1000
0000
0010
0100
0000
,
0002
0000
2003
0000
3020
0000
0130
0010
,
2000
0000
3002
0000
0023
0000
0130
2000
,
0000
0000
3000
0000
0001
0010
0100
1000
0001
1000
0001
0010
0001
0100
0010
0000
,
2000
0000
3002
0000
0203
0000
0301
0020
,
0000
0000
0030
0000
0100
1000
0001
1000
0010
0100
0010
1000
0001
0000
0000
0000
,
0010
0000
0000
0100
0000
1000
0001
0010
,
0200
0000
2300
0000
3002
0000
0103
0010
,
1000
0000
0100
0010
0000
0001
1000
0000
,
0020
0000
0230
0000
0302
0000
1003
0100
,
0020
0000
0230
0000
2300
0000
3001
0020
,
0000
0000
0030
0000
0001
0100
0010
1000
0001
1000
0001
0100
0001
0010
0100
0000
,
2000
0000
3002
0000
0023
0000
0031
0200
,
0000
0000
0300
0000
0010
1000
0001
1000
0100
0010
0100
1000
0002
0000
0000
0000
,
0203
0000
0000
0000
0320
0000
0000
0000
1030
0100
1000
0001
0100
0001
1000
0010
,
0100
0001
1000
0001
,
0011
0000
0001
0000
1000
0001
0010
0000
,
0011
0010
0200
2300
,
3002
0000
0003
0000
0100
0000
0000
0000
0010
1000
0001
0010
0001
1000
0100
1000
,
0001
0010
0100
1000
,
1010
0010
0100
0001
,
0011
0010
0200
2300
,
3002
0000
0003
0000
0100
0000
0000
0000
0010
1000
0001
0010
0100
0010
0001
1000
,
0010
0100
0001
0010
,
0110
0000
0010
0000
0001
1000
0010
0000
,
1010
0010
0200
0302
,
0023
0000
0030
0000
0100
0000
0000
0000
0010
0001
1000
0001
0100
0001
1000
0100
,
0010
0001
0010
0100
,
1100
1000
0001
1000
,
1010
0010
0200
0000
,
0320
0030
0000
0000
0000
0000
0000
0000
;

//---------------dance-single - Zaia----------------
#NOTES:
     dance-single:
     Zaia:
     Medium:
     9:
     0.736,0.725,0.400,0.875,0.000,763.000,80.000,175.000,0.000,1.000:
0000
0000
0000
0000
,
1000
0002
0203
0300
,
0010
1000
1001
0000
,
0001
0000
0010
0200
0000
0000
1300
0001
,
0200
0310
1010
0000
,
0001
0000
1000
0010
0000
0100
0001
1000
,
0100
0000
0010
0000
0001
0000
1000
0010
,
0100
0000
0001
1000
0000
0100
0010
0000
,
0002
0000
2003
0000
3200
0000
0310
0100
,
2000
0000
3002
0000
0203
0000
0310
2000
,
0000
3000
0004
0000
0000
0000
0003
0010
,
0200
0000
2300
0000
3020
0000
1030
0200
,
0000
0300
4000
0000
0000
3000
0000
0000
,
0010
0000
0000
0100
0000
0001
1000
0010
,
0200
0000
0302
0000
2003
0000
3100
0010
,
0001
0000
0100
0010
0000
1000
0001
0000
,
0020
0000
0230
0000
2300
0000
3001
0100
,
0020
0000
0230
0000
0302
0000
1003
0020
,
0000
0030
4000
0000
0000
0000
3000
0010
,
0200
0000
0302
0000
0023
0000
0031
0200
,
0000
0300
0004
0000
0000
0000
2003
0000
,
3200
0000
0000
0000
0320
0000
0000
0030
0001
0000
0100
0000
0010
0000
0100
0000
,
0001
0000
1000
0001
,
0011
0000
0000
0000
0001
1000
0010
0000
,
1010
0010
0100
0002
,
2003
0000
3200
0000
0310
0001
1000
0001
,
0100
0000
0001
0010
,
0011
0000
0001
1000
,
1010
0010
0100
0002
,
2003
0000
0000
0000
3200
0000
0000
0300
1000
0000
0010
0000
0100
0000
0010
0000
,
1000
0000
0001
0100
,
1010
0000
0000
0000
1000
0001
0010
0000
,
0011
0010
0100
2000
,
3020
0000
0230
0000
0310
1000
0001
1000
,
0100
1000
0010
0100
,
0101
0000
0001
1000
,
1100
0000
0100
0000
0010
0000
0000
0001
,
1000
0010
0100
0001
,
1000
0000
0100
0000
0110
0000
0010
0001
,
1000
0000
0010
0000
0100
0001
0100
0000
,
0020
1030
0100
0010
,
0001
0001
1000
0010
,
0100
0001
1000
0000
0100
0000
0010
0001
,
1000
0000
1000
0010
0000
0010
0100
0000
,
0002
0000
1003
0000
0100
0000
0010
0001
,
1000
0001
0100
0010
1000
0000
0100
0010
,
0001
0000
1000
0000
0010
0000
0100
0001
,
0010
0100
1000
0000
0001
0000
0100
0010
,
2000
3100
0020
0032
,
1003
0000
0010
0000
0010
0000
0100
0001
,
1000
0000
0100
0000
0010
0000
0001
0010
,
0100
0000
0100
0010
0000
0010
0002
0000
,
2003
0100
3001
0000
,
1000
0000
0001
0010
0000
0100
1000
0001
,
0100
0000
0010
0000
1000
0000
0001
0010
,
0100
0000
1000
0001
0000
0100
0010
0000
,
2000
0000
3002
0000
0203
0000
0310
0100
,
0002
0000
2003
0000
3200
0000
0310
0002
,
0000
0003
4000
0000
0000
0000
3000
0010
,
2000
0000
3002
0000
0203
0000
0301
0020
,
0000
0030
0400
0000
0000
0000
0300
0000
,
0010
0000
0000
0100
0000
1000
0001
0010
,
0200
0000
2300
0000
3002
0000
0103
0010
,
1000
0000
0100
0010
0000
0001
1000
0000
,
0020
0000
0230
0000
0302
0000
1003
0100
,
0020
0000
0230
0000
2300
0000
3001
0020
,
0000
0030
0004
0000
0000
0000
0003
0010
,
0002
0000
2003
0000
3200
0000
1300
0020
,
0000
0030
0400
0000
0000
0000
0302
0000
,
0203
0000
0320
0000
1030
0100
0010
0100
,
1000
0001
1000
0001
,
0011
0000
0001
0000
1000
0001
0010
0000
,
0011
0010
0200
2300
,
3002
0003
0100
0000
0010
1000
0010
0100
,
0001
0010
0100
1000
,
1010
0010
0100
0001
,
0011
0010
0200
2300
,
3002
0003
0100
0000
0010
1000
0100
1000
,
0001
0100
0001
0010
,
0110
0000
0010
0000
0001
1000
0010
0000
,
1010
0010
0200
0302
,
0023
0030
0100
0000
0010
0001
1000
0010
,
0100
0001
0010
0100
,
1100
0100
1000
0001
,
0011
0000
0010
0000
0200
0000
0000
1300
,
0001
0000
1000
0000
0100
0000
0010
0100
,
1000
0000
0001
0000
0100
0000
0010
1000
,
0001
0000
0010
0002
0000
0000
1003
0000
,
0010
0100
0002
0023
,
0130
0000
0100
0000
1000
0000
0001
1000
,
0100
0000
0010
0000
0100
0000
1000
0010
,
0100
0000
0001
1000
0000
0100
0010
0000
,
0002
0000
0000
0003
0000
0000
1000
0000
,
0100
0000
0010
0001
0100
0000
0010
1000
,
0100
1000
0001
0000
0100
0000
0010
1000
,
0001
0000
0010
0000
0100
0010
0100
0000
,
1000
0010
0200
0302
,
1013
1000
1001
0001
,
0011
0000
0010
0000
0100
0000
1000
0001
,
0010
0001
0100
0000
0010
0000
0100
0002
,
0000
0000
0003
0000
,
1000
0000
0001
0100
0000
0010
1000
0001
,
0010
0000
0100
0000
1000
0000
0001
0100
,
0010
0000
1000
0001
0000
0010
0100
0000
,
2000
0000
3002
0000
0023
0000
0130
0010
,
0002
0000
2003
0000
3020
0000
0130
0002
,
0000
0003
4000
0000
0000
0000
3000
0100
,
2000
0000
3002
0000
0023
0000
0031
0200
,
0000
0300
0040
0000
0000
0000
0030
0000
,
0100
0000
0000
0010
0000
1000
0001
0100
,
0020
0000
2030
0000
3002
0000
0013
0100
,
1000
0000
0010
0100
0000
0001
1000
0000
,
0200
0000
0320
0000
0032
0000
1003
0010
,
0200
0000
0320
0000
2030
0000
3001
0200
,
0000
0300
0004
0000
0000
0000
0003
0100
,
0002
0000
2003
0000
3020
0000
1030
0200
,
0000
0300
0040
0000
0000
0000
0032
0000
,
0023
0000
0230
0000
1300
0010
0100
0010
,
1000
0001
1000
0001
,
0101
0000
0001
0000
1000
0001
0100
0000
,
0101
0100
0020
2030
,
3002
0003
0010
0000
0100
1000
0100
0010
,
0001
0100
0010
1000
,
1100
0100
0010
0001
,
0101
0100
0020
2030
,
3002
0003
0010
0000
0100
1000
0010
1000
,
0001
0010
0001
0100
,
0110
0000
0100
0000
0001
1000
0100
0000
,
1100
0100
0020
0032
,
0203
0300
0010
0000
0100
0001
1000
0100
,
0010
0001
0100
0010
,
1010
0010
2000
3200
,
0320
0032
0203
0310
,
0101
0000
1100
0011
,
1100
0011
0000
1100
,
0000
0000
0011
0000
1000
0001
1000
0000
,
0011
1100
0011
1000
,
0001
0001
1010
0101
,
1010
0101
0000
1010
,
0000
0101
1010
0101
,
1010
0001
1000
0010
,
0100
0000
0011
1100
,
0011
1100
0000
0011
,
0000
0000
1100
0000
0001
1000
0001
0000
,
1100
0011
1100
0001
,
1000
1000
0101
1010
,
0101
1010
0000
0101
,
0000
1010
0101
1010
,
0101
1010
0102
0000
,
1003
0000
0001
0100
0000
0010
1000
0001
,
0010
0000
0100
0000
1000
0000
0001
0100
,
0010
0000
1000
0001
0000
0010
0100
0000
,
2000
0000
3002
0000
0023
0000
0130
0010
,
0002
0000
2003
0000
3020
0000
0130
0002
,
0000
0003
4000
0000
0000
0000
3000
0100
,
2000
0000
3002
0000
0023
0000
0031
0200
,
0000
0300
0040
0000
0000
0000
0030
0000
,
0100
0000
0000
0010
0000
1000
0001
0100
,
0020
0000
2030
0000
3002
0000
0013
0100
,
1000
0000
0010
0100
0000
0001
1000
0000
,
0200
0000
0320
0000
0032
0000
1003
0010
,
0200
0000
0320
0000
2030
0000
3001
0200
,
0000
0300
0004
0000
0000
0000
0003
0100
,
0002
0000
2003
0000
3020
0000
1030
0200
,
0000
0300
0040
0000
0000
0000
0032
0000
,
0023
0000
0230
0000
1300
0010
0100
0010
,
1000
0001
1000
0001
,
0101
0000
0001
0000
1000
0001
0100
0000
,
0101
0100
0020
2030
,
3002
0003
0010
0000
0100
1000
0100
0010
,
0001
0100
0010
1000
,
1100
0100
0010
0001
,
0101
0100
0020
2030
,
3002
0003
0010
0000
0100
1000
0010
1000
,
0001
0010
0001
0100
,
0110
0000
0100
0000
0001
1000
0100
0000
,
1100
0100
0020
0032
,
0203
0300
0010
0000
0100
0001
1000
0100
,
0010
0001
0010
0001
,
0101
0100
0010
1000
,
1001
0001
0020
0000
,
0230
0300
0000
0000
0000
0000
0000
0000
;
