#TITLE:Metroid Metal Prime;
#SUBTITLE:Space Pirate Theme;
#ARTIST:Stemage;
#TITLETRANSLIT:;
#SUBTITLETRANSLIT:;
#ARTISTTRANSLIT:;
#CREDIT:;
#BANNER:Banner.jpg;
#BACKGROUND:pirate background.jpg;
#LYRICSPATH:;
#CDTITLE:MoDcdtitle.PNG;
#MUSIC:metroidmetal_spacepirates.mp3;
#OFFSET:-1.520;
#SAMPLESTART:101.970;
#SAMPLELENGTH:12.000;
#SELECTABLE:YES;
#BPMS:0.000=120.000,182.167=200.000,205.000=120.000,231.000=150.000,259.500=160.000,284.500=130.000,347.000=160.000,378.000=145.000,409.000=100.000,420.000=190.000,460.000=230.000,559.000=260.000,586.000=115.999,617.000=129.999,627.833=99.999,631.667=89.999,634.500=79.999;
#STOPS:170.500=0.200
,173.500=0.200
,176.250=0.200
,179.000=0.200
,182.167=0.100
,182.500=0.100
,183.000=0.100
,183.667=0.100
,184.500=0.100
,185.500=0.100
,186.500=0.100
,187.167=0.100
,190.333=0.100
,190.833=0.100
,191.333=0.100
,192.000=0.100
,192.667=0.100
,193.333=0.100
,205.000=0.200
,231.000=0.160
,239.000=0.160
,246.667=0.160
,254.000=0.160
,257.667=0.220
,258.333=0.280
,259.000=0.300
,259.500=0.120
,260.000=0.140
,260.500=0.160
,261.000=0.180
,261.500=0.200
,262.000=0.220
,265.500=0.140
,266.000=0.160
,266.500=0.180
,267.000=0.200
,267.500=0.220
,268.000=0.240
,271.000=0.160
,271.500=0.180
,272.000=0.200
,272.500=0.220
,273.000=0.240
,273.500=0.260
,360.000=0.260
,360.500=0.340
,361.000=0.400
;
#BGCHANGES:0.000=pirate background.jpg=1.000=0=0=1,
99999=-nosongbg-=1.000=0=0=0 // don't automatically add -songbackground-
;
// cache tags:
#FIRSTBEAT:1.667;
#LASTBEAT:650.000;
#SONGFILENAME:Songs/toune 2011/metroidmetal_spacepirates/metroidmetal_spacepirates.sm;
#HASMUSIC:1;
#HASBANNER:1;
#MUSICLENGTH:287.718;
// end cache tags

//---------------dance-single - ----------------
#NOTES:
     dance-single:
     :
     Hard:
     9:
     0.700,1.000,0.598,0.931,0.728,969.000,172.000,268.000,0.000,1.000:
0000
0000
0000
0000
0000
2002
0000
0000
0000
0000
0000
0000
,
0000
0000
0000
0000
0000
0000
0000
3003
,
0000
1000
0010
0100
0001
1000
0100
0001
1000
0010
0100
0010
0002
0000
2000
0000
,
0000
0000
0000
0000
0000
0000
0000
0000
3003
0100
0010
1000
0100
0001
1000
0010
,
0100
0000
0001
1000
0100
0001
1000
0020
0000
0000
0000
0000
0000
0000
0030
0000
,
0100
0001
0010
1000
0001
0100
1000
0010
0000
0100
0001
1000
0100
0001
0010
1000
,
0001
0100
1000
0020
0000
0000
0000
0000
0000
0000
0000
0000
0030
0000
0000
1000
,
0010
0001
0100
1000
0001
0100
0010
1000
0100
0010
1000
0010
0100
0002
0000
0000
,
0000
0000
0000
0000
0000
0000
0000
0000
0003
0000
1000
0010
0000
0100
0000
0100
,
0000
0110
0000
0000
0001
0000
1000
0000
0010
0000
0000
0100
0000
0000
0000
0010
,
0000
0000
0000
0100
0000
1000
0000
0010
0000
0010
0000
0101
0000
0000
0010
0000
,
1000
0000
0100
0000
0001
0000
0000
1000
0000
0000
0100
0000
0000
0001
0000
1000
,
0010
0000
0100
0000
0011
0000
1000
0000
0010
0000
0000
0100
0000
0000
0020
0000
,
0030
0000
0001
0000
0000
0100
0000
0000
0010
0000
0100
0000
0100
0000
1001
0000
,
0000
0100
0000
0000
0010
0000
0000
1000
0000
0001
0000
0000
0000
0010
0000
0000
,
0001
0000
1000
0010
0000
0010
0000
0000
1001
0000
0000
0110
0000
0000
0000
0100
,
0000
0010
0000
1000
0000
0101
0000
0000
0010
0000
0000
1000
0000
0001
0000
0100
,
0000
0000
0000
1000
0000
0000
0001
0000
0010
0000
0100
0000
0100
0000
1010
0000
,
0000
0100
0000
0001
0000
0020
0030
2000
3000
0200
0300
0000
1000
0000
0000
0010
,
0000
0000
0000
0000
0000
0000
0100
0000
0000
0000
0000
0000
1000
0000
0000
0000
0000
0000
1000
0000
0000
0000
0000
0000
0110
0000
0000
0000
0000
0000
0000
0000
0000
0001
0000
0000
0010
0000
0002
0000
0003
0000
0000
0000
0000
1000
0000
0000
,
0000
0000
0010
0000
0000
0100
0000
0000
1000
0000
0000
0010
0000
1000
0000
0001
,
0000
0110
0000
0000
1000
0000
0000
0010
0000
0000
0001
0000
0100
0000
0000
0000
,
0001
0000
0000
0010
0000
1000
0000
0010
0000
0010
0000
1100
0000
0000
0100
0000
,
0001
0000
0000
0000
0000
0000
0000
0000
0000
0010
0000
0000
0000
0000
0000
0000
0000
0000
1000
0000
0000
0000
0000
0000
0000
0000
0000
0010
0000
0000
0000
0000
0000
0000
1000
0000
0100
0000
1000
0000
0100
0000
1000
0000
0100
0000
1000
0000
,
0100
0001
0010
0000
0010
1001
0000
0000
0100
0000
0000
0010
0000
0000
0000
1000
,
0000
0000
0001
0000
0000
0100
0000
0000
0010
0000
1000
0000
1000
0000
0101
0000
,
0000
0010
0000
0000
1000
0000
0001
0000
0000
0020
0030
2000
3000
0000
0001
0000
,
0000
1000
0000
0010
0000
0001
0000
1100
0000
0000
0010
0000
0000
1000
0000
0000
,
0001
0000
0000
0000
0000
0000
0000
0000
0000
0010
0000
0000
0000
0000
0000
0000
0000
0000
0001
0000
0000
0000
0000
0000
0000
0000
0000
0100
0000
0000
0000
0000
2000
0001
0000
0000
0000
0000
0000
0010
0000
0000
0000
0000
0000
0010
0000
0000
,
0000
0001
0100
0000
0000
0000
0000
0000
0000
0000
0000
0000
0000
0000
0000
0010
,
0001
0100
0000
0000
3000
0100
0002
1000
0000
1000
0000
0010
0000
0100
0000
0000
,
0000
0000
0000
0000
0000
0000
0000
0000
0000
0000
0000
0000
0003
0000
0000
1000
0000
0010
0100
0001
0010
1000
0100
0000
,
0010
0001
0010
0100
1000
0100
0001
0010
1002
0000
0000
0000
0000
0000
0000
0000
0000
0000
0000
0000
0000
0000
0000
0000
,
0000
0000
1000
0000
0013
0000
2000
0000
0000
0000
0000
0000
0001
0000
0000
0100
0000
0000
0100
0000
0000
0001
0000
0000
,
0010
0000
0000
0000
0000
0000
0000
0000
0000
0000
0000
0000
0000
0000
0000
0000
0000
0000
0000
0000
0000
0000
0000
0000
3000
0000
0000
0000
0000
0000
0000
0000
0002
1000
0000
0000
0010
0000
0000
0000
0000
0000
0000
0000
0000
0000
0000
0000
,
0000
0100
1000
1000
0010
0100
0000
0000
,
0000
0000
0000
0003
2000
0000
0001
0010
,
0010
0001
0000
0100
0000
0000
0000
0000
0000
0000
0000
0000
0000
0000
0000
0000
,
0000
0000
0000
3000
0000
1002
0100
0000
0100
0000
1000
0000
0010
0000
0000
0000
,
0000
0100
0010
0010
0100
1000
0000
0010
,
1000
1000
0010
0100
0000
0000
1000
0100
,
0100
1000
0020
0000
0000
0000
0000
0000
,
0033
0000
0000
0000
0010
1100
0000
0110
0000
0000
0011
0000
0000
0000
0000
0000
,
0001
0110
0000
1100
0000
0000
0101
0000
0000
0000
0000
0100
1001
0000
1010
0000
,
0000
0110
0000
0000
0000
0010
0000
1010
0000
0110
0000
0000
0101
0000
0000
0000
,
0001
0000
0000
1100
0000
0000
0010
0000
0001
0000
0010
0000
0100
0000
1000
0000
0100
0000
0001
0000
0010
0000
1000
0000
0100
0000
0011
0000
0000
0000
1100
0000
0000
0000
0000
0000
0101
0000
0000
0000
0000
0000
0000
0000
1010
0000
0000
0000
,
0000
0000
0000
0000
0000
0000
0110
0000
0000
0000
0000
0000
0000
0000
0000
0000
0000
0000
1001
0000
0000
0000
0000
0000
0000
0000
0000
0000
0000
0000
1100
0000
0000
0000
0000
0000
0000
0000
0011
0000
0000
0000
0000
0000
0000
1000
0000
0000
,
0100
0000
0000
0010
0000
0000
0001
0000
0000
0010
0000
0000
2002
0000
0000
0000
3003
0000
0000
0000
0000
0000
0000
0000
0000
0000
0000
0000
0011
0000
0000
0000
0000
0000
1100
0000
0000
0000
0000
0000
0101
0000
0000
0000
0000
0000
0000
0000
,
1010
0000
0000
0000
0110
0000
0000
0000
1001
0000
0000
0000
2200
3300
0000
0000
0022
0033
0000
0000
0000
0000
0000
0000
,
1000
0100
0010
0000
0100
0000
2002
0000
0000
3003
0000
0000
0000
0000
1000
0000
0100
0000
0001
0000
0000
0000
1000
0000
,
0100
0001
0000
1000
0100
0001
0000
1000
0100
2002
0000
0000
,
0000
0000
0000
0000
0000
0000
0000
0000
0000
0000
0000
0000
3003
0000
0000
0110
0000
0000
0000
0000
2000
0000
0000
0000
3000
0000
0000
0000
0000
0000
0000
0000
0020
0000
0000
0000
0030
0000
0000
0000
0200
0000
0000
0000
0300
0000
0000
0000
,
0002
0003
2000
3000
0200
0300
2000
0000
3000
0020
0030
0100
,
0002
0003
0200
0300
0020
0030
2000
0000
3000
0200
0300
0002
,
0000
0003
0020
0030
0000
0200
0301
0000
0020
0030
2000
3000
,
0002
0000
0003
0200
0300
0020
0000
0030
2000
3000
0200
0000
,
0300
0002
0003
0200
0300
2000
0000
3000
0002
0003
0020
0000
,
0030
0000
2000
0000
3000
0000
0200
0000
0300
0000
0002
0000
0003
0000
2000
0000
3000
0000
0011
0000
0000
2200
0000
0000
,
0000
0000
0000
0000
3300
0000
1000
0010
,
0000
0000
0100
0000
0000
1000
0000
0000
0022
0033
0000
0000
1100
0000
0022
0000
,
0000
0000
0000
0000
0000
0000
0000
0000
0000
0000
0000
0000
0033
0000
0000
0010
0000
0000
0100
0010
0100
0010
0000
0000
,
1000
0000
0000
0010
0100
0010
0100
0000
0000
0000
1001
0000
0000
0000
0000
0000
0101
0000
0000
0000
2020
0000
0000
0000
,
0000
0000
0000
0000
0000
0000
0000
0000
0000
0000
3030
0000
0000
0000
0100
0001
1000
0010
0100
0001
0000
0000
0000
1000
,
0100
0001
0010
1000
0000
0000
0000
0000
0001
0000
0000
0000
1010
0000
0000
0000
0202
0000
0000
0000
0000
0000
0000
0000
,
0000
0000
0000
0000
0000
0000
0303
0000
0000
0000
0011
0000
0000
0000
0110
0000
0000
0000
1100
0000
0000
0011
0000
0000
,
1100
0101
1010
0110
1001
0000
0200
0300
,
0020
0030
0000
1100
0011
1010
0101
0110
,
1001
0000
0020
0030
0200
0300
1001
0110
,
1010
0101
1100
0011
0200
0300
0020
0030
,
2000
3000
0002
0003
0200
0300
0020
0030
,
2000
3000
0020
0030
2002
3003
0220
0330
,
0000
0000
1000
0010
0100
0010
0100
1000
0010
1001
0000
0100
0010
0000
0100
0001
,
0010
1000
0100
0010
0100
0001
0100
1010
0000
0001
1000
0000
0010
0001
0100
1000
,
0100
0010
1000
0010
0100
1001
0100
0010
1000
0001
0100
1000
0010
0000
0002
0003
,
0200
0300
0000
2000
3000
0020
0030
0200
0300
0000
0022
0000
0000
0000
0033
0000
,
2000
3000
0002
0003
0220
0000
0000
0000
,
0000
0000
0330
2002
3003
0200
0000
0300
,
0002
0000
0003
0000
2100
0010
0001
0010
0100
0010
0000
0001
0010
0100
0010
3001
,
1001
0100
0010
0001
0010
0100
1001
0100
0010
0001
0010
0100
,
1001
0000
0000
0000
0100
0000
0000
0000
0010
0000
0000
0000
0001
0000
0000
0000
0110
0000
0000
0000
0000
1000
0000
0000
0010
0000
0000
0100
0000
0000
0001
0000
0000
0000
0000
0000
2000
0000
0000
0000
0000
0000
3000
0000
0000
0000
0000
0000
,
0020
0030
0000
0002
0003
0200
0300
0000
0020
0030
2000
3000
,
0000
0020
0030
0000
0200
0300
0000
0002
0003
0000
0020
0030
,
0000
2000
3000
0002
0003
0000
0200
0300
0020
0030
2000
3000
,
0002
0003
0000
0200
0300
0002
0003
0000
2000
3000
0020
0030
,
0000
0200
0300
0000
2000
3000
0002
0003
0000
0200
0300
0000
,
1000
0010
0100
0100
0100
0100
0001
0010
0001
1000
0100
0010
,
0100
0000
0001
0000
0010
0000
0100
0000
1000
0000
0100
0000
0010
0000
0001
0000
0000
0000
1100
0000
0000
0022
0000
0000
,
0000
0000
0000
0000
0000
0000
0000
0000
0000
0000
0000
0000
0000
0000
0000
0033
0000
0000
1000
0000
0010
0100
0010
0100
,
0000
0000
0000
0000
0001
0000
0100
0010
0100
0010
0000
0000
0000
1001
0000
0000
0000
0000
0000
0000
0000
0011
0000
0000
,
2200
0000
0000
3300
,
0011
1100
0101
0110
2002
0000
0000
0000
,
0000
0000
0000
0000
0000
0000
3003
0000
0000
0200
0000
0000
0300
0000
0000
0000
0020
0000
0000
0000
0030
0000
0000
0000
,
2000
0000
3000
0000
1010
0202
0000
0000
,
0000
0000
0000
0303
0110
0000
1001
0000
,
0000
0110
0000
0000
0020
0000
0000
0030
,
2000
0000
3000
0001
0200
0000
0000
0000
,
0000
0000
0000
0300
2000
0000
3000
0002
,
0003
0100
0000
0020
0000
0000
0000
0030
,
1000
0000
0100
0000
0010
0000
0001
0000
0010
0000
0000
0000
0002
0000
0000
0000
0000
0000
0003
0000
0000
0200
0000
0000
,
0000
0300
0011
0000
2200
0000
0000
0000
,
0000
0000
3300
0000
2020
3030
0202
0303
,
0220
0330
2002
0000
0000
0000
0000
0000
,
0000
0000
0000
3003
0000
0000
1000
0000
0100
0000
1000
0000
0100
0000
0010
0000
1000
0000
0100
0000
0010
0000
0001
0000
,
0010
0100
1000
0100
0010
0001
0010
1001
0100
0010
0001
0010
,
0100
0000
0000
0000
1000
0000
0000
0000
0001
0000
0000
0000
0020
0000
0000
0230
0000
0000
0320
0000
0000
0230
0000
0000
0320
0000
0000
0230
0000
0000
0320
0000
0000
0230
0000
0000
0320
0000
0000
0030
0000
0000
0000
0000
0000
0000
0000
0000
,
1001
0220
0000
0000
0330
1100
0022
0000
,
0000
0033
0000
0000
0101
0000
2020
0000
0000
0000
0000
0000
3030
0000
0011
0000
,
2020
0000
0000
3030
0000
0000
0220
0000
0330
0000
0000
0000
0110
0000
0000
2002
0000
0000
0000
0000
0000
0000
0000
0000
,
3003
0011
2200
0000
0000
3300
1010
0202
,
0000
0000
0000
0000
0000
0000
0303
0000
0000
1100
0000
0000
0202
0000
0000
0303
0000
0000
2002
0000
3003
0000
0000
0000
,
0110
2000
0000
0000
3000
0011
0020
0000
,
0000
0030
0101
2000
0000
0000
0000
3000
,
0110
0000
0011
1100
0000
1010
0002
0000
,
0000
0003
1001
0200
0000
0000
0300
0011
,
0100
0010
1000
0100
0001
0010
0200
0300
,
2020
0000
0000
0000
0000
3030
0202
0000
,
0000
0000
0000
0303
0000
0220
0000
0000
,
0000
0000
0330
2002
0000
0000
0000
0000
,
0000
3003
2200
0000
0000
0000
3300
0022
,
0000
0000
0000
0000
0033
0202
0000
0000
,
0000
0000
0000
0303
0020
0000
0000
0000
,
0000
0030
2200
0000
0300
0000
3000
1000
,
0100
0010
0001
0010
0100
1000
0100
0010
,
0001
0010
0100
1000
0100
0010
0001
0010
,
0100
1000
0100
0010
0001
0010
0100
1000
,
0100
0010
0001
0010
0100
1000
0100
0010
,
0001
0010
0100
1000
0100
0010
0001
0010
,
0100
1000
0220
0000
0000
0000
0000
0000
,
0330
2000
0000
0000
0200
0000
3300
0020
,
0000
0000
0000
0000
,
0000
0000
0030
0000
1000
0100
0010
0002
0000
0000
0000
0000
0000
0000
0000
0000
,
0000
0000
0000
0000
0003
0020
0000
0000
0000
2000
0000
0000
3030
0000
0000
0200
,
0000
0000
0000
0000
,
0300
1000
0010
0002
0000
0010
0100
1000
,
0100
0010
0100
1000
0100
0010
0100
1000
,
0100
0000
0000
0000
0003
0000
0010
0100
0010
0100
0010
0100
0010
0100
0010
0100
,
0010
0100
0010
0100
0001
0010
0100
2000
0000
0000
0010
0100
0010
0200
0000
0000
,
0000
0000
0300
0000
0010
0000
0000
0000
0000
0000
0000
0000
0000
0000
0000
3100
,
0020
0000
0000
0000
0030
0000
1000
0100
0010
0001
0010
0100
1000
0000
0000
1000
,
0100
0000
0001
0010
0000
0000
1000
0100
0000
0001
0010
0000
2200
0000
0000
0000
,
0000
0000
0000
0000
,
0000
0000
0000
0000
,
0000
0000
0000
0000
0000
0000
3300
0000
1100
0000
0010
0001
0010
0100
1000
0000
,
0220
0330
0022
0000
0000
0000
0000
0000
0000
0000
0000
0000
0000
0000
0000
0000
,
0000
0000
0000
0000
0000
0000
0000
0000
0000
0000
0033
0000
0220
0000
0000
0330
,
0000
0000
1001
0000
0000
0110
0000
0000
1001
0000
0000
0110
0000
0000
1001
0000
,
0000
0000
0220
0000
0000
0000
0000
0330
0000
1000
0000
1000
0000
0202
0000
0303
,
0000
1000
0100
0010
0000
0000
0000
0000
0010
0000
0100
0001
0000
0000
0000
0000
1001
0000
0000
0000
0000
0100
0000
0000
,
0010
0001
0000
0001
0000
1100
0000
0000
2000
0000
3200
0000
0320
0000
0032
0000
,
0203
0000
0320
0000
0032
0000
0023
0000
0030
0100
1000
0000
1000
0000
0010
0000
,
1000
0100
1000
0010
0100
0001
0010
0001
,
0220
0000
0000
0300
0000
0100
1000
0000
1000
0000
0200
0000
0000
0000
0000
0000
,
0000
0000
0000
0000
0000
0000
0030
0000
0000
0000
0300
0010
0001
0000
0001
0000
,
0100
0000
0000
0000
0000
0000
1000
0000
0000
0100
0000
0000
0000
0000
0000
0001
0000
0000
0010
0000
0100
0000
1000
0000
0100
0000
0010
0000
0001
0000
0010
0000
0100
0000
1000
0000
0100
0000
0010
0000
0001
0000
0010
0000
0100
0000
1000
0000
,
0100
0010
2002
0000
3003
0000
0020
0000
0000
0000
0000
0000
0000
0030
0000
0200
0000
0000
0000
0000
0300
0000
0000
1000
,
0000
0002
0000
0000
0000
0000
1000
0000
0000
0000
0000
0000
0000
0000
1000
0100
1000
0100
0010
0000
0000
1000
0000
0100
,
0010
0000
0003
0010
0100
0000
2000
0000
0000
0000
0000
3000
0020
0000
0000
0000
0000
0030
0000
0000
0000
0100
0000
0002
,
0000
0000
0000
0000
0000
0000
0000
0000
0000
0000
0000
0003
0200
0000
0000
0000
0010
0001
0010
0001
1000
0300
0010
0000
,
1000
0000
0002
0000
0000
0000
0000
0000
0000
0100
0010
0003
0000
1000
0001
0200
0000
0000
0000
0000
0000
0000
0300
0001
,
0000
0020
0000
0000
0000
0000
0000
0000
0030
0000
0100
0000
2000
0000
0000
0100
0010
0000
0010
0000
0100
0010
0001
0010
,
0000
0010
0020
0000
0030
0000
0010
0000
0100
3201
0000
0320
0030
0001
0220
0000
0030
0000
0001
0010
0010
0001
0010
0001
,
0010
0001
0010
0001
0010
0001
0010
0001
0010
0001
0310
0000
1000
0000
0000
0001
0010
0100
1000
0100
0020
0031
0000
0000
,
0000
0000
0110
2002
0000
0000
0000
0000
0000
0000
0000
0000
3003
0000
0000
0000
0000
0000
0000
0000
0000
0000
0000
0000
;
