#TITLE:Victoria's Secret;
#SUBTITLE:;
#ARTIST:Sonata Arctica;
#TITLETRANSLIT:;
#SUBTITLETRANSLIT:;
#ARTISTTRANSLIT:;
#CREDIT:;
#BANNER:victora's secret-bn.png;
#BACKGROUND:victora's secret-bg.png;
#LYRICSPATH:;
#CDTITLE:!TEEXcdtitle.png;
#MUSIC:Sonata Arctica - Victoria's Secret.mp3;
#OFFSET:-0.472;
#SAMPLESTART:58.057;
#SAMPLELENGTH:12.000;
#SELECTABLE:YES;
#BPMS:0.000=150.000;
#STOPS:;
#BGCHANGES:;
// cache tags:
#FIRSTBEAT:0.000;
#LASTBEAT:709.000;
#SONGFILENAME:Songs/toune 4/Victoria's Secret/victorias secret.sm;
#HASMUSIC:1;
#HASBANNER:1;
#MUSICLENGTH:292.028;
// end cache tags

//---------------dance-single - ----------------
#NOTES:
     dance-single:
     :
     Hard:
     10:
     0.832,1.000,0.541,0.661,0.479,1350.000,158.000,193.000,0.000,0.000:  // measure 1
0200
0001
0000
0001
0300
0000
2000
0000
,  // measure 2
3020
2030
3002
0023
,  // measure 3
0032
0100
0000
0100
0000
0000
2003
0000
,  // measure 4
3200
0010
0000
0310
0002
0000
2003
0000
,  // measure 5
3020
0032
2003
3002
,  // measure 6
0023
2030
3200
0302
,  // measure 7
0203
0000
0000
0000
0320
0030
0020
0030
,  // measure 8
0001
1000
0001
1000
0001
0010
0100
1000
0001
0100
0010
1000
0001
0100
0001
0100
,  // measure 9
0020
1000
0000
0100
0000
0031
0020
0000
,  // measure 10
2030
3200
0302
2003
,  // measure 11
3020
0001
0000
0001
0000
0000
0230
0000
,  // measure 12
0302
0000
1000
0103
,  // measure 13
2000
3020
0032
2003
,  // measure 14
3002
0023
2030
3002
,  // measure 15
0203
0000
1000
0001
,  // measure 16
0010
0000
0000
0000
0301
0000
0000
0000
0010
0001
0100
0010
1000
0100
0010
0001
,  // measure 17
1000
0000
0101
0000
1000
0010
0001
0000
,  // measure 18
1000
0000
0101
0000
0001
0100
1000
0010
,  // measure 19
0002
0203
2300
3020
,  // measure 20
0032
0000
0000
0000
1003
0010
0001
0010
,  // measure 21
1000
0000
0110
0000
0001
1000
0100
0010
,  // measure 22
0011
0000
0100
0000
1000
0100
0001
0010
,  // measure 23
2000
3200
0302
0023
,  // measure 24
2030
0000
3001
0000
0010
0001
0010
0100
,  // measure 25
0020
0000
1030
0000
0100
0010
1000
0000
,  // measure 26
0001
0000
1100
0000
0010
1000
0010
0100
,  // measure 27
0020
0000
0000
0000
0230
0000
0000
1300
,  // measure 28
0010
0000
1001
0000
1001
0010
1000
0001
,  // measure 29
0101
0000
1000
0000
0001
0100
1010
0000
,  // measure 30
0011
0000
0100
0000
1000
0100
0011
0000
,  // measure 31
1001
0000
0100
0000
0010
1000
0001
1000
,  // measure 32
0110
0000
0000
0000
0001
0000
0000
0000
0010
0000
0001
0000
0001
0000
0100
0010
,  // measure 33
0100
0000
1001
0000
0001
0010
0100
1000
,  // measure 34
0020
0000
2030
0000
,  // measure 35
3001
0100
0001
0000
0000
0020
0000
0031
,  // measure 36
0100
0000
0000
0010
0000
0000
0100
0000
0001
0000
0000
0000
1100
0000
0000
0000
,  // measure 37
1001
0000
0100
0000
0000
0010
0000
1000
,  // measure 38
0100
0000
1000
0000
0022
0003
0000
0000
,  // measure 39
0200
0330
1100
0000
0000
0020
0000
0130
,  // measure 40
0001
0000
0000
1000
0000
0000
0010
0000
1000
0001
1000
0001
1000
0001
1000
0001
,  // measure 41
0100
0000
0010
1000
0100
0000
0010
0001
0100
0000
0010
1000
0100
0000
0010
0001
,  // measure 42
0100
0000
0001
0000
1000
0000
0001
0010
0001
0000
1000
0000
0010
0000
1000
0100
,  // measure 43
1000
0001
0100
0001
0011
0100
1100
1000
,  // measure 44
1001
0100
0010
1000
0002
0013
2000
3100
,  // measure 45
0010
0000
0001
0100
0010
0000
0010
0100
0001
0000
1000
0010
0100
0000
0100
0010
,  // measure 46
1000
0000
0001
0100
0010
0000
1000
0010
0100
0000
0010
0000
1000
0000
0001
0100
,  // measure 47
0001
0010
0100
1000
0101
0010
1010
0001
,  // measure 48
1001
0000
0100
0000
0001
0000
0010
0000
0100
1000
0010
0100
0001
0010
0100
0010
,  // measure 49
0001
0000
1000
0100
0001
0000
0100
1000
0010
0000
0100
0001
0010
0000
0001
0010
,  // measure 50
1000
0000
0010
0001
1000
0000
0100
1000
0001
0000
0100
0010
1000
0000
0100
0010
,  // measure 51
0100
0001
0010
0100
1100
0010
0011
1000
,  // measure 52
1001
0010
0100
1000
0002
0013
0002
0103
,  // measure 53
0010
0000
0010
0100
0001
0000
1000
0100
0001
0000
1000
0010
0001
0000
1000
0010
,  // measure 54
0100
0001
1000
0100
0011
0100
1010
0100
,  // measure 55
1001
0010
0100
0001
0002
0013
2000
3010
,  // measure 56
0002
0000
0103
0000
2000
0000
3100
0000
0001
0010
0001
0100
0010
1000
0100
1000
,  // measure 57
0001
0000
1100
0000
0001
0010
1000
0000
,  // measure 58
0001
0000
1010
0000
0100
0001
0010
0100
,  // measure 59
0120
1000
0100
0100
,  // measure 60
0031
0000
1010
0000
0100
0001
1000
0001
,  // measure 61
0210
0000
0301
0000
0010
0001
0100
0000
,  // measure 62
2010
0000
3100
0000
0010
1000
0100
1000
,  // measure 63
1002
0103
2001
3100
,  // measure 64
2002
3003
0010
0100
,  // measure 65
2002
3003
0100
0100
0001
0000
0100
0100
,  // measure 66
2000
3020
0031
1000
,  // measure 67
0021
0130
2002
3003
,  // measure 68
0202
0300
0023
0000
2030
0000
3001
0000
,  // measure 69
0110
0000
0100
0000
1000
0001
1000
0001
,  // measure 70
0120
0000
0001
0000
0030
0000
0100
0010
,  // measure 71
2100
0000
0001
0000
3000
0000
0010
0100
,  // measure 72
1002
0000
0000
0000
1003
0000
0000
0000
0100
0000
1000
0000
1000
0000
0010
0100
,  // measure 73
0010
0000
1001
0000
1000
0100
0010
0001
,  // measure 74
1100
0010
0101
0010
,  // measure 75
1010
0000
0001
0000
0000
0200
0000
0301
,  // measure 76
1000
0000
0000
0010
0000
0000
1000
0000
0100
0000
0000
0000
0001
0000
0000
0000
,  // measure 77
0021
0000
1030
0000
0000
0001
0000
0100
,  // measure 78
0210
1300
0120
0031
,  // measure 79
2010
0000
0100
0000
0000
0000
3001
0010
,  // measure 80
0110
0000
0000
1100
0000
0000
1001
0000
0010
0100
0010
1000
0100
0010
0001
0100
,  // measure 81
0010
0000
0100
0001
0010
0000
0001
0010
1000
0000
0010
0001
1000
0000
0010
1000
,  // measure 82
0100
0000
0001
0100
1000
0000
0010
0100
0001
0000
0100
0000
0001
0000
1000
0100
,  // measure 83
0010
1000
0010
0001
1100
0001
1010
0100
,  // measure 84
1001
0100
0001
0010
0200
1300
0020
1030
,  // measure 85
0001
0000
0010
0001
0100
0000
0010
1000
0100
0000
1000
0001
0100
0000
0010
1000
,  // measure 86
0100
0000
0010
0001
0100
0000
0001
1000
0010
0000
0100
0000
0001
0000
1000
0100
,  // measure 87
0010
0100
1000
0010
1001
0100
1001
0010
,  // measure 88
1001
0000
0010
0000
0100
0000
0001
0000
0001
0010
1000
0010
0001
0100
1000
0100
,  // measure 89
0001
0000
1000
0100
0001
0000
0100
1000
0010
0000
1000
0010
0001
0000
0010
1000
,  // measure 90
0100
0000
0001
0100
1000
0000
0010
0100
0001
0000
0010
0000
0100
0000
1000
0010
,  // measure 91
0100
0010
1000
0001
0110
1000
0110
0001
,  // measure 92
1100
0010
0001
1000
0020
1030
0020
0031
,  // measure 93
0010
0000
0100
0001
1000
0000
0100
1000
0001
0000
0010
0001
1000
0000
0100
1000
,  // measure 94
0001
0100
0010
1000
1010
0001
1001
0100
,  // measure 95
0101
0010
0100
0001
2000
3100
0020
0130
,  // measure 96
2000
3010
0200
0310
2000
3100
0002
0103
,  // measure 97
1000
0010
0100
0001
0010
0000
0000
0000
0100
0000
0000
0000
1001
0000
0000
0000
,  // measure 98
0001
0010
0001
0100
0001
0000
0000
0000
1000
0010
1000
0100
1000
0000
0000
0000
,  // measure 99
0010
1000
0010
0100
0010
0000
0100
0000
0100
0000
0000
0000
0101
0000
0000
0000
,  // measure 100
0001
0010
0100
1000
0010
0000
0000
0000
0200
0000
0302
0000
2003
0000
3020
0000
,  // measure 101
1030
0100
0010
0100
1000
0000
0000
0000
0001
0000
0000
0000
1100
0000
0000
0000
,  // measure 102
0010
0001
0100
0010
1000
0000
0000
0000
0100
1000
0010
0100
0001
0000
0000
0000
,  // measure 103
0100
0010
0100
0001
1000
0000
0100
0000
0100
0000
0000
0000
0011
0000
0000
0000
,  // measure 104
0001
1000
0010
1000
0001
0000
0000
0000
0000
0000
0100
0000
0100
0000
0100
0000
,  // measure 105
1001
0000
0000
1001
0000
0000
1001
0000
,  // measure 106
0001
1000
0010
0100
0001
0010
0100
1000
,  // measure 107
0010
0000
0010
1000
0100
0010
0100
1000
0010
0100
0001
0010
0001
0100
0010
1000
,  // measure 108
0001
1000
0100
0010
1000
0010
0100
1000
,  // measure 109
0100
0000
0100
0001
0100
1000
0010
0100
0001
0010
0100
1000
0010
0100
0010
1000
,  // measure 110
0001
1000
0100
0010
0001
0010
0100
1000
,  // measure 111
0001
0000
0001
0100
0010
0000
1010
0000
1100
0000
0101
0000
1001
0000
0011
0000
,  // measure 112
0010
0001
0100
0010
1000
0000
1000
0000
0011
0000
1100
0000
0101
0000
0001
1000
,  // measure 113
0100
1000
0010
0100
0001
0000
0101
0000
1100
0000
1100
0000
1001
0000
0101
0000
,  // measure 114
2001
3100
1002
0103
2001
3100
1002
0103
,  // measure 115
0001
0010
0100
1000
0001
0010
0100
1000
0001
0100
0010
1000
0001
0100
0010
0000
,  // measure 116
2010
3001
0102
1003
2010
3001
0102
1003
,  // measure 117
0010
0100
0010
0100
0001
0010
0100
1000
0010
0100
0010
0100
0010
1000
0100
0000
,  // measure 118
0012
1003
2100
3001
0012
1003
2100
3001
,  // measure 119
0010
0001
1000
0001
0010
0000
1100
0000
1100
0000
1001
0000
0010
1000
0001
1000
,  // measure 120
0010
1000
0001
1000
0010
0000
0101
0000
0101
0000
1001
0000
0010
0100
0010
1000
,  // measure 121
0100
0010
0001
0100
0010
0000
1010
0000
1010
0000
0101
0000
1100
0000
1001
0000
,  // measure 122
0220
0000
0330
0000
0000
0000
0000
0000
1000
0010
0100
0001
1000
0010
0100
0001
,  // measure 123
0020
0000
0000
0000
0000
0000
0000
0000
0000
0000
0000
0000
0000
0000
0000
0000
0000
0000
0000
0000
0000
0000
0000
0000
0000
0000
0000
0000
0000
0000
0031
0000
0100
0000
0001
0000
0200
0000
0000
0300
0000
0000
0000
0000
0000
0000
0000
0000
,  // measure 124
0000
0000
0000
0000
2000
0000
0000
0000
3010
0100
0001
0100
0010
1000
0100
1000
,  // measure 125
0010
0100
0001
0100
0010
1000
0010
1000
0001
0010
0100
1000
0001
0100
0001
0100
,  // measure 126
0001
0000
0010
0000
0001
0000
1000
0000
0100
0000
1000
0000
0001
0000
1000
0000
0010
0000
1000
0000
0000
0001
0000
0000
,  // measure 127
0110
0000
0000
0000
0010
1000
0100
1000
0001
1000
0100
1000
0010
0100
0010
0100
,  // measure 128
0001
0010
0001
0010
0100
1000
0100
1000
0001
0010
0100
1000
0001
0010
0100
1000
,  // measure 129
0001
0100
0001
0010
0001
1000
0001
0010
0001
0100
0001
0010
0100
0010
0001
1000
,  // measure 130
0200
0000
2300
0000
0000
0000
3020
0000
0230
0000
0000
0302
0000
0000
0013
0000
,  // measure 131
0021
0000
0032
0000
0000
0000
0103
0010
1000
0100
1000
0001
2000
0000
0000
0000
,  // measure 132
3020
0000
0130
0001
0010
0100
0020
0031
0100
0010
0200
0301
0010
0100
2000
3010
,  // measure 133
0200
0000
0000
0000
0310
1000
0010
0100
0001
0010
0002
0000
0000
0000
0000
0000
,  // measure 134
2003
0000
3020
0000
0000
0032
0000
0000
2003
0000
0000
3002
0000
0000
0023
0000
,  // measure 135
2030
0000
0000
3002
0000
0000
0203
0300
1001
0000
0000
0000
0000
0000
0000
0000
,  // measure 136
0001
1000
0001
1000
0001
1000
0001
1000
0001
0100
0010
1000
0100
0010
0001
0100
,  // measure 137
0010
1000
0100
0010
0001
0100
0010
0100
0001
0010
0100
1000
0010
0100
0001
0010
,  // measure 138
0100
0000
0010
0001
0100
0000
0010
1000
0100
0000
0010
0001
0100
0000
0010
1000
,  // measure 139
0100
0000
1000
0000
0001
0000
0001
0010
0001
0000
0100
0000
0010
0000
1000
0000
,  // measure 140
2100
3010
0012
0103
2100
3010
0012
0103
,  // measure 141
1100
0000
0000
0000
0002
0013
2000
3100
,  // measure 142
0010
0000
0001
0010
1000
0000
0001
0100
1000
0000
0010
0100
0001
0000
0010
1000
,  // measure 143
0100
0000
1000
0000
0001
0000
0100
0010
0100
0000
0001
0000
1000
0000
0001
0010
,  // measure 144
0001
1000
0100
1000
2010
3001
1002
0103
,  // measure 145
1001
0000
0100
0000
0010
0000
0001
0000
1000
0100
0010
0100
1000
0010
0100
0010
,  // measure 146
1000
0000
0001
0100
0010
0000
0010
0100
0001
0000
1000
0100
0010
0000
0010
0100
,  // measure 147
1000
0000
0010
0000
0100
0000
0001
1000
0001
0000
0010
0000
0100
0000
1000
0001
,  // measure 148
1000
0010
0100
0001
0101
0001
1010
1000
,  // measure 149
2002
3003
0000
0000
0200
0300
0000
0000
,  // measure 150
0001
0010
1000
0000
0002
0000
0000
0103
,  // measure 151
0001
1010
1100
0001
,  // measure 152
0110
1000
0101
0010
,  // measure 153
1001
0000
0000
0000
0100
0000
0000
0000
0001
0100
0010
1000
0010
0100
0001
1000
,  // measure 154
0200
0301
0200
1300
0020
0031
0020
1030
,  // measure 155
0200
1300
0002
0013
0002
1003
0200
1300
,  // measure 156
0002
0103
0020
1030
0101
1000
0110
0001
,  // measure 157
2200
0000
0300
0000
3020
1030
0200
1300
,  // measure 158
0001
0000
0010
0001
1000
0000
0100
1000
0001
0000
0100
0010
1000
0000
0001
0100
,  // measure 159
0010
0000
0010
0100
0001
0000
1000
0100
0010
0000
0100
0000
0010
0000
0001
0010
,  // measure 160
0100
0010
0100
1000
0110
0001
1100
0010
,  // measure 161
2002
0000
0000
0000
3003
0000
0000
0000
0010
0100
0010
0100
0001
0010
0100
1000
,  // measure 162
0001
0000
1000
0010
0100
0000
0010
0100
0001
0000
0010
0100
0001
0000
0001
0100
,  // measure 163
1000
0000
1000
0000
0010
0000
0100
0001
0010
0000
0001
0000
0010
0000
0100
0000
,  // measure 164
2001
3010
1002
0103
0120
1030
0210
0301
,  // measure 165
2002
0000
3003
0000
0020
1030
0200
1300
,  // measure 166
1010
0010
0011
0000
0120
0000
0000
0130
,  // measure 167
1000
0100
0011
0100
,  // measure 168
0202
0303
0010
0100
,  // measure 169
0001
0010
0100
1000
0001
0100
0010
1000
0001
0010
0100
1000
0001
0100
0010
1000
,  // measure 170
0200
0000
0300
0000
1001
0000
0000
0100
,  // measure 171
0100
0100
1001
0000
,  // measure 172
0100
0000
0000
0000
1001
0000
0000
0100
,  // measure 173
0100
0100
1001
0000
,  // measure 174
0100
0000
0000
0000
1001
0000
0000
0100
,  // measure 175
0100
0100
1001
0000
,  // measure 176
0100
0000
0000
0000
1001
0100
0000
0010
,  // measure 177
1001
0200
0000
0302
0000
2003
0000
3010
,  // measure 178
2002
3003
0000
0000
;
