#TITLE:Get a Weapon!;
#SUBTITLE:Rockman World 3;
#ARTIST:Ymaru;
#TITLETRANSLIT:;
#SUBTITLETRANSLIT:;
#ARTISTTRANSLIT:;
#CREDIT:;
#BANNER:Get A Weapon!.png;
#BACKGROUND:Get A Weapon!-bg.png;
#LYRICSPATH:;
#CDTITLE:Almsty.png;
#MUSIC:Get A Weapon!.mp3;
#OFFSET:-0.060;
#SAMPLESTART:23.970;
#SAMPLELENGTH:12.000;
#SELECTABLE:YES;
#BPMS:0.000=180.040;
#STOPS:;
#BGCHANGES:;
// cache tags:
#FIRSTBEAT:0.000;
#LASTBEAT:147.000;
#SONGFILENAME:Songs/VGMP 2/Get A Weapon! (Almsty)/Get A Weapon!.sm;
#HASMUSIC:1;
#HASBANNER:1;
#MUSICLENGTH:52.119;
// end cache tags

//---------------dance-single - ----------------
#NOTES:
     dance-single:
     :
     Hard:
     11:
     1.000,1.000,1.000,0.691,1.000,377.000,76.000,36.000,0.000,0.000:

1000
0100
0010
0001
1000
0100
0010
0001
1000
0100
0010
0001
1000
0100
0010
0001
,
1000
0010
0100
0001
1000
0010
0100
0001
1000
0010
0100
0001
0010
0100
0010
0100
,
1010
0100
0011
0100
1100
0102
0103
1010
,
0010
1100
0102
0103
1100
0120
1000
0130
,
1001
0000
0100
0000
0010
0000
2002
0000
0000
3003
0010
0100
0001
0010
0100
1000
,
1010
0000
0100
0000
0001
0000
0202
0000
0303
0001
0100
0001
1000
0100
1000
0001
,
1010
0100
0101
0001
1100
0012
1003
1100
,
1000
0011
2100
3001
0110
1002
0100
1003
,
1100
0000
0001
0000
0100
0000
2020
0000
0000
3030
0100
1000
0001
1000
0100
0010
,
0101
0000
0010
0000
1000
0000
0120
0000
1030
0001
0010
0000
0100
0010
1000
0100
,
0012
0000
0000
0000
1003
0000
1000
0100
0000
0010
0001
0100
0010
1000
0100
0000
,
0012
0000
0000
0000
0013
0000
0001
0010
0000
0100
1000
0010
0100
0001
0010
0000
,
0012
0000
0000
0000
0103
0000
0100
0010
0000
1000
0001
0010
0001
1000
0100
0000
,
0012
0000
0000
0000
0103
0000
0010
1000
0000
0100
0000
0000
1000
0000
0010
0100
,
1001
0001
0100
0010
1000
0100
0010
0001
1001
0100
0010
1000
0100
1000
0001
0010
,
0100
1000
0100
0010
0001
0100
0010
1000
1001
0001
1000
0100
0010
0001
1000
0001
,
0100
0010
1000
0100
0010
0100
1000
0010
1001
0100
0010
0001
0010
0100
1000
0001
,
1000
0010
0000
0001
0010
0000
1000
0100
0000
1000
0001
0010
0100
1000
0001
0010
,
0101
0001
1100
1000
0011
2100
3001
0101
,
0010
1100
2001
3010
0101
0210
0001
0310
,
1100
0000
0100
0000
0010
0000
0202
0000
0000
0303
0010
1000
0100
1000
0001
0010
,
1010
0000
0001
0000
1000
0000
0220
0000
0330
0001
1000
0001
0010
0100
1000
0010
,
0101
1000
1010
0100
1001
0210
0301
1100
,
1000
1001
0120
1030
0101
2001
0100
3001
,
0101
0000
0010
0000
0100
0000
2002
0000
0000
3003
0100
0010
1000
0100
0010
0001
,
0011
0000
0100
0000
0010
0000
1020
0000
1030
0100
0000
0000
0010
0001
0100
0010
,
1000
0000
0000
0010
0010
0000
0000
0000
,
0001
0000
0000
0100
0000
0100
0010
0000
,
1001
0000
0000
0000
0000
0000
0100
0010
1000
0100
0010
0100
1000
0010
0100
0001
,
1001
0000
0000
0000
0000
0000
0110
0000
0110
1000
0000
0000
0100
0000
0010
0001
,
1000
0100
0010
0001
0100
0010
0100
0001
1000
0001
0010
0100
1000
0100
0010
0001
,
1010
0100
0000
0011
0100
0000
1001
0010
0000
1001
0100
0000
0001
0000
1000
0000
,
0001
0010
0100
1000
0100
0010
0001
0100
0010
0100
0001
1000
0100
1000
0010
0100
,
0001
0000
0010
0000
0000
0000
1000
0000
0010
0000
0000
0000
0100
0000
0010
0000
1000
0100
0010
0001
1000
0010
0100
0001
2000
0000
0000
0000
0000
0000
3000
0000
,
1100
0001
0100
1010
0100
0001
2010
0000
,
0001
0000
0000
0000
0001
0000
0000
0000
3001
0000
0100
0010
2200
0000
0000
3300
,
0011
1010
0110
2002
0000
0000
3003
0000
;
