#TITLE:1st Samurai;
#SUBTITLE:;
#ARTIST:sampling masters MEGA;
#TITLETRANSLIT:;
#SUBTITLETRANSLIT:;
#ARTISTTRANSLIT:;
#CREDIT:;
#BANNER:1st Samurai-banner.png;
#BACKGROUND:1st Samurai-bgi.png;
#LYRICSPATH:;
#CDTITLE:joepcdtitle.png;
#MUSIC:1st Samurai.mp3;
#OFFSET:-5.920;
#SAMPLESTART:5.540;
#SAMPLELENGTH:12.000;
#SELECTABLE:YES;
#BPMS:0.000=175.000,252.000=200.000;
#STOPS:;
#BGCHANGES:;
// cache tags:
#FIRSTBEAT:0.000;
#LASTBEAT:294.000;
#SONGFILENAME:Songs/toune 2/1st samurai/1st Samurai.sm;
#HASMUSIC:1;
#HASBANNER:1;
#MUSICLENGTH:115.751;
// end cache tags

//---------------dance-single - ----------------
#NOTES:
     dance-single:
     :
     Hard:
     11:
     0.997,1.000,1.000,0.035,0.661,648.000,156.000,4.000,0.000,4.000:  // measure 1
1000
0000
0100
0000
0010
0000
0001
0100
0001
0000
0010
0000
0100
0000
1000
0100
,  // measure 2
1000
0000
0010
0000
0100
0000
0001
0100
0001
0000
0010
0000
1001
0000
0100
0000
,  // measure 3
0010
0000
1000
0000
0100
0000
0010
0001
0010
0000
0100
0000
1000
0000
0010
0100
,  // measure 4
0010
0000
0100
0000
0001
0000
0010
0100
0010
0000
0100
0000
1001
0000
0000
0000
,  // measure 5
1100
0000
0001
0100
0010
0000
0100
0000
1001
0000
0100
0010
0001
0000
0100
0000
,  // measure 6
1001
0000
0010
0100
1000
0000
0010
0100
0001
0000
0010
0100
1000
0000
0000
0000
,  // measure 7
0101
0000
0010
0100
1000
0000
0100
0000
0110
0000
0001
0100
0010
0000
0100
0000
,  // measure 8
1010
0000
1000
0100
0010
0000
0010
0001
0100
0000
0100
0010
1000
0000
0000
0000
,  // measure 9
1001
0000
1000
0100
0000
0100
1000
0000
0001
0000
0100
0000
0010
0000
0100
0000
,  // measure 10
1001
0001
0101
0001
0011
0001
0101
0001
,  // measure 11
1001
0000
1000
0100
0000
0010
0100
0000
0010
0000
0001
0000
0100
0000
0010
0000
,  // measure 12
1001
1000
1100
1000
1010
1000
1100
1000
,  // measure 13
1001
0000
0010
0100
0000
1000
0001
0000
0100
0000
0010
0000
0001
0000
0010
0000
,  // measure 14
1010
0000
0010
0000
0110
0000
0010
0000
0011
0000
0010
0000
0010
0100
0010
0000
,  // measure 15
1001
0000
0010
0100
0000
0100
0010
0000
1000
0000
0100
0000
0010
0000
0001
0000
,  // measure 16
0101
0000
0001
0100
0001
0000
0110
0000
0010
0100
0010
0000
1001
0000
0000
0000
,  // measure 17
1000
0100
1000
0000
0001
0100
0001
0000
1000
0010
1000
0000
0001
0010
0001
0000
,  // measure 18
0010
0100
0010
0000
1000
0100
1000
0000
0001
1000
0001
0000
0100
0001
0100
0000
,  // measure 19
0010
0100
1000
0000
0100
0010
0001
0000
0001
0100
0010
0000
0100
0010
1000
0000
,  // measure 20
0100
0010
0001
0000
0010
0100
1000
0000
1000
0010
0100
0000
0001
0010
0100
0000
,  // measure 21
1000
0000
0100
1000
0000
1000
0100
0000
0101
0000
0100
0000
0110
0000
0010
0000
,  // measure 22
1010
0010
0011
0010
0110
0010
1010
0110
,  // measure 23
0011
0010
0110
0010
1010
0010
0110
0011
,  // measure 24
0110
0010
1010
0010
1001
0000
0000
0000
,  // measure 25
0110
0100
0101
0100
1100
0100
0110
0100
,  // measure 26
0101
0110
1100
0110
1001
0000
0000
0000
,  // measure 27
1001
1000
1100
1000
1010
1000
1001
1000
,  // measure 28
1100
1010
1001
1100
0100
0010
0001
1000
,  // measure 29
1001
0000
1000
0100
1000
0000
0010
0100
0010
0000
0001
0100
0001
0000
0010
0100
,  // measure 30
0010
0000
1000
0100
1000
0000
0001
0100
0001
0000
0010
0100
0010
0000
0001
1000
,  // measure 31
1001
0001
1000
0000
0110
0010
0100
0000
,  // measure 32
1010
0010
0110
0100
0101
0001
1001
1000
,  // measure 33
1100
0000
0100
0000
0010
0001
0000
0110
0000
1010
0000
1000
0100
0000
0110
0000
,  // measure 34
0101
0000
0100
0010
0000
1000
0000
0110
0000
0011
0000
0001
0100
0000
0010
0000
,  // measure 35
0101
0100
1010
0000
1100
0100
0011
0000
,  // measure 36
0101
0100
0110
0010
1010
1000
1001
0100
,  // measure 37
0010
0100
1000
0000
1100
0000
0000
0000
0010
0100
1000
0001
0010
0000
0000
0000
,  // measure 38
1000
0001
0100
0000
0110
0000
0000
0000
0010
1000
0001
0100
0010
0000
0000
0000
,  // measure 39
1000
0100
1000
0100
0010
0001
0010
0001
0100
0010
0100
0010
1000
0001
1000
0001
,  // measure 40
0010
0100
0010
0100
1000
0001
1000
0001
0100
0010
0100
0010
1000
0001
1000
0001
,  // measure 41
1001
1000
1100
1000
1001
0001
0011
0001
,  // measure 42
0110
0010
1010
0010
0110
0100
0101
0001
,  // measure 43
1001
1000
0011
0001
0110
0010
1100
0100
,  // measure 44
2002
0010
3103
1001
,  // measure 45
1100
0000
0000
0010
0100
0000
1100
0000
0000
0000
0100
0000
0010
0000
0100
0000
,  // measure 46
0101
0000
0000
0010
0100
0000
0110
0000
0000
0000
0010
0000
1000
0000
0100
0000
,  // measure 47
0110
0000
0000
0010
0100
0000
0101
0000
0000
0000
0010
0000
1000
0000
0100
0000
,  // measure 48
0220
0001
1330
1100
,  // measure 49
1000
0100
0010
0000
0001
0100
0010
0000
0010
0100
0001
0000
0010
0100
1000
0000
,  // measure 50
0010
0001
0100
0000
0010
1000
0100
0000
0100
0010
0001
0000
0001
1000
0100
0000
,  // measure 51
0010
0001
0100
0000
0010
0100
0001
0000
0100
0010
1000
0000
1000
0100
0010
0000
,  // measure 52
0001
0100
0010
0000
0010
1000
0001
0000
0100
0010
1000
0000
0100
0010
0100
0000
,  // measure 53
0010
0100
1000
0000
1100
0000
1100
0000
0010
0100
0001
0000
0101
0000
0101
0000
,  // measure 54
0001
0100
0010
0000
0110
0000
0110
0000
0010
1000
0001
0000
1001
0000
1001
0000
,  // measure 55
1100
0010
0001
0000
0101
0000
0110
0000
1010
1000
0100
0000
1100
0000
0110
0000
,  // measure 56
0101
0001
0100
0000
0110
0000
1010
0000
0110
0100
0001
0000
0101
0000
1001
0000
,  // measure 57
0001
0010
0001
0010
0100
1000
0100
1000
0010
0100
0010
0100
0001
1000
0001
1000
,  // measure 58
0100
0010
0001
0100
0010
0100
0001
0010
0100
1000
0010
0100
0001
0010
0100
1000
,  // measure 59
0010
0100
0000
0000
0010
1000
0000
0000
0001
0100
0000
0000
0010
0100
0000
0000
,  // measure 60
1001
0101
0110
1100
,  // measure 61
1001
1000
1010
1000
1001
1000
1100
1000
,  // measure 62
1001
1000
1010
1000
1001
1000
1100
1000
,  // measure 63
1001
0000
0000
0000
,  // measure 64
0000
0000
0000
0000
,  // measure 65
1000
0100
1000
0100
0010
0001
0010
0001
0100
0010
0100
0010
1000
0001
1000
0001
,  // measure 66
0010
0100
1000
0010
0100
0010
1000
0100
0010
0001
0100
0010
1000
0100
0010
0001
,  // measure 67
0100
0010
0000
0000
0100
0001
0000
0000
1000
0010
0000
0000
0100
0010
0000
0000
,  // measure 68
1001
1010
0110
0011
,  // measure 69
1001
0001
0101
0001
1001
0001
0011
0001
,  // measure 70
1001
0001
0101
0001
1001
0001
0011
0001
,  // measure 71
1001
0000
0000
0000
0000
0000
0000
0000
0000
0000
0000
0000
0000
0000
0100
0010
,  // measure 72
1001
0000
1100
0000
0000
0000
0000
0000
0101
0000
0000
0000
0000
0000
0100
0010
,  // measure 73
1001
0000
1010
0000
,  // measure 74
0101
0000
0100
0000
;

//---------------dance-single - ----------------
#NOTES:
     dance-single:
     :
     Medium:
     9:
     0.681,0.794,0.389,0.104,0.281,495.000,45.000,12.000,0.000,0.000:  // measure 1
0010
0100
1000
0100
0010
0100
1000
0000
,  // measure 2
0001
0100
0010
0100
0001
0100
0010
0000
,  // measure 3
1000
0001
0100
0001
1000
0001
0010
0000
,  // measure 4
0001
1000
0100
1000
0010
1000
0001
0000
,  // measure 5
0100
0000
0001
0100
0001
0000
0000
0000
1000
0000
0100
1000
0100
0000
0000
0000
,  // measure 6
0010
0000
0000
0010
0100
0000
0000
0100
0001
0000
0000
0001
0010
0000
0000
0000
,  // measure 7
0100
0000
0010
0100
0010
0000
0000
0000
0001
0000
1000
0001
1000
0000
0000
0000
,  // measure 8
0100
0010
1000
0100
0010
0001
0100
0010
,  // measure 9
1001
0101
1001
1100
,  // measure 10
1000
1000
1000
1000
1000
1000
1000
1000
,  // measure 11
1001
0110
0101
1010
,  // measure 12
0001
0001
0001
0001
0001
0001
0001
0001
,  // measure 13
0011
0110
1100
1010
,  // measure 14
0110
0010
0010
0010
0010
0010
0010
0010
,  // measure 15
0110
1010
0101
0011
,  // measure 16
0001
0010
0100
1000
0010
0100
0001
0000
,  // measure 17
1001
0000
0000
1000
0100
0000
0000
0100
0010
0000
0000
0010
0001
0000
0000
0001
,  // measure 18
0100
0000
0000
0100
0010
0000
0000
0010
1000
0000
0000
1000
0100
0000
0000
0010
,  // measure 19
0100
0000
0000
1000
0010
0000
0000
0100
0001
0000
0000
0010
0100
0000
0000
1000
,  // measure 20
0100
0000
0000
0010
0001
0000
0000
0100
0010
0000
0000
1000
0001
0000
0000
0000
,  // measure 21
1001
0000
0000
1000
0100
0000
0000
0100
0010
0000
0100
0000
0000
0000
0100
0000
,  // measure 22
1000
1000
1000
1000
0100
0100
0100
0100
,  // measure 23
0010
0010
0010
0010
0001
0001
0001
0001
,  // measure 24
1000
1000
0100
0100
1001
0000
0000
0000
,  // measure 25
1000
1000
0100
0100
0010
0010
0001
0001
,  // measure 26
0100
0010
1000
0100
0110
0000
0000
0000
,  // measure 27
0100
0100
0010
0010
1000
1000
0001
0001
,  // measure 28
0010
0000
0100
0000
0001
0000
0100
0000
0010
0000
0100
0000
1001
0000
0000
0001
,  // measure 29
0100
0000
0000
0100
0010
0000
0000
0010
1000
0000
0000
1000
0100
0000
0000
0100
,  // measure 30
0010
0000
0000
0010
0001
0000
0000
0001
0100
0000
0000
0100
0010
0000
0000
1000
,  // measure 31
0200
0310
0002
1003
,  // measure 32
2001
3002
0203
0310
,  // measure 33
1000
0000
0100
0000
0010
0001
0000
0100
0000
0010
0000
1000
0100
0000
0010
0000
,  // measure 34
0100
0000
1000
0001
0000
0100
0000
0010
0000
1000
0000
0001
0100
0000
0010
0000
,  // measure 35
2001
3001
0210
0310
,  // measure 36
0002
0203
0320
1030
,  // measure 37
1000
0100
1000
0000
0001
0000
0000
0000
0001
0100
0001
0000
1000
0000
0000
0000
,  // measure 38
1000
0100
1000
0000
0100
0000
0000
0000
0001
0100
0001
0000
0010
0000
0000
0000
,  // measure 39
1000
0100
1000
0000
0001
0100
0001
0000
1000
0010
1000
0000
0001
0010
0001
0000
,  // measure 40
1000
0100
1000
0000
0001
0100
0001
0000
1000
0010
1000
0000
0001
0010
0001
0000
,  // measure 41
1000
0100
0010
0010
0001
0100
0010
0010
,  // measure 42
1000
0100
0010
0010
0001
0100
0010
0010
,  // measure 43
1000
1000
0100
0100
0010
0010
0001
0001
,  // measure 44
1001
0200
0310
1001
,  // measure 45
0100
0000
0000
1000
0100
0000
0010
0000
0000
0000
0001
0000
0100
0000
0000
0000
,  // measure 46
0010
0000
0000
0100
0001
0000
0010
0000
0000
0000
0100
0000
1000
0000
0000
0000
,  // measure 47
0001
0000
0000
0100
0010
0000
1000
0000
0000
0000
0100
0000
0010
0000
0000
0000
,  // measure 48
1001
0200
0310
0110
,  // measure 49
1000
0100
0010
0100
1000
0010
0100
0010
,  // measure 50
1000
0001
1000
0100
1000
0010
0100
0001
,  // measure 51
0010
0100
1000
0010
0100
0001
0010
0100
,  // measure 52
1000
0001
0100
0010
0100
0001
0010
0100
,  // measure 53
1000
0010
0100
0100
0001
0010
0100
0100
,  // measure 54
1000
0010
0100
0100
0001
0010
0100
0100
,  // measure 55
1001
0100
0010
0100
1001
0100
0010
0100
,  // measure 56
1001
0100
0010
0100
1001
0100
0010
0100
,  // measure 57
1000
0100
1000
0001
0100
0001
1000
0001
,  // measure 58
0010
0100
1000
0001
0100
0010
0100
0001
,  // measure 59
0010
0100
0000
0000
0100
0010
0000
0000
0010
0001
0000
0000
0001
0100
0000
0000
,  // measure 60
0110
1001
0101
0110
,  // measure 61
1000
1000
0100
0100
0010
0010
0001
0001
,  // measure 62
0100
0100
0010
0010
1000
1000
0001
0001
,  // measure 63
1001
0000
0000
0000
,  // measure 64
0000
0000
0000
0000
,  // measure 65
0001
0010
0001
1000
0010
1000
0001
1000
,  // measure 66
0100
0010
0001
1000
0010
0100
0010
1000
,  // measure 67
0100
0010
0000
0000
0010
0100
0000
0000
0100
1000
0000
0000
1000
0010
0000
0000
,  // measure 68
0110
1001
1010
0110
,  // measure 69
0001
0001
0010
0010
0100
0100
1000
1000
,  // measure 70
0010
0010
0100
0100
0001
0001
1000
1000
,  // measure 71
1001
0000
0000
0000
,  // measure 72
1001
1001
0100
0000
,  // measure 73
0010
0000
0001
0000
,  // measure 74
1000
0000
0100
0000
;
