#TITLE:Afronova Primeval;
#SUBTITLE:(Megamix);
#ARTIST:8-bit;
#TITLETRANSLIT:;
#SUBTITLETRANSLIT:;
#ARTISTTRANSLIT:;
#CREDIT:;
#BANNER:Afronova Primeval.png;
#BACKGROUND:Afronova Primeval-bg.png;
#LYRICSPATH:;
#CDTITLE:paranoivm.png;
#MUSIC:Afronova Primeval Megamix.mp3;
#OFFSET:-0.960;
#SAMPLESTART:30.000;
#SAMPLELENGTH:12.000;
#SELECTABLE:YES;
#BPMS:0.000=200.000;
#STOPS:0.000=0.020
;
#BGCHANGES:;
// cache tags:
#FIRSTBEAT:16.000;
#LASTBEAT:308.000;
#SONGFILENAME:Songs/juju steps/Afronova Primeval Megamix/Afronova Primeval Megamix.sm;
#HASMUSIC:1;
#HASBANNER:1;
#MUSICLENGTH:99.560;
// end cache tags

//---------------dance-single - Copied from----------------
#NOTES:
     dance-single:
     Copied from:
     Challenge:
     10:
     0.785,1.000,0.392,0.211,0.156,487.000,39.000,21.000,0.000,0.000:
0000
0000
0000
0000
,
0000
0000
0000
0000
,
0000
0000
0000
0000
,
0000
0000
0000
0000
,
0001
0000
0100
0001
0000
0001
1000
0000
,
0100
0000
1000
0100
0000
0100
1000
0000
,
0100
0000
0010
0001
1000
0000
0010
0000
,
0100
0101
1001
1100
,
1001
0000
0001
0100
0010
1000
0200
0000
,
0310
0100
1000
0001
1000
0100
0001
0000
,
0200
0000
1300
0010
0100
0001
1000
0000
,
0001
0100
1000
0001
0010
1000
0100
0001
,
0100
1000
0100
0001
0100
0001
0010
0000
,
0001
0000
0100
1000
0001
0100
1000
0000
,
0200
0000
0310
1000
0001
0010
0001
1000
,
1001
0101
0010
1001
,
1000
0100
0001
1000
0010
0001
0100
1000
,
0100
0001
0010
1000
0001
0100
1000
0010
,
0100
1000
0010
1000
0100
0001
0010
0100
,
1000
0100
0010
0010
2002
0000
3003
0000
,
0001
0010
1000
0001
0100
1000
0010
0001
,
0010
1000
0100
0001
1000
0010
0001
0100
,
0010
0001
0100
0001
0010
1000
0100
0010
,
0001
0010
0100
0100
2002
0000
3003
0000
,
1000
0001
0100
0000
0100
0010
0000
0010
,
1000
0010
0001
0010
1000
0001
0000
0001
,
0010
1000
0010
0000
0110
0100
0000
1000
,
0100
0001
0100
0010
0001
1000
0001
0000
,
0101
0100
0000
0010
0000
1000
0010
0001
,
0010
1000
0010
0000
0110
0100
0000
0110
,
0000
0010
1000
0001
0000
0101
0000
1001
,
0000
1100
0000
0100
1000
0001
0010
0000
,
1001
0000
0001
0100
0000
0100
1000
0000
,
1000
0100
0001
1000
0100
0001
0100
0000
,
0100
1000
0100
0000
1100
0000
0110
0000
,
0010
0001
0010
1000
0010
0000
0011
0000
,
0001
1000
0001
0100
0010
1000
0010
0000
,
0001
0010
1000
0001
0100
0010
1000
0000
,
0100
1000
0001
0010
0000
0100
1000
0001
,
0101
0000
0000
0000
1001
0000
0000
0100
1000
0000
0000
0000
1001
0000
0000
0000
,
0002
0000
0000
0000
0203
0000
1000
0000
0301
0000
0010
0000
1000
0000
0100
1000
,
0100
0010
0001
1000
1000
0100
0100
0020
,
0001
0000
0130
0000
0011
0001
1000
0001
,
0100
0000
1000
0000
0100
0000
0001
0000
0010
0000
0001
0010
0001
0000
1000
0000
,
0100
0000
1000
0000
1001
0000
0000
0000
0001
0000
0100
0000
0001
0100
0000
0100
,
0001
1000
0001
0100
1000
0001
1000
0100
,
0002
0000
0000
0000
0013
0000
0000
0000
1000
0100
0000
0100
1000
0000
0001
0000
,
1000
0001
0010
0001
1000
0001
0100
1000
,
0100
0000
1000
0000
0001
0010
1000
0100
,
0001
0100
1000
0000
0100
0000
1001
0000
,
0001
0100
0010
1000
0001
0100
1001
0000
,
0001
0100
1001
0100
0002
0000
0003
0000
,
0110
1010
0000
1000
0010
1000
0001
0000
,
0001
0001
1000
1000
0021
0000
0030
0000
,
0001
1000
0000
1000
0100
0001
0100
0000
,
1000
0010
0100
0000
2200
0000
3300
0000
,
1000
0100
0000
0001
0010
1000
0001
0000
,
0100
1000
0101
0000
0220
0000
0330
0000
,
0010
0000
1000
0000
1000
0000
0010
1000
0010
0000
0100
0001
0100
0000
0001
0000
,
0001
0100
0001
0000
0100
0000
0000
0000
0220
0000
0000
0000
0330
0000
0000
0000
,
0010
1000
0010
1000
0001
0100
0001
0000
,
1000
0001
0100
0001
0010
0001
1000
0000
,
0100
0001
1000
0010
0001
0100
1000
0001
,
0010
1000
0010
0001
1000
0000
0000
0000
,
1000
0010
1000
0100
0001
1000
0100
0000
,
0100
0001
0010
0001
0010
0100
1000
0000
,
1000
0001
0100
0000
0101
1001
0000
0100
,
1000
0000
0001
1001
0000
0001
0100
0001
,
1000
0000
1100
0000
0100
1000
0100
0000
,
0100
0010
0001
0000
0001
1000
0001
0000
,
0100
0001
1000
0000
0100
1000
0001
0000
,
0100
0010
1000
0001
0100
0010
2000
0000
,
3001
0000
0001
0100
0001
0000
1000
0100
1000
0000
0001
0010
0001
0000
1000
0010
,
1000
0000
0001
0100
0001
0000
1000
0010
1000
0000
0001
0010
0001
1000
0100
1000
,
0100
0000
0100
0001
0100
0000
0100
1000
0100
0000
0100
0001
0100
1000
0100
0000
,
0100
0001
0100
1000
0010
0100
0001
1000
0001
0100
1000
0001
0010
1000
0100
0001
,
0200
0000
0000
0000
,
0300
0000
0000
0000
;
