#TITLE:CHAMPION;
#SUBTITLE:;
#ARTIST:ASLETICS;
#TITLETRANSLIT:;
#SUBTITLETRANSLIT:;
#ARTISTTRANSLIT:;
#CREDIT:;
#BANNER:CHAMPION-bn.png;
#BACKGROUND:CHAMPION-bg.png;
#LYRICSPATH:;
#CDTITLE:./CDTITLES/DANCE DANCE REVOLUTION EXTREME.PNG;
#MUSIC:10.CHAMPION.mp3;
#OFFSET:-0.433;
#SAMPLESTART:16.700;
#SAMPLELENGTH:12.000;
#SELECTABLE:YES;
#DISPLAYBPM:65.000;
#BPMS:0.000=174.060;
#STOPS:;
#BGCHANGES:;
// cache tags:
#FIRSTBEAT:16.000;
#LASTBEAT:223.000;
#SONGFILENAME:Songs/new encore/CHAMPION/CHAMPION.sm;
#HASMUSIC:1;
#HASBANNER:1;
#MUSICLENGTH:78.321;
// end cache tags

//---------------dance-single - DdrmaniacmaNEMESetup----------------
#NOTES:
     dance-single:
     DdrmaniacmaNEMESetup:
     Easy:
     4:
     0.290,0.320,0.064,0.102,0.000,146.000,5.000,8.000,0.000,0.000:
0000
0000
0000
0000
,
0000
0000
0000
0000
,
0000
0000
0000
0000
,
0000
0000
0000
0000
,
1000
0000
0100
0000
,
1000
0000
1000
0000
,
0001
0000
0010
0000
,
0001
0000
0001
0000
,
0100
0000
0010
0000
,
0100
0000
0100
0000
,
1000
0000
0010
0000
,
0100
0000
0001
0000
,
1001
0000
0001
0000
,
0100
0100
0100
0000
,
0001
0000
1001
0000
,
0010
0010
0010
0000
,
1000
0000
1100
0000
,
1000
1000
1000
0000
,
0001
0000
0101
0000
,
0010
0010
0010
0000
,
0001
0001
0100
0000
,
1000
1000
0020
0030
,
1000
1000
0100
0000
,
1000
1000
0002
0000
,
0103
0100
0010
0000
,
0001
0001
2000
3000
,
0001
0001
0100
0000
,
0010
0010
0200
0000
,
0310
0010
0100
0100
,
0010
0010
0010
0000
,
1000
1000
0100
0100
,
1000
1000
1000
0000
,
0001
0001
1000
1000
,
0001
0001
0001
0000
,
0010
0100
0010
0100
,
0001
1000
0002
0003
,
1000
1000
0000
1000
,
1000
0000
0100
0000
,
0010
0010
0000
0001
,
0002
0000
0003
0001
,
1000
1000
0000
0100
,
0200
0000
0300
0000
,
0010
0010
0000
0001
,
0002
0000
0000
0003
,
0001
0001
0000
0100
,
0100
0000
1000
1000
,
0001
0001
0000
0010
,
0010
0000
0100
0100
,
0100
0100
0000
0001
,
0001
0000
1000
1000
,
0010
0010
0000
0100
,
0100
0000
1000
1000
,
0100
0100
1000
1000
,
0100
0100
1000
1000
,
0100
1000
0100
1000
,
0100
1000
0001
1001
;

//---------------dance-single - DdrmaniacmaNEMESetup----------------
#NOTES:
     dance-single:
     DdrmaniacmaNEMESetup:
     Medium:
     5:
     0.376,0.391,0.051,0.204,0.000,186.000,4.000,16.000,0.000,0.000:
0000
0000
0000
0000
,
0000
0000
0000
0000
,
0000
0000
0000
0000
,
0000
0000
0000
0000
,
1000
0000
0000
1000
0000
0100
1000
0000
,
1000
0000
0001
0100
,
0001
0000
0000
0001
0000
0001
0100
0000
,
0010
0000
0110
0110
,
0001
0000
0000
0001
0000
0100
0001
0000
,
1000
0000
0010
0010
,
0100
0100
0010
1000
,
0100
0100
0200
0300
,
1000
0100
1000
0100
,
1000
0001
1000
0000
1000
0000
0000
0000
,
0100
0100
0001
0001
,
0010
0001
0010
0000
0010
0000
0000
0000
,
0010
0010
0100
0100
,
1000
0100
0100
0100
,
0001
0001
1000
1000
,
0001
1000
0001
0000
2000
0000
3000
0000
,
0001
0001
0100
0100
,
0010
0000
2000
0000
0200
0000
0000
3300
,
0000
1000
0001
1000
,
0001
0000
0200
0000
0020
0000
0000
0330
,
0001
0001
0010
0010
,
0100
1000
0001
2000
0000
0000
0000
3000
,
0001
0100
0010
0100
,
0001
0000
0100
0000
0200
0000
0000
0300
,
1000
1000
0100
0100
,
1000
0010
1000
0010
,
0100
0100
0001
0001
,
0010
0000
0001
0000
0002
0000
0000
0003
,
0100
0100
0010
0010
,
0100
1000
0100
0010
,
1000
0100
1000
0001
,
0100
0000
0100
0000
0200
0000
0000
0300
,
0001
0000
0000
0001
0000
0000
0001
0000
,
0001
0100
0100
0000
,
0010
0000
0000
0010
0000
0000
0010
0000
,
0100
0100
0100
0000
,
1000
0000
0000
0100
0000
0000
1000
0000
,
0001
0001
0002
0003
,
1000
0000
0000
0010
0000
0000
0100
0000
,
0001
0002
0000
0003
,
1000
0001
1000
0010
,
0100
0000
0100
0100
0200
0000
0300
0000
,
0001
0001
1000
1000
,
0020
0230
0320
0030
,
0100
0100
0001
0001
,
1000
0001
0001
0001
,
0100
0000
0000
0010
0000
0000
0100
0000
,
0010
0100
0100
0000
,
1000
0100
1000
0010
,
0100
0001
0010
0001
,
0010
0100
1000
0001
,
0100
0001
1001
0110
;

//---------------dance-single - DdrmaniacmaNEMESetup----------------
#NOTES:
     dance-single:
     DdrmaniacmaNEMESetup:
     Hard:
     8:
     0.531,0.498,0.268,0.102,0.000,262.000,21.000,8.000,0.000,0.000:
0000
0000
0000
0000
,
0000
0000
0000
0000
,
0000
0000
0000
0000
,
0000
0000
0000
0000
,
1000
0000
0100
1000
0000
0100
1000
0000
,
0010
0100
0001
1001
,
0001
0000
0010
0001
0000
0010
0100
0000
,
0100
0000
1000
0001
1000
0000
0001
0000
,
0100
0000
0010
0100
0000
0001
1000
0000
,
0100
0000
1000
0000
0010
0100
0100
0000
,
0001
0000
1000
0001
0000
0100
0001
0000
,
0011
0000
0110
0000
1100
0001
1000
0000
,
0010
0000
0100
0001
0000
1000
0100
0000
,
1000
0100
1000
0010
0100
0000
0110
0000
,
0001
0000
1000
0001
0000
0100
0100
0000
,
0001
0010
0100
1000
0100
0000
1100
0000
,
1000
0000
0001
1000
0000
0001
1000
0000
,
0010
0100
0000
0001
0000
1000
0000
0100
,
0100
0000
1000
0010
0000
0100
0010
0000
,
0100
0001
1000
0000
1001
0000
0110
0000
,
0011
0000
0100
0010
0000
0100
1000
0000
,
0001
1000
0002
0000
0200
0000
0000
0303
,
0000
0000
0001
0100
0000
0110
0000
0000
,
0001
0100
0010
1000
0100
0000
1100
0000
,
0001
0000
1000
0100
0000
1000
0010
0000
,
0010
0100
0000
0001
0000
0001
0000
0001
,
1000
0000
1000
0100
0000
0100
1000
0000
,
1000
0010
0100
0010
0100
0000
0001
0000
,
1001
0000
0001
0100
0000
0001
0100
0000
,
0010
0100
1000
1000
,
0100
0000
1000
0010
1000
0010
0100
0000
,
0001
1000
0001
0000
0100
0000
0001
0000
,
0010
0000
0100
0010
0000
0100
1000
0000
,
0001
1000
0001
0101
,
0001
0000
1000
0100
0000
0100
1000
0000
,
0001
1000
0001
0000
0200
0000
0010
0000
,
0310
0000
0000
0001
0000
0001
0100
0000
,
0001
0100
0010
0100
0001
0000
0101
0000
,
1000
0000
0100
1000
0000
0001
1000
0000
,
1000
0100
0010
0100
1000
0000
1001
0000
,
1100
0000
0001
0100
0000
1000
0100
0000
,
0010
0100
0000
0001
0000
1000
0000
0100
,
1000
0000
0001
0100
0000
0010
0100
0000
,
0002
0000
0000
0003
,
0001
0000
1000
0001
1000
0010
1000
0000
,
0100
1000
0001
0100
0001
0000
0100
0000
,
0010
0000
0100
0001
0000
1000
0100
0000
,
2000
3200
0320
0032
,
1003
0001
1000
0010
0100
0010
0100
0000
,
0001
0011
1000
1100
,
0001
0000
1000
0010
1000
0100
1000
0000
,
0001
0001
1000
0000
1000
0010
0010
0010
,
0100
0000
0001
1000
0000
0100
1000
0000
,
0001
0000
0100
0001
0010
0000
0011
0000
,
0100
0000
1000
0100
1000
0001
1000
0000
,
1001
0000
0110
0000
0001
1000
0100
0000
;
