#TITLE:Battle! (Wild Pokémon);
#SUBTITLE:Pokemon Red & Blue (1998);
#ARTIST:Junichi Masuda;
#TITLETRANSLIT:;
#SUBTITLETRANSLIT:;
#ARTISTTRANSLIT:;
#CREDIT:Owem;
#BANNER:../banner.png;
#BACKGROUND:../bg.png;
#LYRICSPATH:;
#CDTITLE:../cdtitleowem.png;
#MUSIC:Battle! (Wild Pokemon).ogg;
#OFFSET:-0.042;
#SAMPLESTART:13.099;
#SAMPLELENGTH:15.673;
#SELECTABLE:YES;
#DISPLAYBPM:184.000;
#BPMS:0.000=183.804,40.000=183.760;
#STOPS:;
#BGCHANGES:;
// cache tags:
#FIRSTBEAT:0.000;
#LASTBEAT:176.000;
#SONGFILENAME:Songs/Owem Extras -l/Battle! (Wild Pokemon)/Battle! (Wild Pokmon).sm;
#HASMUSIC:1;
#HASBANNER:0;
#MUSICLENGTH:62.040;
// end cache tags

//---------------dance-single - 13 (Owem)----------------
#NOTES:
     dance-single:
     13 (Owem):
     Challenge:
     13:
     1.000,1.000,0.387,0.645,1.000,478.000,24.000,40.000,0.000,0.000:
0001
0100
0010
1000
0001
0100
0010
1000
0001
0010
0100
1000
0001
0010
0100
1000
,
0001
0010
0001
1000
0100
0010
0100
1000
0001
0010
0001
1000
0001
0100
0010
1000
,
0001
0010
0100
1200
1300
0001
0102
0103
,
0010
1000
0001
0010
0021
0031
1000
0010
,
1000
0001
0010
0120
0130
1000
2100
3100
,
0010
0001
1000
0004
0010
0000
0010
0000
,
0023
0130
1000
2001
3001
0100
0210
0310
,
1000
0001
1000
0010
0120
0130
0001
1000
,
0001
0010
0100
1200
1300
0001
0012
0013
,
0100
1000
0001
0102
0103
0010
1000
0001
,
1000
0100
0010
0001
1000
0001
0100
0010
1000
0001
0100
0001
0010
0100
1000
0001
,
0010
0001
1000
0010
0100
0001
0100
0010
1000
0001
0010
0001
1000
0100
0010
0001
,
1000
0010
0100
0001
0100
0010
1000
0001
1000
0010
1000
0100
0010
0001
1000
0001
,
0100
0010
1000
0001
0010
0001
0100
0001
1000
0010
1000
0100
0010
0001
0010
0100
,
1000
0001
0100
0010
0100
0001
1000
0100
1000
0001
0010
0001
0100
0010
1000
0001
,
0100
0001
1000
0100
1000
0010
1000
0001
0100
0010
1000
0001
0100
0001
0010
0100
,
1000
0001
0010
0001
1000
0010
0100
0001
1000
0100
1000
0001
0100
0001
0010
0100
,
1000
0001
1000
0010
0100
0010
1000
0001
0100
0001
1000
0100
0010
0001
1000
0001
,
0010
0100
1000
0100
0010
0001
1000
0100
1000
0001
0100
0010
0100
0001
1000
0001
,
1000
0100
0010
0001
1000
0001
0100
0010
0100
0001
0100
0010
1000
0010
1000
0001
,
1000
0100
0010
0001
0010
0100
1000
0001
1000
0010
1000
0100
1000
0001
0100
0001
,
1000
0100
0010
0001
0010
0100
1000
0001
1000
0010
1000
0100
1000
0001
0010
0001
,
0200
0310
2000
3001
0102
0103
0020
1030
,
2010
3010
0100
0002
2003
3001
0200
0310
,
2000
0000
0000
0000
,
3002
0000
0000
0000
,
2003
3100
0020
0031
0102
0103
0010
1000
,
2001
3001
0010
0200
2300
3010
0200
0301
,
2000
0000
0000
0000
,
3400
0000
0000
0000
,
0320
0031
1000
0001
0100
0010
0120
0130
,
0102
0003
1002
0000
1003
0000
0100
0000
0010
0000
0001
0000
1000
0000
0010
0000
,
0120
0130
0001
1000
0010
1000
2100
3100
,
0210
0300
0021
0000
0031
0000
1000
0000
0002
0000
0000
0000
0000
0000
0000
0000
,
1003
0010
0100
0001
1000
0001
0010
0100
1000
0001
0010
0001
0100
0010
1000
0001
,
0100
0001
1000
0100
0010
0001
0010
0100
1000
0001
0100
0001
1000
0010
0100
0001
,
1000
0100
0010
0001
0010
0100
1000
0001
1000
0100
1000
0010
0100
0001
1000
0001
,
0010
0100
1000
0001
0100
0001
0010
0001
1000
0100
1000
0010
0100
0001
0100
0010
,
1000
0001
0010
0100
0010
0001
1000
0010
1000
0001
0100
0001
0010
0100
1000
0001
,
0010
0001
1000
0010
1000
0100
1000
0001
0010
0100
1000
0001
0010
0001
0100
0010
,
1000
0001
0100
0001
1000
0100
0010
0001
1000
0010
1000
0001
0010
0001
0100
0010
,
1000
0001
1000
0100
0010
0100
1000
0001
0010
0001
1000
0010
0100
0001
1000
0010
,
2000
0000
0000
0000
,
0000
0000
0000
0000
,
3000
0000
0000
0000
;
