#TITLE:Spacecore;
#SUBTITLE:;
#ARTIST:Round Wave Crusher;
#TITLETRANSLIT:;
#SUBTITLETRANSLIT:;
#ARTISTTRANSLIT:;
#CREDIT:;
#BANNER:Spacecore -bn.png;
#BACKGROUND:Spacecore -bg.png;
#LYRICSPATH:;
#CDTITLE:;
#MUSIC:Spacecore.ogg;
#OFFSET:0.007;
#SAMPLESTART:10.081;
#SAMPLELENGTH:12.000;
#SELECTABLE:YES;
#BPMS:0.000=200.000;
#STOPS:;
#BGCHANGES:;
// cache tags:
#FIRSTBEAT:16.000;
#LASTBEAT:430.167;
#SONGFILENAME:Songs/SPEEEDCOOOORE 3/Spacecore - [Aoreo]/Spacecore.sm;
#HASMUSIC:1;
#HASBANNER:1;
#MUSICLENGTH:129.600;
// end cache tags

//---------------dance-single - J. Nero----------------
#NOTES:
     dance-single:
     J. Nero:
     Challenge:
     14:
     1.000,1.000,0.062,0.509,1.000,1111.000,8.000,66.000,39.000,0.000:
0000
0000
0000
0000
,
0000
0000
0000
0000
,
0000
0000
0000
0000
,
0000
0000
0000
0000
,
1001
0001
0000
1000
0100
1000
0000
0001
,
0010
0100
0000
1000
0010
0100
0000
0001
,
0100
0001
0000
1000
0100
0010
0000
0001
,
1000
0100
0000
1000
0010
0100
0000
0001
,
0100
0001
1000
0100
1000
0001
0100
0010
,
0100
0001
1000
0100
0010
0001
1000
0001
,
0010
0001
0100
0010
1000
0001
1000
0100
,
1000
0000
0001
0000
0200
0000
0000
0000
0300
0000
0000
0000
0001
1000
0001
0100
,
0001
0000
1000
0000
0100
0000
0010
0000
0100
0000
1000
0000
0001
0000
0010
0100
,
1000
0000
0000
0000
0000
0000
0000
0000
0000
0000
0000
0000
0000
0000
0000
0000
0000
0000
0000
0000
0000
0000
0000
0000
0001
0000
0000
0000
0000
0000
0000
0000
0000
0000
0000
0000
0000
0000
0000
0000
0000
0000
0000
0000
0000
0000
0000
0000
0100
0000
0000
0000
0000
0000
0000
0000
0000
0000
0000
0000
0000
0000
0000
0000
0000
0000
0000
0000
0000
0000
0000
0000
0001
0000
0000
0000
0000
0000
0000
0000
0000
0000
0000
0000
0040
0000
0000
0030
0000
0000
0000
0000
0000
0000
0000
0000
0100
0000
0000
0000
0000
0000
0000
0000
0000
0000
0000
0000
0000
0000
0000
0000
0000
0000
0000
0000
0000
0000
0000
0000
1000
0000
0000
0000
0000
0000
0000
0000
0001
0000
0000
0000
0000
0000
0000
0000
1000
0000
0000
0000
0000
0000
0000
0000
0001
0000
0000
0000
0000
0000
0000
0000
0000
0000
0000
0000
0000
0000
0000
0000
0000
0000
0000
0000
0000
0000
0000
0000
1000
0000
0000
0000
0000
0000
0000
0000
0000
0000
0000
0000
0010
0000
0000
0000
0000
0000
0000
0000
0000
0000
0000
0000
,
0100
0000
0001
0000
1000
0000
0100
0000
0010
0000
0100
0000
1000
0000
0001
0010
,
0001
0000
0000
0000
0000
0000
0000
0000
0000
0000
0000
0000
0000
0000
0000
0000
0000
0000
0000
0000
0000
0000
0000
0000
0100
0000
0000
0000
0000
0000
0000
0000
0000
0000
0000
0000
0000
0000
0000
0000
0000
0000
0000
0000
0000
0000
0000
0000
0010
0000
0000
0000
0000
0000
0000
0000
0000
0000
0000
0000
0000
0000
0000
0000
0000
0000
0000
0000
0000
0000
0000
0000
0100
0000
0000
0000
0000
0000
0000
0000
0000
0000
0000
0000
0000
0000
0000
0000
0000
0000
0000
0000
0000
0000
0000
0000
0002
0000
0000
0003
0000
0000
0000
0000
0000
0000
0000
0000
0000
0000
0000
0000
0000
0000
0000
0000
0000
0000
0000
0000
0002
0000
0000
0003
0000
0000
0000
0000
0000
0000
0000
0000
0000
0000
0000
0000
0000
0000
0000
0000
0000
0000
0000
0000
0002
0000
0000
0003
0000
0000
0000
0000
0000
0000
0000
0000
0000
0000
0000
0000
0000
0000
0000
0000
0000
0000
0000
0000
1000
0000
0000
0000
0000
0000
0000
0000
0100
0000
0000
0000
0000
0000
0000
0000
1000
0000
0000
0000
0000
0000
0000
0000
,
0100
0010
0100
0010
0001
1000
0010
1000
0001
0100
0001
0100
0010
1000
0001
0010
,
0001
1000
0100
0010
0001
1000
0001
1000
0040
0000
0130
0000
0040
0000
1030
0001
,
1000
0100
0010
0100
1000
0001
1000
0010
1000
0001
0010
0100
1000
0001
0010
0001
,
4000
0000
0000
0000
0000
0000
3000
0000
0000
0000
0000
0000
0000
0000
0000
0000
0000
0000
0000
0000
0000
0000
0000
0000
4000
0000
0000
0000
0000
0000
3000
0000
0000
0000
0000
0000
0000
0000
0000
0000
0000
0000
0000
0000
0000
0000
0000
0000
0004
0000
0000
0000
0000
0000
0003
0000
0000
0000
0000
0000
0400
0000
0000
0000
0000
0000
0300
0000
0000
0000
0000
0000
0040
0000
0000
0000
0000
0000
0030
0000
0000
0000
0000
0000
4000
0000
0000
0000
0000
0000
3000
0000
0000
0000
0000
0000
0004
0000
0000
0000
0000
0000
0000
0000
0000
0000
0000
0000
0000
0000
0000
0000
0000
0000
0000
0000
0000
0000
0000
0000
0000
0000
0000
0000
0000
0000
0000
0000
0000
0000
0000
0000
0000
0000
0000
0000
0000
0000
0000
0000
0000
0000
0000
0000
1003
0000
0000
0000
0000
0000
0000
0000
0100
0000
0000
0000
0000
0000
0000
0000
1000
0000
0000
0000
0000
0000
0000
0000
0100
0000
0000
0000
0000
0000
0000
0000
0000
0000
0000
0000
0000
0000
0000
0000
0000
0000
0000
0000
0000
0000
0000
0000
,
0010
0000
0100
0000
1000
0000
0001
0100
0001
0000
1000
0100
0010
0100
1000
0001
,
1000
0000
0100
0000
1000
0010
0100
0000
0001
1000
0001
0010
0200
0000
0300
0000
,
1100
0000
0000
0000
0000
0000
1000
0000
0000
0000
0000
0000
0001
0000
0000
0000
0000
0000
0100
0000
0000
0010
0000
0000
0100
0000
0000
0000
0000
0000
0001
0000
0000
1000
0000
0000
0001
0000
0000
0010
0000
0000
0100
0000
1000
0000
0100
0000
,
1000
0000
0001
0000
1000
0010
1000
0000
0010
0100
0001
1000
0001
1000
0010
0000
,
0100
0001
0100
0000
0001
0000
0010
0100
1000
0000
0001
0100
0001
1000
0010
1000
,
0100
0000
0000
0000
0000
0000
0010
0000
0000
0000
0000
0000
0001
0000
0000
1000
0000
0000
0001
0000
0000
0000
0000
0000
1000
0000
0000
0000
0000
0000
0001
0000
0100
0000
0001
0000
0100
0000
0000
0000
0000
0000
0010
0000
1000
0000
0010
0000
,
1000
0000
0001
1000
0001
0000
0010
0001
0010
0000
0001
0010
0100
1000
0001
0000
,
0000
0000
0000
0000
,
1001
0000
1000
0100
0010
0000
0100
1000
0001
0000
0100
0010
0100
0001
1000
0000
,
0001
0000
0100
0000
0001
0010
0100
0000
1000
0100
1000
0001
0100
0000
0010
0000
,
0100
0000
0001
1000
0001
0000
1000
0100
1000
0000
0001
0010
0100
0010
0001
0000
,
1000
0000
0010
0000
0100
0001
0100
0010
1000
0000
0000
0000
1000
0000
0001
0010
,
0100
0000
1000
0001
1000
0000
0001
0010
0001
0000
1000
0010
1000
0001
0010
0000
,
0100
0000
1000
0000
0001
0010
0001
0000
1000
0010
0100
0010
1000
0000
0001
0000
,
0100
0000
0010
0100
0010
0000
1000
0010
1000
0000
0001
0010
0001
1000
0100
0000
,
0010
0000
0100
0000
1000
0001
1000
0010
0100
0001
0100
0010
1000
0000
0001
1000
,
0001
0000
0100
0000
0001
0010
0001
0010
0100
1000
0100
1000
0001
0100
0001
0100
,
0020
0000
1030
0000
0002
0000
1003
0000
0020
0000
1030
0000
0001
1000
0001
1000
,
0100
0000
0000
0000
0000
0000
0010
0000
0000
0000
0000
0000
0100
0000
0000
0000
0000
0000
1000
0000
0000
0000
0000
0000
0001
0000
0000
0000
0000
0000
1000
0000
0000
0010
0000
0000
1000
0000
0000
0000
0000
0000
0001
0000
0100
0000
0001
0000
,
0100
0000
0001
0000
0010
0000
0001
0000
1000
0000
0001
0100
0001
0100
0001
0000
,
1000
0100
1000
0100
0010
0001
0010
0001
1000
0010
1000
0010
0100
0001
0100
0001
,
1000
0000
0000
0001
0000
0000
1000
0000
0000
0100
0000
0000
0010
0000
0000
0001
1000
0001
1000
0000
0000
0001
0100
0001
,
0100
0001
1000
0001
0100
0010
0100
0001
,
1000
0000
0010
0000
1000
0000
0001
0000
1000
0100
1000
0100
1000
0000
0000
0000
,
0001
0000
0010
0000
0100
0000
1000
0000
0001
0000
0010
0000
0001
0000
1000
0010
,
0100
0000
0000
0000
0000
0000
0000
0000
0000
0000
0000
0000
0000
0000
0000
0000
0000
0000
0000
0000
0000
0000
0000
0000
0010
0000
0000
0000
0000
0000
0000
0000
0000
0000
0000
0000
0000
0000
0000
0000
0000
0000
0000
0000
0000
0000
0000
0000
1000
0000
0000
0000
0000
0000
0000
0000
0000
0000
0000
0000
0000
0000
0000
0000
0000
0000
0000
0000
0000
0000
0000
0000
0100
0000
0000
0000
0000
0000
0000
0000
0000
0000
0000
0000
0040
0000
0000
0030
0000
0000
0000
0000
0000
0000
0000
0000
0001
0000
0000
0000
0000
0000
0000
0000
0000
0000
0000
0000
0000
0000
0000
0000
0000
0000
0000
0000
0000
0000
0000
0000
1000
0000
0000
0000
0000
0000
0000
0000
0001
0000
0000
0000
0000
0000
0000
0000
1000
0000
0000
0000
0000
0000
0000
0000
0001
0000
0000
0000
0000
0000
0000
0000
0000
0000
0000
0000
0000
0000
0000
0000
0000
0000
0000
0000
0000
0000
0000
0000
0100
0000
0000
0000
0000
0000
0000
0000
0000
0000
0000
0000
0010
0000
0000
0000
0000
0000
0000
0000
0000
0000
0000
0000
,
1000
0000
0010
0000
0100
0000
0001
0000
1000
0000
0001
0000
0010
0000
0100
1000
,
0100
0000
0000
0000
0000
0000
0000
0000
0000
0000
0000
0000
0000
0000
0000
0000
0000
0000
0000
0000
0000
0000
0000
0000
1000
0000
0000
0000
0000
0000
0000
0000
0000
0000
0000
0000
0000
0000
0000
0000
0000
0000
0000
0000
0000
0000
0000
0000
0001
0000
0000
0000
0000
0000
0000
0000
0000
0000
0000
0000
0000
0000
0000
0000
0000
0000
0000
0000
0000
0000
0000
0000
1000
0000
0000
0000
0000
0000
0000
0000
0000
0000
0000
0000
0000
0000
0000
0000
0000
0000
0000
0000
0000
0000
0000
0000
0002
0000
0000
0000
0000
0000
0003
0000
0000
0000
0000
0000
0000
0000
0000
0000
0000
0000
0000
0000
0000
0000
0000
0000
0002
0000
0000
0000
0000
0000
0003
0000
0000
0000
0000
0000
0000
0000
0000
0000
0000
0000
0000
0000
0000
0000
0000
0000
0002
0000
0000
0000
0000
0000
0003
0000
0000
0000
0000
0000
0000
0000
0000
0000
0000
0000
0000
0000
0000
0000
0000
0000
1000
0000
0000
0000
0000
0000
0000
0000
0100
0000
0000
0000
0000
0000
0000
0000
1000
0000
0000
0000
0000
0000
0000
0000
,
0100
0010
0100
0010
0001
1000
0001
1000
0001
0100
0001
0100
0010
1000
0010
1000
,
0001
0000
0000
0010
0000
0000
0001
0000
0000
0010
0000
0000
0100
0000
0000
1000
0000
0000
0001
0000
0000
0000
0000
0000
0010
0000
0000
0000
0000
0000
0100
0000
1000
0000
0100
0000
1000
0000
0000
0000
0000
0000
0001
0000
0100
0000
0001
0000
,
0100
0010
1000
0001
0010
0100
1000
0001
,
0100
0000
0001
0000
1000
0000
0001
0000
0100
0010
0100
0010
1000
0000
0001
0000
,
0010
0001
1000
0100
1000
0001
0010
0100
1000
0001
0100
0010
0100
0001
1000
0001
,
1000
0100
0010
0001
1000
0100
0010
0001
1000
0010
0100
0001
1000
0010
0100
0001
,
1000
0100
0010
0001
1000
0001
0010
0100
1000
0001
0100
0001
1000
0100
1000
0001
,
1000
0010
0100
0001
1000
0010
0100
0001
1000
0001
0010
0100
1000
0001
0010
0100
,
1000
0010
0100
0001
1000
0001
0100
0010
1000
0001
1000
0100
1000
0001
0010
0001
,
1000
0001
0100
0010
1000
0001
0100
0010
1000
0100
0010
0001
1000
0100
0010
0001
,
1000
0010
0100
0001
1000
0010
0100
0001
1000
0100
1000
0001
1000
0001
0010
0100
,
1000
0000
0100
0000
1000
0000
0001
0000
0100
0001
1000
0010
0100
0001
1000
0001
,
0200
0300
0020
0030
2000
3000
0200
0300
0020
0030
0002
0003
1000
0100
1000
0001
,
0200
0300
0020
0030
0200
0300
0002
0003
0020
0030
0200
0300
0020
0030
0200
0300
,
2000
0000
0000
3000
0000
0000
0002
0000
0000
0003
0000
0000
0200
0000
0000
0000
0300
0000
0002
0000
0000
0003
0000
0000
2000
0000
0000
3000
0000
0000
0010
0000
0000
1000
0000
0000
0010
0000
0000
0000
0000
0000
0100
0000
0001
0000
0100
0000
,
0002
0000
0003
0000
0000
0000
2000
0000
0000
3000
0000
0000
0002
0000
0000
0003
0000
0000
0020
0000
0000
0030
0000
0000
0200
0000
0000
0300
0000
0000
0010
0000
0000
0100
0000
0000
0010
0000
0000
0100
0000
0000
1000
0000
0000
0000
0000
0000
,
0001
1000
0020
0030
0200
0300
0020
0030
2000
3000
0200
0300
0020
0030
0001
1000
,
0002
0000
0000
0003
0000
0000
0020
0000
0000
0030
0000
0000
0200
0000
0000
0300
0000
0000
0020
0000
0000
0030
0000
0000
0002
0000
0000
0003
0000
0000
1000
0000
0010
0000
1000
0000
0010
0000
0000
0000
0000
0000
0100
0000
0001
0000
0100
0000
,
0002
0003
0020
0030
0200
0300
2000
3000
0002
0003
0200
0300
0020
0030
0200
0300
,
0002
0003
0020
0030
0200
0300
0020
0030
0100
1000
0001
1000
0001
0000
0000
0000
,
1001
0000
1000
0000
0010
0000
0100
0000
0001
1000
0001
1000
0001
0010
0001
0010
,
0100
0000
0000
1000
0000
0000
0100
0000
0000
1000
0000
0000
0001
0000
0000
0100
0000
0000
0001
0000
0000
0100
0000
0000
0010
0000
0000
0000
0000
0000
1000
0000
0001
0000
1000
0000
0001
0000
0000
0000
0000
0000
1000
0000
0000
0100
0000
0000
,
0010
0000
0001
0000
0100
0000
0001
0000
1000
0000
0010
0000
0100
0000
0001
1000
,
0001
0000
0000
0000
0000
0000
1000
0000
0000
0000
0000
0000
0100
0000
0000
0000
0000
0000
0010
0000
0000
0000
0000
0000
0100
0000
0000
1000
0000
0000
0100
0000
0000
1000
0000
0000
0001
0000
0000
0000
0000
0000
1000
0000
0001
0000
1000
0000
,
0001
0000
0100
0000
0001
0010
0001
0010
0100
1000
0100
1000
0001
0100
0001
0100
,
0010
1000
0010
1000
0001
1000
0001
1000
0400
0300
0010
0000
0400
0300
1000
0001
,
1000
0001
1000
0001
0000
0000
0000
0000
0000
0000
0000
0000
0000
0000
0000
0000
0000
0000
0000
0000
0000
0000
0000
0000
,
0000
0000
0000
0000
,
1000
0010
1000
0001
0100
0010
1000
0001
0010
0001
1000
0100
0010
0001
1000
0001
,
0100
0010
0100
0001
1000
0010
1000
0001
0010
0001
1000
0100
0010
0001
1000
0010
,
1000
0001
0100
0010
0100
0001
1000
0010
1000
0001
0010
0001
1000
0010
1000
0100
,
1000
0010
0100
0001
0010
0100
1000
0001
1000
0001
1000
0010
0100
0010
1000
0001
,
0010
0100
1000
0001
1000
0010
1000
0001
0100
0010
0100
0001
1000
0001
0010
0100
,
1000
0001
0010
0001
1000
0100
0010
0100
1000
0001
1000
0010
0100
0010
1000
0001
,
0010
0100
1000
0001
0010
0001
1000
0001
0010
0100
1000
0001
1000
0010
1000
0001
,
0100
0010
0100
0001
1000
0010
1000
0001
1000
0001
0100
0001
1000
0100
0010
0100
,
1000
0001
0010
0100
1000
0001
1000
0010
1000
0001
0100
0010
0100
0001
1000
0010
,
1000
0001
0100
0010
0100
0001
0100
0010
1000
0001
1000
0010
0100
0010
1000
0010
,
0100
0001
1000
0001
0010
0100
0010
0001
1000
0100
0010
0001
2000
0000
3000
0000
,
0001
0010
0100
0010
0001
1000
0100
0010
0001
1000
0001
0100
0010
1000
0010
0100
,
0001
0100
0010
1000
0001
0100
0001
1000
0100
0010
0001
1000
0001
0010
0001
1000
,
0010
1000
0001
0100
0010
0100
0001
1000
0001
0010
0001
1000
0100
0010
0001
1000
,
0100
1000
0001
1000
0010
0100
0010
1000
0001
0100
0010
0100
0001
1000
0010
1000
,
0001
0010
0100
0010
0001
1000
0100
1000
0001
0010
0100
1000
0001
0000
1000
0000
,
0200
0000
0000
0000
,
0000
0300
0000
0000
,
0000
0000
0000
0000
,
0000
0000
0000
0000
0000
0000
0000
0000
0000
0000
0000
0000
1000
0001
1000
0010
,
0100
0000
0010
0000
1000
0000
0001
0000
1000
0000
0100
0000
0010
0001
1000
0001
,
0200
0310
2000
3010
0200
0310
2000
3100
,
0010
0000
0000
0000
0000
0000
0001
0000
0000
0000
0000
0000
1000
0000
0000
0000
0000
0000
0010
0000
0000
0000
0000
0000
1000
0000
0000
0000
0000
0000
0001
0000
0000
0010
0000
0000
0100
0000
0000
0000
0000
0000
1000
0000
0001
0000
1000
0000
,
0001
0000
0100
0000
0001
0000
1000
0000
0100
0000
1000
0100
0010
0100
1000
0000
,
0001
0000
0100
0000
0001
0000
0010
0000
0100
0000
0010
0000
0001
0000
1000
0010
,
1000
0000
0000
0010
0000
0000
0100
0000
0000
0001
0000
0000
1000
0000
0000
0001
0100
0001
0100
0000
0000
0010
1000
0010
,
1000
0001
0100
0010
1000
0100
0010
0001
,
1000
0000
0100
0000
1000
0000
0100
0000
1000
0001
0010
0100
1000
0000
0001
0000
,
2002
0000
0000
0000
,
0000
0000
0000
3003
0000
0000
0000
0000
,
0M00
0000
0000
0000
0000
0000
0000
0000
0000
0000
0000
0000
00M0
0000
0000
0000
0000
0000
0000
0000
0000
0000
0000
0000
0M00
0000
0000
0000
0000
0000
0000
0000
0000
0000
0000
0000
00M0
0000
0000
0000
0000
0000
0000
0000
0000
0000
0000
0000
0M00
0000
0000
0000
0000
0000
0000
0000
0000
0000
0000
0000
0000
0000
0000
0000
00M0
0000
0000
0000
0000
0000
0000
0000
0M00
0000
0000
0000
0000
0000
0000
0000
0000
0000
0000
0000
00M0
0000
0000
0000
0000
0000
0000
0000
0000
0000
0000
0000
0M00
0000
0000
0000
0000
0000
0000
0000
0000
0000
0000
0000
00M0
0000
0000
0000
0000
0000
0M00
0000
0000
0000
0000
0000
0000
0000
0000
0000
0000
0000
00M0
0000
0000
0000
0000
0000
0M00
0000
0000
0000
0000
0000
00M0
0000
0000
0000
0000
0000
0M00
0000
0000
0000
0000
0000
00M0
0000
0000
0000
0000
0000
0M00
0000
0000
0000
0000
0000
0000
0000
0000
0000
0000
0000
00M0
0000
0000
0000
0000
0000
0M00
0000
0000
0000
0000
0000
0000
0000
0000
0000
0000
0000
0MM0
0000
0000
0000
0000
0000
,
0000
0000
0000
0000
0000
0000
00M0
0000
0000
0000
0000
0000
0M00
0000
0000
0000
0000
0000
00M0
0000
0000
0000
0000
0000
0M00
0000
0000
0000
0000
0000
0000
0000
0000
0000
0000
0000
00M0
0000
0000
0000
0000
0000
0M00
0000
0000
0000
0000
0000
00M0
0000
0000
0000
0000
0000
0M00
0000
0000
0000
0000
0000
00M0
0000
0000
0000
0000
0000
0M00
0000
0000
0000
0000
0000
0000
0000
0000
0000
00M0
0000
0000
0000
0M00
0000
0000
0000
00M0
0000
0000
0000
0M00
0000
0000
0000
00M0
0000
0000
0000
0M00
0000
0000
0000
00M0
0000
0000
0000
0M00
0000
0000
0000
0000
0000
0000
0000
0000
0000
0000
0000
0000
0000
0000
0000
0000
0000
0000
0000
0000
0000
0000
0000
0000
0000
0000
0000
0000
0000
0000
0000
0000
0000
0000
0000
0000
0000
0000
0000
0000
0000
0000
0000
0000
0000
0000
0000
0000
0000
0000
0000
0000
0000
0000
0000
0000
0000
0000
0000
0000
0000
0000
0000
0000
0000
0000
0000
0000
0000
0000
0000
0000
0000
0000
0000
0000
0000
0000
0000
0000
0000
0000
0000
0000
0000
0000
0000
;

//---------------dance-single - J. Nero without nigg----------------
#NOTES:
     dance-single:
     J. Nero without nigg:
     Hard:
     14:
     1.000,1.000,0.062,0.509,1.000,1089.000,8.000,66.000,39.000,0.000:
0000
0000
0000
0000
,
0000
0000
0000
0000
,
0000
0000
0000
0000
,
0000
0000
0000
0000
,
1001
0001
0000
1000
0100
1000
0000
0001
,
0010
0100
0000
1000
0010
0100
0000
0001
,
0100
0001
0000
1000
0100
0010
0000
0001
,
1000
0100
0000
1000
0010
0100
0000
0001
,
0100
0001
1000
0100
1000
0001
0100
0010
,
0100
0001
1000
0100
0010
0001
1000
0001
,
0010
0001
0100
0010
1000
0001
1000
0100
,
1000
0000
0001
0000
0200
0000
0000
0000
0300
0000
0000
0000
0001
1000
0001
0100
,
0001
0000
1000
0000
0100
0000
0010
0000
0100
0000
1000
0000
0001
0000
0010
0100
,
1000
0000
0000
0000
0000
0000
0000
0000
0001
0000
0000
0000
0000
0000
0000
0000
0100
0000
0000
0000
0000
0000
0000
0000
0001
0000
0000
0000
0040
0030
0000
0000
0100
0000
0000
0000
0000
0000
0000
0000
1000
0000
0000
0000
0100
0000
0000
0000
0010
0000
0000
0000
0000
0000
0000
0000
0001
0000
0000
0000
0100
0000
0000
0000
,
0010
0000
1000
0000
0001
0000
0010
0000
0100
0000
0010
0000
0001
0000
1000
0100
,
1000
0000
0000
0000
0000
0000
0000
0000
0010
0000
0000
0000
0000
0000
0000
0000
0100
0000
0000
0000
0000
0000
0000
0000
0010
0000
0000
0000
0000
0000
0000
0000
2000
3000
0000
0000
0000
0000
0000
0000
2000
3000
0000
0000
0000
0000
0000
0000
2000
3000
0000
0000
0000
0000
0000
0000
0001
0000
0000
0000
1000
0000
0000
0000
,
0100
0010
0100
0010
0001
1000
0010
1000
0001
0100
0001
0100
0010
1000
0001
0010
,
0001
1000
0100
0010
0001
1000
0001
1000
0040
0000
0130
0000
0040
0000
1030
0001
,
1000
0100
0010
0100
1000
0001
1000
0010
1000
0001
0010
0100
1000
0001
0010
0001
,
4000
3000
0000
0000
4000
3000
0000
0000
0004
0003
0400
0300
0040
0030
4000
3000
0004
0000
0000
0000
0000
0000
0000
0000
1003
0000
0100
0000
0010
0000
0000
0000
,
0100
0000
0010
0000
0001
0000
1000
0010
1000
0000
0001
0010
0100
0010
0001
1000
,
0001
0000
0010
0000
0001
0100
0010
0000
1000
0001
1000
0100
0020
0000
0030
0000
,
0011
0000
0001
0000
1000
0000
0010
0100
0010
0000
1000
0001
1000
0100
0010
0001
,
1000
0000
0001
0000
1000
0010
1000
0000
0010
0100
0001
1000
0001
1000
0010
0000
,
0100
0001
0100
0000
0001
0000
0010
0100
1000
0000
0001
0100
0001
1000
0010
1000
,
0100
0000
0010
0000
0001
1000
0001
0000
1000
0000
0001
0010
0100
0000
1000
0010
,
0100
0000
0001
1000
0001
0000
0010
0001
0010
0000
0001
0010
0100
1000
0001
0000
,
0000
0000
0000
0000
,
1001
0000
1000
0100
0010
0000
0100
1000
0001
0000
0100
0010
0100
0001
1000
0000
,
0001
0000
0100
0000
0001
0010
0100
0000
1000
0100
1000
0001
0100
0000
0010
0000
,
0100
0000
0001
1000
0001
0000
1000
0100
1000
0000
0001
0010
0100
0010
0001
0000
,
1000
0000
0010
0000
0100
0001
0100
0010
1000
0000
0000
0000
1000
0000
0001
0010
,
0100
0000
1000
0001
1000
0000
0001
0010
0001
0000
1000
0010
1000
0001
0010
0000
,
0100
0000
1000
0000
0001
0010
0001
0000
1000
0010
0100
0010
1000
0000
0001
0000
,
0100
0000
0010
0100
0010
0000
1000
0010
1000
0000
0001
0010
0001
1000
0100
0000
,
0010
0000
0100
0000
1000
0001
1000
0010
0100
0001
0100
0010
1000
0000
0001
1000
,
0001
0000
0100
0000
0001
0010
0001
0010
0100
1000
0100
1000
0001
0100
0001
0100
,
0020
0000
1030
0000
0002
0000
1003
0000
0020
0000
1030
0000
0001
1000
0001
1000
,
0100
0000
0010
0000
0100
0000
1000
0000
0001
0000
1000
0010
1000
0000
0001
0010
,
0100
0000
1000
0000
0100
0000
1000
0000
0001
0000
1000
0010
1000
0010
1000
0000
,
0001
0010
0001
0010
0100
1000
0100
1000
0001
0100
0001
0100
0010
1000
0010
1000
,
0001
0000
1000
0000
0001
0000
0010
0000
0100
0000
1000
0100
0010
0000
0001
0100
,
0010
1000
0001
1000
0010
0100
0010
1000
,
0001
0000
0100
0000
0001
0000
1000
0000
0001
0100
0001
0100
0001
0000
0000
0000
,
1000
0000
0100
0000
0010
0000
0001
0000
1000
0000
0100
0000
1000
0000
0001
0100
,
0010
0000
0000
0000
0000
0000
0000
0000
0100
0000
0000
0000
0000
0000
0000
0000
0001
0000
0000
0000
0000
0000
0000
0000
0010
0000
0000
0000
0400
0300
0000
0000
1000
0000
0000
0000
0000
0000
0000
0000
0001
0000
0000
0000
1000
0000
0000
0000
0001
0000
0000
0000
0000
0000
0000
0000
0100
0000
0000
0000
0010
0000
0000
0000
,
1000
0000
0010
0000
0100
0000
0001
0000
1000
0000
0001
0000
0010
0000
0100
1000
,
0100
0000
0000
0000
1000
0000
0000
0000
0001
0000
0000
0000
1000
0000
0000
0000
0002
0003
0000
0000
0002
0003
0000
0000
0002
0003
0000
0000
1000
0000
0001
0000
,
0010
0100
0010
0100
1000
0001
1000
0001
1000
0010
1000
0010
0100
0001
0100
0001
,
1000
0100
1000
0100
0010
0001
1000
0000
0100
0000
0010
0001
0100
0000
0001
0100
,
0010
0100
0001
1000
0100
0010
0001
1000
,
0010
0000
1000
0000
0001
0000
1000
0000
0010
0100
0010
0100
0001
0000
1000
0000
,
0100
1000
0001
0010
0001
1000
0100
0010
0001
1000
0010
0100
0010
1000
0001
1000
,
0001
0010
0100
1000
0001
0010
0100
1000
0001
0100
0010
1000
0001
0100
0010
1000
,
0001
0010
0100
1000
0001
1000
0100
0010
0001
1000
0010
1000
0001
0010
0001
1000
,
0001
0100
0010
1000
0001
0100
0010
1000
0001
1000
0100
0010
0001
1000
0100
0010
,
0001
0100
0010
1000
0001
1000
0010
0100
0001
1000
0001
0010
0001
1000
0100
1000
,
0001
1000
0010
0100
0001
1000
0010
0100
0001
0010
0100
1000
0001
0010
0100
1000
,
0001
0100
0010
1000
0001
0100
0010
1000
0001
0010
0001
1000
0001
1000
0100
0010
,
0001
0000
0010
0000
0001
0000
1000
0000
0010
1000
0001
0100
0010
1000
0001
1000
,
0020
0030
0200
0300
0002
0003
0020
0030
0200
0300
2000
3000
0001
0010
0001
1000
,
0020
0030
0200
0300
0020
0030
2000
3000
0200
0300
0020
0030
0200
0300
0020
0030
,
0002
0000
0000
0003
0000
0000
2000
0000
0000
3000
0000
0000
0020
0000
0000
0000
0030
0000
2000
0000
0000
3000
0000
0000
0002
0000
0000
0003
0000
0000
0100
0000
0000
0001
0000
0000
0100
0000
0000
0000
0000
0000
0010
0000
0000
1000
0000
0000
,
0002
0000
0003
0000
0000
0000
2000
0000
0000
3000
0000
0000
0002
0000
0000
0003
0000
0000
0020
0000
0000
0030
0000
0000
0200
0000
0000
0300
0000
0000
0010
0000
0000
0100
0000
0000
0010
0000
0000
0100
0000
0000
1000
0000
0000
0000
0000
0000
,
0001
1000
0020
0030
0200
0300
0020
0030
2000
3000
0200
0300
0020
0030
0001
1000
,
0002
0003
0020
0030
0200
0300
0020
0030
0002
0003
1000
0100
0010
0000
0001
1000
,
0002
0003
0020
0030
0200
0300
2000
3000
0002
0003
0200
0300
0020
0030
0200
0300
,
0002
0003
0020
0030
0200
0300
0020
0030
0100
1000
0001
1000
0001
0000
0000
0000
,
1001
0000
1000
0000
0010
0000
0100
0000
0001
1000
0001
1000
0001
0010
0001
0010
,
0100
1000
0100
1000
0001
0100
0001
0100
0010
0000
1000
0100
0010
0000
0001
0010
,
0100
0000
1000
0000
0010
0000
1000
0000
0001
0000
0100
0000
0010
0000
1000
0001
,
1000
0000
0001
0000
0010
0000
0100
0000
1000
0010
1000
0010
0100
0000
0001
1000
,
0001
0000
0100
0000
0001
0010
0001
0010
0100
1000
0100
1000
0001
0100
0001
0100
,
0010
1000
0010
1000
0001
1000
0001
1000
0400
0300
0010
0000
0400
0300
1000
0001
,
0010
0100
1000
0000
0000
0000
0000
0000
0000
0000
0000
0000
0000
0000
0000
0000
,
0000
0000
0000
0000
,
1000
0010
1000
0001
0100
0010
1000
0001
0010
0001
1000
0100
0010
0001
1000
0001
,
0100
0010
0100
0001
1000
0010
1000
0001
0010
0001
1000
0100
0010
0001
1000
0010
,
1000
0001
0100
0010
0100
0001
1000
0010
1000
0001
0010
0001
1000
0010
1000
0100
,
1000
0010
0100
0001
0010
0100
1000
0001
1000
0001
1000
0010
0100
0010
1000
0001
,
0010
0100
1000
0001
1000
0010
1000
0001
0100
0010
0100
0001
1000
0001
0010
0100
,
1000
0001
0010
0001
1000
0100
0010
0100
1000
0001
1000
0010
0100
0010
1000
0001
,
0010
0100
1000
0001
0010
0001
1000
0001
0010
0100
1000
0001
1000
0010
1000
0001
,
0100
0010
0100
0001
1000
0010
1000
0001
1000
0001
0100
0001
1000
0100
0010
0100
,
1000
0001
0010
0100
1000
0001
1000
0010
1000
0001
0100
0010
0100
0001
1000
0010
,
1000
0001
0100
0010
0100
0001
0100
0010
1000
0001
1000
0010
0100
0010
1000
0010
,
0100
0001
1000
0001
0010
0100
0010
0001
1000
0100
0010
0001
2000
0000
3000
0000
,
0001
0010
0100
0010
0001
1000
0100
0010
0001
1000
0001
0100
0010
1000
0010
0100
,
0001
0100
0010
1000
0001
0100
0001
1000
0100
0010
0001
1000
0001
0010
0001
1000
,
0010
1000
0001
0100
0010
0100
0001
1000
0001
0010
0001
1000
0100
0010
0001
1000
,
0100
1000
0001
1000
0010
0100
0010
1000
0001
0100
0010
0100
0001
1000
0010
1000
,
0001
0010
0100
0010
0001
1000
0100
1000
0001
0010
0100
1000
0001
0000
1000
0000
,
0200
0000
0000
0000
,
0000
0300
0000
0000
,
0000
0000
0000
0000
,
0000
0000
0000
0000
0000
0000
0000
0000
0000
0000
0000
0000
1000
0001
1000
0010
,
0100
0000
0010
0000
1000
0000
0001
0000
1000
0000
0100
0000
0010
0001
1000
0001
,
0200
0310
2000
3010
0200
0310
2000
3100
,
0010
0000
0001
0000
1000
0000
0010
0000
1000
0000
0001
0010
0100
0000
1000
0100
,
0010
0000
0100
0000
1000
0000
0001
0000
0100
0000
0001
0010
0100
0010
0001
0000
,
1000
0000
0010
0000
1000
0000
0100
0000
0010
0000
0100
0000
1000
0000
0001
0100
,
0001
0000
0100
0000
0010
0000
1000
0000
0001
0000
1000
0100
0010
0000
0001
0010
,
0100
1000
0010
0100
0001
0010
0100
1000
,
0001
0000
0010
0000
0001
0000
0010
0000
0001
1000
0100
0010
0001
0000
1000
0000
,
2002
0000
0000
0000
,
0000
0000
0000
3003
0000
0000
0000
0000
,
0M00
0000
0000
0000
0000
0000
0000
0000
0000
0000
0000
0000
00M0
0000
0000
0000
0000
0000
0000
0000
0000
0000
0000
0000
0M00
0000
0000
0000
0000
0000
0000
0000
0000
0000
0000
0000
00M0
0000
0000
0000
0000
0000
0000
0000
0000
0000
0000
0000
0M00
0000
0000
0000
0000
0000
0000
0000
0000
0000
0000
0000
0000
0000
0000
0000
00M0
0000
0000
0000
0000
0000
0000
0000
0M00
0000
0000
0000
0000
0000
0000
0000
0000
0000
0000
0000
00M0
0000
0000
0000
0000
0000
0000
0000
0000
0000
0000
0000
0M00
0000
0000
0000
0000
0000
0000
0000
0000
0000
0000
0000
00M0
0000
0000
0000
0000
0000
0M00
0000
0000
0000
0000
0000
0000
0000
0000
0000
0000
0000
00M0
0000
0000
0000
0000
0000
0M00
0000
0000
0000
0000
0000
00M0
0000
0000
0000
0000
0000
0M00
0000
0000
0000
0000
0000
00M0
0000
0000
0000
0000
0000
0M00
0000
0000
0000
0000
0000
0000
0000
0000
0000
0000
0000
00M0
0000
0000
0000
0000
0000
0M00
0000
0000
0000
0000
0000
0000
0000
0000
0000
0000
0000
0MM0
0000
0000
0000
0000
0000
,
0000
0000
0000
0000
0000
0000
00M0
0000
0000
0000
0000
0000
0M00
0000
0000
0000
0000
0000
00M0
0000
0000
0000
0000
0000
0M00
0000
0000
0000
0000
0000
0000
0000
0000
0000
0000
0000
00M0
0000
0000
0000
0000
0000
0M00
0000
0000
0000
0000
0000
00M0
0000
0000
0000
0000
0000
0M00
0000
0000
0000
0000
0000
00M0
0000
0000
0000
0000
0000
0M00
0000
0000
0000
0000
0000
0000
0000
0000
0000
00M0
0000
0000
0000
0M00
0000
0000
0000
00M0
0000
0000
0000
0M00
0000
0000
0000
00M0
0000
0000
0000
0M00
0000
0000
0000
00M0
0000
0000
0000
0M00
0000
0000
0000
0000
0000
0000
0000
0000
0000
0000
0000
0000
0000
0000
0000
0000
0000
0000
0000
0000
0000
0000
0000
0000
0000
0000
0000
0000
0000
0000
0000
0000
0000
0000
0000
0000
0000
0000
0000
0000
0000
0000
0000
0000
0000
0000
0000
0000
0000
0000
0000
0000
0000
0000
0000
0000
0000
0000
0000
0000
0000
0000
0000
0000
0000
0000
0000
0000
0000
0000
0000
0000
0000
0000
0000
0000
0000
0000
0000
0000
0000
0000
0000
0000
0000
0000
0000
;
