#TITLE:TGTMN;
#SUBTITLE:;
#ARTIST:SharpnelSound;
#TITLETRANSLIT:;
#SUBTITLETRANSLIT:;
#ARTISTTRANSLIT:;
#CREDIT:DukAmok;
#BANNER:TGTMN.png;
#BACKGROUND:TGTMN-bg.png;
#LYRICSPATH:;
#CDTITLE:!duktitle.png;
#MUSIC:TGTMN.mp3;
#OFFSET:1.320;
#SAMPLESTART:37.500;
#SAMPLELENGTH:10.000;
#SELECTABLE:YES;
#BPMS:0.000=186.240;
#STOPS:;
#BGCHANGES:;
// cache tags:
#FIRSTBEAT:4.250;
#LASTBEAT:457.000;
#SONGFILENAME:Songs/Community Keyboard Megapack - Volume 1/(DukAmok) TGTMN/TGTMN.sm;
#HASMUSIC:1;
#HASBANNER:1;
#MUSICLENGTH:146.573;
// end cache tags

//---------------dance-single - Heavy----------------
#NOTES:
     dance-single:
     Heavy:
     Hard:
     10:
     1.000,1.000,0.034,0.068,1.000,1191.000,5.000,10.000,0.000,0.000:
0000
0000
0000
0000
,
0000
2002
0000
0000
0000
0000
0000
0000
0000
0000
0000
0000
0000
0000
0000
0000
,
0000
0000
0000
0000
,
0000
0000
0000
0000
,
0000
0000
0000
0000
3000
0100
0000
0103
,
0010
0000
1000
0000
0100
0000
0010
0001
0100
0001
1000
0000
0010
0100
0001
0010
,
0100
0000
0010
0000
0001
0000
1000
0001
0100
0010
1000
0000
0001
0000
0001
0000
,
0010
0000
0100
0000
1000
0000
0010
1000
0100
0010
0100
0000
0010
0001
1000
0010
,
0100
0000
0100
0000
0010
0000
1000
0001
0010
0000
0001
1000
0100
0000
0010
0001
,
0100
0000
0001
0000
0010
0000
0100
1000
0010
1000
0001
0000
0100
0010
1000
0100
,
0010
0000
0100
0000
1000
0000
0001
1000
0010
0000
0100
0010
1000
0000
1000
0000
,
0100
0000
0010
0000
0001
0000
1000
0100
0010
0100
0010
0000
0010
0001
1000
0010
,
1000
0010
0100
0001
0100
0001
0010
0100
0010
0001
1000
0010
1000
0100
0010
0001
,
0100
0000
0001
0000
0010
0000
0100
1000
0010
1000
0001
0000
0100
0010
1000
0100
,
0010
0000
0100
0000
1000
0000
0001
1000
0010
0000
0100
0001
0010
0000
0010
0000
,
0100
0000
0010
0000
0001
0000
0100
0001
0010
0100
0010
0000
0100
1000
0001
0100
,
0010
0000
0010
0000
0100
0000
0001
1000
0100
0000
1000
0001
0010
0000
0010
0000
,
0001
0000
1000
0000
0100
0000
0010
0001
0100
0001
1000
0000
0010
0100
0001
0010
,
0100
0000
0010
0000
0001
0000
1000
0001
0100
0000
0010
0100
0001
0000
0001
0000
,
0010
0000
0100
0000
1000
0000
0001
0010
0100
0010
0100
0000
0100
1000
0001
0100
,
0001
0100
0010
1000
0010
1000
0100
0010
0100
1000
0001
0100
0001
0010
0100
1000
,
0010
0000
1000
0000
0100
0000
0010
0001
0100
0001
1000
0000
0010
0100
0001
0010
,
0100
0000
0010
0000
0001
0000
1000
0001
0100
0000
0010
1000
0100
0000
0100
0000
,
0010
0000
0100
0000
1000
0000
0010
1000
0100
0010
0100
0000
0010
0001
1000
0010
,
0100
0000
0100
0000
0010
0000
1000
0001
0010
0000
0001
1000
0100
0000
0100
0000
,
1000
0000
0001
0000
0010
0000
0100
1000
0010
1000
0001
0000
0100
0010
1000
0100
,
0010
0000
0100
0000
1000
0000
0001
1000
0010
0000
0100
0010
1000
0000
1000
0000
,
0100
0000
0010
0000
0001
0000
0001
0010
0100
0010
0001
0000
0010
0001
1000
0010
,
0100
0001
0100
0010
1000
0100
0010
0001
0010
0001
1000
0001
1000
0010
0100
0001
,
0010
0000
0000
0000
0002
0003
0000
0000
0000
0000
0000
0000
0001
0000
0000
0000
,
1000
0001
0100
0001
0010
0100
1000
0010
0100
0010
1000
0100
0010
0001
1000
0010
,
0100
0001
0100
0000
0000
0000
0010
1000
0100
0000
0000
0000
0010
0001
0010
0000
,
0100
0010
0001
0000
0000
0000
0010
0100
1000
0000
0000
0000
0010
0100
0001
0000
,
0100
0010
1000
0000
0000
0000
0001
0100
0001
0000
0000
0000
0010
0100
0010
0000
,
0100
1000
0001
0000
0000
0000
1000
0010
0100
0000
0000
0000
0010
0100
0001
0000
,
0100
0010
1000
0000
0000
0000
0100
0010
0001
0000
0000
0000
0010
0001
0010
0000
,
0100
0010
0001
0000
0000
0000
0010
0001
1000
0000
0000
0000
0010
0100
0001
0000
,
1000
0001
1000
0000
0001
0000
0100
0000
0010
0000
1000
0000
0100
0000
0010
0000
,
0202
0000
0000
0303
,
0010
1000
0010
0000
1000
0000
0001
0010
0100
0000
1000
0000
0100
0010
0001
0000
,
0010
0100
1000
0000
0010
0000
0100
0010
0100
0000
0001
0000
0100
0010
1000
0000
,
0010
0100
0001
0000
0010
0000
0100
0010
0001
0000
0100
0000
0010
1000
0100
0000
,
0010
0001
1000
0000
0001
0000
0010
0001
1000
0000
0010
0000
0100
0010
1000
0000
,
0010
0100
0001
0000
1000
0000
0010
0100
0001
0000
0010
0000
0100
1000
0100
0000
,
0010
0100
1000
0000
0001
0000
0100
0010
0100
0000
0001
0000
0010
0100
0010
0000
,
0001
0010
0100
0000
1000
0000
0010
0000
0100
0000
0001
0000
0010
0000
0100
0000
,
2002
0000
0000
3003
,
0001
0010
0100
0000
0010
0000
0001
1000
0010
0000
0100
0001
0010
0100
1000
0000
,
0100
1000
0010
0000
0100
0000
0001
0010
0100
0000
0010
0001
1000
0001
0010
0000
,
0100
0010
0001
0000
1000
0000
0010
0100
0001
0000
0010
0100
0010
0001
1000
0000
,
0010
0100
0010
0000
1000
0000
0001
0010
0100
0000
1000
0010
0100
0010
1000
0000
,
0001
0010
0001
0000
1000
0000
0010
0100
0010
0000
1000
0001
0010
0100
1000
0000
,
0100
0010
0100
0000
0010
0000
0001
1000
0001
0000
0100
0010
0100
0001
0010
0000
,
0100
1000
0010
0000
0100
0000
0001
1000
0010
0000
0100
0001
0010
0100
0010
0000
,
0001
1000
0010
0000
0100
0000
0100
0001
0010
0000
0001
0010
0100
0010
0001
0000
,
1000
0100
0010
0000
0100
0000
1000
0001
0100
0000
0010
1000
0100
0010
0001
0000
,
0010
0001
0100
0000
0010
0000
1000
0100
0010
0000
0100
1000
0001
1000
0100
0000
,
0010
0100
1000
0000
0001
0000
0100
0010
1000
0000
0100
0010
0100
1000
0001
0000
,
0100
0010
0100
0000
0001
0000
1000
0100
0010
0000
0001
0100
0010
0100
0001
0000
,
1000
0100
1000
0000
0001
0000
0100
0010
0100
0000
0001
1000
0100
0010
0001
0000
,
0010
0100
0010
0000
0100
0000
1000
0001
1000
0000
0010
0100
0010
1000
0100
0000
,
0010
0001
0100
0000
0010
0000
1000
0001
0100
0000
0010
1000
0100
0010
0100
0000
,
1000
0001
0100
0010
1000
0001
0010
0001
0010
0100
1000
0100
0010
0001
0100
0010
,
2000
0000
0000
0000
,
0000
0000
0000
0000
0000
0000
0000
3000
,
0001
0000
0010
0000
0100
0000
0010
0000
0001
0000
1000
0010
0000
0100
0001
0000
,
0010
0000
0100
0000
1000
0000
0001
0000
1000
0000
0001
1000
0000
0010
0100
0000
,
0010
0000
1000
0000
0001
0000
0010
0000
0001
0000
0100
0010
0000
0100
0001
0000
,
0010
0000
0100
0000
0010
0000
0001
0000
1000
0000
0010
0100
0000
0100
0001
0000
,
1000
0000
0100
0000
0010
0000
0100
0000
1000
0000
0001
0100
0000
0010
1000
0000
,
0100
0000
0010
0000
0001
0000
1000
0000
0001
0000
1000
0001
0000
0100
0010
0000
,
0100
0000
0001
0000
1000
0000
0100
0000
1000
0000
0010
0100
0000
0010
1000
0000
,
0100
0000
0010
0000
0100
0000
1000
0000
0001
0000
0100
0010
0000
0010
1000
0000
,
0010
0000
1000
0000
0100
0000
0010
0001
0100
0001
1000
0000
0010
0100
0001
0010
,
0100
0000
0010
0000
0001
0000
1000
0001
0100
0000
0010
1000
0100
0000
0100
0000
,
0010
0000
0100
0000
1000
0000
0010
1000
0100
0010
0100
0000
0010
0001
1000
0010
,
0100
0000
0100
0000
0010
0000
1000
0001
0010
0000
0001
1000
0100
0000
0100
0000
,
1000
0000
0001
0000
0010
0000
0100
1000
0010
1000
0001
0000
0100
0010
1000
0100
,
0010
0000
0100
0000
1000
0000
0001
1000
0010
0000
0100
0010
1000
0000
1000
0000
,
0100
0000
0010
0000
0001
0000
1000
0100
0010
0100
0010
0000
0010
0001
1000
0010
,
1000
0010
0100
0001
0100
0001
0010
0100
0010
0001
1000
0010
1000
0100
0010
0001
,
0100
0000
0001
0000
0010
0000
0100
1000
0010
1000
0001
0000
0100
0010
1000
0100
,
0010
0000
0100
0000
1000
0000
0001
1000
0010
0000
0100
0001
0010
0000
0010
0000
,
0100
0000
0010
0000
0001
0000
0100
0001
0010
0100
0010
0000
0100
1000
0001
0100
,
0010
0000
0010
0000
0100
0000
0001
1000
0100
0000
1000
0001
0010
0000
0010
0000
,
0001
0000
1000
0000
0100
0000
0010
0001
0100
0001
1000
0000
0010
0100
0001
0010
,
0100
0000
0010
0000
0001
0000
1000
0001
0100
0000
0010
0100
0001
0000
0001
0000
,
0010
0000
0100
0000
1000
0000
1000
0100
0010
0100
1000
0000
0100
1000
0001
0100
,
0010
1000
0010
0000
0100
0000
0001
0010
0100
0000
1000
0010
0100
0000
0001
0000
,
0010
0000
0001
0000
0010
0000
0100
1000
0010
1000
0001
0000
0100
0010
1000
0100
,
0010
0000
0100
0000
1000
0000
0001
1000
0010
0000
0100
0001
0010
0000
0010
0000
,
0100
0000
0010
0000
0001
0000
0100
0001
0010
0100
0010
0000
0100
1000
0001
0100
,
0010
0000
0010
0000
0100
0000
0001
1000
0100
0000
1000
0001
0010
0000
0010
0000
,
0001
0000
1000
0000
0100
0000
0010
0001
0100
0001
1000
0000
0010
0100
0001
0010
,
0100
0000
0010
0000
0001
0000
1000
0001
0100
0000
0010
0100
0001
0000
0001
0000
,
0010
0000
0100
0000
1000
0000
0001
0010
0100
0010
0100
0000
0100
1000
0001
0100
,
0001
0000
0001
0000
0010
0000
0100
0010
0100
0000
1000
0010
0100
0001
0010
0100
,
1000
0000
0000
0000
0000
0000
0010
0000
1001
0000
0100
0001
0010
0000
0100
0000
,
1000
0100
0010
0000
0100
0000
1000
0001
0100
0000
0010
1000
0100
0010
0001
0000
,
0010
0001
0100
0000
0010
0000
1000
0100
0010
0000
0100
1000
0001
1000
0100
0000
,
0010
0100
1000
0000
0001
0000
0100
0010
1000
0000
0100
0010
0100
1000
0001
0000
,
0100
0010
0100
0000
0001
0000
1000
0100
0010
0000
0001
0100
0010
0100
0001
0000
,
1000
0100
1000
0000
0001
0000
0100
0010
0100
0000
0001
1000
0100
0010
0001
0000
,
0010
0100
0010
0000
0100
0000
1000
0001
1000
0000
0010
0100
0010
1000
0100
0000
,
0010
0001
0100
0000
0010
0000
1000
0001
0100
0000
0010
1000
0100
0010
0100
0000
,
1000
0001
0100
0000
0010
0000
0010
1000
0100
0000
1000
0100
0010
0100
1000
0000
,
0001
0010
0100
0000
0010
0000
0001
1000
0010
0000
0100
0001
0010
0100
1000
0000
,
0100
1000
0010
0000
0100
0000
0001
0010
0100
0000
0010
0001
1000
0001
0010
0000
,
0100
0010
0001
0000
1000
0000
0010
0100
0001
0000
0010
0100
0010
0001
1000
0000
,
0010
0100
0010
0000
1000
0000
0001
0010
0100
0000
1000
0010
0100
0010
1000
0000
,
0001
0010
0001
0000
1000
0000
0010
0100
0010
0000
1000
0001
0010
0100
1000
0000
,
0100
0010
0100
0000
0010
0000
0001
1000
0001
0000
0100
0010
0100
0001
0010
0000
,
0100
1000
0010
0100
0001
0010
0100
1000
0010
0100
0001
0010
0100
1000
0001
0100
,
0010
1000
0010
0000
0100
0000
0001
1000
0100
0000
1000
0100
0010
0001
0100
0000
,
2002
3003
0000
0000
;

//---------------dance-single - Challenge----------------
#NOTES:
     dance-single:
     Challenge:
     Challenge:
     12:
     1.000,1.000,1.000,0.082,1.000,1211.000,342.000,12.000,0.000,0.000:
0000
0000
0000
0000
,
0000
2002
0000
0000
0000
0000
0000
0000
0000
0000
0000
0000
0000
0000
0000
0000
,
0000
0000
0000
0000
,
0000
0000
0000
0000
,
0000
0000
0000
0000
0003
0010
0000
3010
,
0100
0000
0001
0000
0010
0000
0100
1000
0010
1000
0001
0000
0100
0010
1000
0100
,
0010
0000
0100
0000
1000
0000
0001
1000
0010
0100
0001
0000
1000
0000
1000
0000
,
0100
0000
0010
0000
0001
0000
0100
0001
0010
0100
0010
0000
0100
1000
0001
0100
,
0010
0000
0010
0000
0100
0000
0001
1000
0100
0000
1000
0001
0010
0000
0100
1000
,
0010
0000
1000
0000
0100
0000
0010
0001
0100
0001
1000
0000
0010
0100
0001
0010
,
0100
0000
0010
0000
0001
0000
1000
0001
0100
0000
0010
0100
0001
0000
0001
0000
,
0010
0000
0100
0000
1000
0000
0001
0010
0100
0010
0100
0000
0100
1000
0001
0100
,
0001
0100
0010
1000
0010
1000
0100
0010
0100
1000
0001
0100
0001
0010
0100
1000
,
0011
0000
1000
0000
0101
0000
0010
0001
1100
0001
1000
0000
0011
0100
0001
0010
,
1100
0000
0010
0000
0101
0000
1000
0001
0110
0000
0010
1000
0101
0000
0100
0000
,
0011
0000
0100
0000
1001
0000
0010
1000
0101
0010
0100
0000
1010
0001
1000
0010
,
0101
0000
0100
0000
1010
0000
1000
0001
0110
0000
0001
1000
0110
0000
0100
0000
,
1010
0000
0001
0000
1010
0000
0100
1000
0011
1000
0001
0000
0101
0010
1000
0100
,
0011
0000
0100
0000
1010
0000
0001
1000
0011
0000
0100
0010
1100
0000
1000
0000
,
0101
0000
0010
0000
0101
0000
1000
0100
0011
0100
0010
0000
1010
0001
1000
0010
,
1000
0010
0100
0001
0100
0001
0010
0100
0010
0001
1000
0010
1000
0100
0010
0001
,
1100
0000
0001
0000
0110
0000
0100
1000
0011
1000
0001
0000
0101
0010
1000
0100
,
0011
0000
0100
0000
1010
0000
0001
1000
0011
0000
0100
0001
0110
0000
0010
0000
,
1100
0000
0010
0000
0101
0000
0100
0001
1010
0100
0010
0000
0110
1000
0001
0100
,
0011
0000
0010
0000
1100
0000
0001
1000
0110
0000
1000
0001
0110
0000
0010
0000
,
1001
0000
1000
0000
0101
0000
0010
0001
1100
0001
1000
0000
1010
0100
0001
0010
,
0101
0000
0010
0000
0101
0000
1000
0001
0110
0000
0010
0100
1001
0000
0001
0000
,
1010
0000
0100
0000
1001
0000
1000
0100
0011
0100
1000
0000
0110
1000
0001
0100
,
0011
1000
0010
0100
1001
0010
0100
1000
0110
1000
0001
1000
0011
0100
0010
1000
,
0101
0000
0000
0000
2002
3003
0000
0000
0000
0000
0000
0000
1100
0000
0000
0000
,
0001
1000
0010
1000
0100
0010
0001
0100
0010
0100
0001
0010
0101
1000
0011
0100
,
0011
1000
0010
0000
1001
0000
0100
0001
0010
0000
1001
0000
0100
1000
0100
0000
,
0010
0100
1000
0000
1001
0000
0100
0010
0001
0000
1001
0000
0100
0010
1000
0000
,
0010
0100
0001
0000
1001
0000
1000
0010
1000
0000
1001
0000
0100
0010
0100
0000
,
0010
0001
1000
0000
1001
0000
0001
0100
0010
0000
1001
0000
0100
0010
1000
0000
,
0010
0100
0001
0000
1001
0000
0010
0100
1000
0000
1001
0000
0100
1000
0100
0000
,
0010
0100
1000
0000
1001
0000
0100
1000
0001
0000
1001
0000
0100
0010
1000
0000
,
0001
1000
0001
0000
1000
0000
0010
0000
0100
0000
0001
0000
0010
0000
0100
0000
,
2020
0000
0000
3030
,
0100
0001
0100
0000
0011
0000
1000
0100
0010
0000
1001
0000
0010
0100
1000
0000
,
0100
0010
0001
0000
1100
0000
0010
0100
0010
0000
1010
0000
0010
0100
0001
0000
,
0100
0010
1000
0000
0101
0000
0010
0100
1000
0000
0110
0000
0100
0001
0010
0000
,
0100
1000
0001
0000
1100
0000
0100
1000
0001
0000
1100
0000
0010
0100
0001
0000
,
0100
0010
1000
0000
0011
0000
0100
0010
1000
0000
0101
0000
0010
0001
0010
0000
,
0100
0010
0001
0000
1010
0000
0010
0100
0010
0000
1001
0000
0100
0010
0100
0000
,
1000
0100
0010
0000
1001
0000
0101
0000
0110
0000
1010
0000
1100
0000
0110
0000
,
2002
0000
0000
3003
,
1001
0100
0010
0000
0101
0000
1000
0001
1100
0000
0010
1000
0101
0010
0001
0000
,
1010
0001
0100
0000
0011
0000
1000
0100
0011
0000
0100
1000
0011
1000
0100
0000
,
0011
0100
1000
0000
0011
0000
0100
0010
1001
0000
0100
0010
0101
1000
0001
0000
,
1100
0010
0100
0000
0011
0000
1000
0100
1010
0000
0001
0100
1010
0100
0001
0000
,
1010
0100
1000
0000
0011
0000
0100
0010
1100
0000
0001
1000
0101
0010
0001
0000
,
1010
0100
0010
0000
0101
0000
1000
0001
1010
0000
0010
0100
0011
1000
0100
0000
,
1010
0001
0100
0000
0110
0000
1000
0001
0110
0000
0010
1000
0101
0010
0100
0000
,
1010
0001
0100
0000
1010
0000
0010
1000
0101
0000
1000
0100
0011
0100
1000
0000
,
0101
0010
0100
0000
1010
0000
0001
1000
0110
0000
0100
0001
1010
0100
1000
0000
,
0101
1000
0010
0000
1100
0000
0001
0010
1100
0000
0010
0001
1100
0001
0010
0000
,
0101
0010
0001
0000
1001
0000
0010
0100
1001
0000
0010
0100
1010
0001
1000
0000
,
0011
0100
0010
0000
1100
0000
0001
0010
0101
0000
1000
0010
0101
0010
1000
0000
,
0101
0010
0001
0000
1010
0000
0010
0100
0011
0000
1000
0001
1010
0100
1000
0000
,
0101
0010
0100
0000
1010
0000
0001
1000
0011
0000
0100
0010
1100
0001
0010
0000
,
0101
1000
0010
0000
0110
0000
0001
1000
0110
0000
0100
0001
1010
0100
0010
0000
,
0011
1000
0010
0100
0001
1000
0100
1000
0100
0010
0001
0010
0100
1000
0010
0100
,
2002
0000
0000
0000
,
0000
0000
0000
0000
0000
0000
0000
3003
,
1010
0000
0100
0000
0010
0000
0100
0000
1010
0000
0001
1100
0000
0010
1001
0000
,
0100
0000
0010
0000
0001
0000
1000
0000
0101
0000
1000
0011
0000
0100
1010
0000
,
0100
0000
0001
0000
1000
0000
0100
0000
1001
0000
0010
0101
0000
0010
1001
0000
,
0100
0000
0010
0000
0100
0000
1000
0000
0011
0000
0100
1010
0000
0010
1100
0000
,
0001
0000
0010
0000
0100
0000
0010
0000
0101
0000
1000
0011
0000
0100
1001
0000
,
0010
0000
0100
0000
1000
0000
0001
0000
0110
0000
0001
1010
0000
0010
0101
0000
,
0010
0000
1000
0000
0001
0000
0010
0000
0101
0000
0100
1010
0000
0100
1001
0000
,
0010
0000
0100
0000
0010
0000
0001
0000
1001
0000
0010
1100
0000
0100
0011
0000
,
1100
0000
0001
0000
0011
0000
0100
1000
0011
1000
0001
0000
1100
0010
1000
0100
,
0011
0000
0100
0000
1010
0000
0001
1000
0011
0000
0100
0001
1010
0000
0010
0000
,
0101
0000
0010
0000
0101
0000
0100
0001
1010
0100
0010
0000
0101
1000
0001
0100
,
1010
0000
0010
0000
0110
0000
0001
1000
0101
0000
1000
0001
0110
0000
0010
0000
,
0101
0000
1000
0000
0101
0000
0010
0001
1100
0001
1000
0000
0011
0100
0001
0010
,
1100
0000
0010
0000
0101
0000
1000
0001
1100
0000
0010
0100
1001
0000
0001
0000
,
0011
0000
0100
0000
1100
0000
0001
0010
1100
0010
0100
0000
0100
1000
0001
0100
,
0001
0100
0010
1000
0010
1000
0100
0010
0100
1000
0001
0100
0001
0010
0100
1000
,
0011
0000
1000
0000
0101
0000
0010
0001
1100
0001
1000
0000
0011
0100
0001
0010
,
1100
0000
0010
0000
0101
0000
1000
0001
0110
0000
0010
1000
0101
0000
0100
0000
,
0011
0000
0100
0000
1010
0000
0010
1000
0101
0010
0100
0000
1010
0001
1000
0010
,
0101
0000
0100
0000
0110
0000
1000
0001
0110
0000
0001
1000
0110
0000
0100
0000
,
1001
0000
0001
0000
0110
0000
0100
1000
0011
1000
0001
0000
1100
0010
1000
0100
,
0011
0000
0100
0000
1010
0000
0001
1000
0110
0000
0100
0010
1001
0000
1000
0000
,
1100
0000
0010
0000
0011
0000
0001
0010
1100
0010
0001
0000
0110
0001
1000
0010
,
1100
0001
0100
0000
0011
0000
1000
0100
0011
0000
0001
0100
0011
0000
1000
0000
,
0110
0000
1000
0000
0101
0000
0010
0001
1100
0001
1000
0000
0011
0100
0001
0010
,
0101
0000
0010
0000
1001
0000
1000
0001
0110
0000
0010
1000
0101
0000
0100
0000
,
1010
0000
0100
0000
1001
0000
0010
1000
0101
0010
0100
0000
1010
0001
1000
0010
,
0101
0000
0100
0000
1010
0000
1000
0001
0110
0000
0001
1000
0101
0000
0100
0000
,
1010
0000
0001
0000
1010
0000
0100
1000
0011
1000
0001
0000
1100
0010
1000
0100
,
1001
0000
0100
0000
1010
0000
0001
1000
0110
0000
0100
0010
1001
0000
1000
0000
,
0101
0000
0010
0000
0101
0000
1000
0100
0011
0100
0010
0000
1010
0001
1000
0010
,
1100
0000
1000
0000
0101
0000
0010
0100
1010
0000
0001
0100
0011
1000
0100
0010
,
0101
0000
0000
0000
0000
0000
0100
0000
1001
0000
0010
1000
0100
0000
0010
0000
,
1001
0010
0100
0000
1010
0000
0001
1000
0011
0000
0100
0001
1010
0100
1000
0000
,
0101
1000
0010
0000
1100
0000
0001
0010
0101
0000
0010
0001
1100
0001
0010
0000
,
0101
0010
0001
0000
1010
0000
0010
0100
1001
0000
0010
0100
1010
0001
1000
0000
,
0011
0100
0010
0000
1100
0000
0001
0010
0101
0000
1000
0010
0101
0010
1000
0000
,
0101
0010
0001
0000
1010
0000
0010
0100
1010
0000
1000
0001
1010
0100
1000
0000
,
0101
0010
0100
0000
0110
0000
0001
1000
0011
0000
0100
0010
1100
0001
0010
0000
,
0101
1000
0010
0000
0101
0000
0001
1000
0110
0000
0100
0001
1010
0100
0010
0000
,
0011
1000
0010
0000
0101
0000
0100
0001
1010
0000
0001
0010
1100
0010
0001
0000
,
1001
0100
0010
0000
0110
0000
1000
0001
1100
0000
0010
1000
0101
0010
0001
0000
,
1010
0001
0100
0000
0011
0000
1000
0100
0011
0000
0100
1000
0011
1000
0100
0000
,
0011
0100
1000
0000
0011
0000
0100
0010
1001
0000
0100
0010
0101
1000
0001
0000
,
1100
0010
0100
0000
0011
0000
1000
0100
0011
0000
0001
0100
1010
0100
0001
0000
,
1001
0100
1000
0000
0011
0000
0100
0010
1100
0000
0001
1000
0101
0010
0001
0000
,
1010
0100
0010
0000
0101
0000
1000
0001
1010
0000
0010
0100
0011
1000
0100
0000
,
1010
0000
0001
0000
0100
0000
0010
0000
1001
0000
0100
0000
0010
0000
0001
0000
1000
0001
1000
0001
1000
0001
1000
0001
1000
0001
1000
0001
1000
0001
1000
0001
,
0110
0001
0100
0000
1010
0000
1000
0001
0110
0000
0001
0010
0101
1000
0010
0000
,
2002
3003
0000
0000
;
