#TITLE:JOINT;
#SUBTITLE:Shakugan no Shana 2nd OP theme;
#ARTIST:Kawada Mami;
#TITLETRANSLIT:;
#SUBTITLETRANSLIT:;
#ARTISTTRANSLIT:;
#CREDIT:ALICE_;
#BANNER:JOINT.png;
#BACKGROUND:JOINT.jpg;
#LYRICSPATH:;
#CDTITLE:cdtitle.png;
#MUSIC:JOINT.mp3;
#OFFSET:0.267;
#SAMPLESTART:67.480;
#SAMPLELENGTH:12.000;
#SELECTABLE:YES;
#BPMS:0.000=180.000,273.000=179.920;
#STOPS:273.000=0.005
;
#BGCHANGES:4.000=JOINT.avi=1.000=1=0=1,
99999=-nosongbg-=1.000=0=0=0 // don't automatically add -songbackground-
;
// cache tags:
#FIRSTBEAT:4.000;
#LASTBEAT:284.000;
#SONGFILENAME:Songs/alice 4th complete step/JOINT/JOINT.sm;
#HASMUSIC:1;
#HASBANNER:1;
#MUSICLENGTH:98.489;
// end cache tags

//---------------dance-single - ----------------
#NOTES:
     dance-single:
     :
     Hard:
     9:
     0.660,0.608,0.223,0.284,0.000,405.000,22.000,28.000,0.000,0.000:
0000
0000
0000
0000
,
0000
0000
0000
0000
,
0000
0000
0000
0000
,
1001
0000
0000
0000
,
0000
0000
0000
0000
,
0001
1000
1001
0000
0000
0000
0000
0000
,
0000
0000
0000
0000
,
0000
0000
0000
0000
,
0000
0000
0000
0000
0100
0010
0100
0010
,
1001
0000
0100
1000
0010
1000
0010
1000
,
0001
1000
0001
1000
0010
0100
0001
1000
,
0001
0100
0001
0100
0010
0100
0010
0100
,
0010
1000
0010
1000
0001
1000
0100
0010
,
1001
0000
0100
1000
0010
0100
0010
0100
,
0001
1000
0001
1000
0100
1000
0010
0100
,
0001
0000
0010
0001
0100
0010
1000
1001
,
0000
0100
0010
1000
0001
0001
1000
0010
,
0200
0001
0001
0001
0001
0001
0001
0001
,
0001
0001
0301
1000
0010
0100
0001
1000
,
0002
0100
0100
0100
0100
0100
0100
0100
,
0100
0100
0103
0001
0010
0001
1000
0010
,
2000
0100
0100
0100
0100
0100
0100
0100
,
0100
0100
3100
0010
0001
1000
0100
0010
,
0002
1000
1000
1000
1000
1000
1000
1000
,
1000
1000
1003
0010
0100
0010
1000
0001
,
0100
0000
1001
0000
0100
1000
0010
0100
,
0000
0001
0010
0000
1000
0100
1000
0020
,
0000
0030
1001
0000
0100
0001
0010
0001
,
0000
1000
0010
0000
0100
0001
0100
0020
,
0000
0030
1001
0000
1000
0100
0010
0100
,
0000
1000
0010
0000
0001
0010
0100
0000
,
0001
0010
0001
1000
0001
0010
0001
1000
,
0001
0010
0001
1000
0010
0100
0001
0001
,
1000
1000
0200
0300
1000
0010
0100
0010
,
0000
1000
0001
0000
0010
0001
0100
0002
,
0003
1000
0100
1000
0010
0100
0001
1000
,
0100
0001
0100
0001
0100
1000
0010
0200
,
0300
0001
0010
0000
0100
1000
0010
0100
,
0100
0000
1001
0000
0001
0100
1000
0000
,
1000
0100
0001
1000
0100
1000
0001
0010
,
1000
0001
0100
0001
1000
0010
0001
0100
,
0010
0000
0110
0000
1000
0010
0100
0001
,
0000
1000
0100
0000
0001
0100
1000
0000
,
0010
0000
0110
0000
0001
0010
0100
1000
,
0000
0001
0100
0000
1000
0100
0001
0010
,
0100
0000
1001
0000
1000
0100
0010
0001
,
0000
1000
0010
0000
0001
0010
0100
0001
,
0020
0130
2000
3010
,
0200
0301
2000
3010
,
0100
0001
1000
0001
0000
1000
0001
0100
,
0000
0000
0000
0000
0000
0000
0000
0120
,
0000
1030
0100
0010
0001
0100
0010
0210
,
0000
0310
1000
0100
0010
0001
0100
2001
,
0000
3010
0100
0001
0010
0100
1000
0002
,
0000
0103
0010
1000
0100
0010
0001
1001
,
0000
0100
0010
0100
0001
1000
0100
2100
,
0000
3010
0100
0010
1000
0001
0010
0021
,
0000
0130
1000
0001
0100
1000
0100
0001
,
0000
0010
0100
1000
0001
0010
0001
0102
,
0000
1003
0100
0010
0001
0100
1000
0200
,
0000
0310
1000
0001
0010
0001
0100
0020
,
0000
1030
0001
0100
0001
0010
0100
2000
,
0000
3001
0010
0001
0100
0010
1000
0010
,
0000
0100
1001
0000
0001
0010
0001
0100
,
0000
0100
1010
0000
1000
0010
1000
0001
,
0000
0100
1000
0100
0010
0100
0001
2000
,
0000
3000
0002
0000
0023
0000
0130
0001
,
0100
0100
0000
1000
1000
0000
0001
0001
,
0000
0100
0100
0000
0000
0010
0100
0000
,
2002
0000
0000
0000
,
0000
0000
3003
0000
;

//---------------dance-single - ----------------
#NOTES:
     dance-single:
     :
     Medium:
     7:
     0.511,0.537,0.345,0.294,0.000,289.000,34.000,29.000,0.000,0.000:
0000
0000
0000
0000
,
0000
0000
0000
0000
,
0000
0000
0000
0000
,
1001
0000
0000
0000
,
0000
0000
0000
0000
,
1000
0001
1000
0000
0000
0000
0000
0000
,
0000
0000
0000
0000
,
0000
0000
0000
0000
,
0000
0000
1100
0101
,
1001
0100
1000
0010
,
0100
0000
0001
0000
0010
0000
0001
1000
,
0100
1001
0101
0010
,
0100
0000
1000
0000
0001
0000
0100
0010
,
1000
0101
1100
0110
,
1000
0000
0001
0000
0010
0000
0001
0100
,
1000
0110
0101
1001
,
0100
0010
0100
1000
0001
0010
0100
1000
,
0020
0000
0100
0000
0000
0000
0100
0100
,
0000
0030
0100
0001
1000
0001
0010
0000
,
0002
0000
0100
0000
0000
0000
0100
0100
,
0000
0003
0010
0001
1000
0010
0100
0000
,
2001
0000
0100
0000
0000
0000
0100
0100
,
0000
3000
0100
1000
0001
0100
1000
0100
,
0020
0000
0100
0000
0001
0000
0100
0130
,
0000
1000
0001
0100
0001
0010
1000
0010
,
0001
1000
0100
1000
,
0010
0000
1000
0000
0001
0100
0010
2000
,
0000
3000
0001
0000
0100
0000
0001
0000
,
0010
0000
0001
0000
1000
0010
0100
0002
,
0000
0003
1100
0000
1000
0000
0001
0000
,
0100
0010
1000
0001
,
1000
0100
1000
0100
0010
0100
1000
0100
,
0010
0001
0010
0001
0100
0001
0010
0001
,
1000
0101
0001
1100
,
1000
0000
0011
0000
0001
0100
0010
2000
,
0000
3000
1100
0000
0001
0000
0011
0000
,
1000
0000
1010
0000
0100
0001
1000
0010
,
0000
0110
0001
1001
,
0100
0110
1000
1001
,
0100
1000
0010
0000
0100
0001
0010
0000
,
0100
1000
0010
1000
0001
0100
1000
0100
,
0010
0000
0220
0000
0000
0000
0000
0330
,
1000
0001
0100
0010
,
1000
0000
2002
0000
0000
0000
0000
3003
,
0010
0100
0001
1000
,
0100
0000
0220
0000
0000
0000
0000
0330
,
0100
0000
0010
0000
0001
1000
0100
0000
,
2010
0000
3002
0000
,
0203
0000
0000
0000
2300
0000
0000
3000
,
0100
0001
0010
1000
0000
0010
0001
0100
,
0000
0000
0110
0000
1000
0001
1000
0002
,
0000
0000
1003
0000
0010
0010
1000
0200
,
0000
0000
0310
0000
0001
0001
1000
0020
,
0000
0000
0130
0000
0001
1000
0100
0010
,
0000
0000
1001
0000
0100
0010
0100
0020
,
0000
0000
0030
0000
1000
0100
1000
0200
,
0000
0000
0300
0000
1000
0001
1000
0001
,
0000
0100
0010
1000
0001
0000
0100
0000
,
1000
0000
0001
0000
0100
0000
1000
0020
,
0000
0000
0130
0000
0001
0001
1000
0002
,
0000
0000
0013
0000
0100
0100
1000
0020
,
0000
0000
0130
0000
1000
0001
0100
0010
,
0000
0000
1001
0000
0001
0100
0001
0200
,
0000
0300
0000
0000
1000
0010
1000
0020
,
0000
0030
0000
0000
0100
0001
1000
0001
,
0000
1000
0100
1000
0010
0100
0010
1000
,
0000
0101
1100
0011
,
0100
0010
0000
0100
0010
0000
0100
0010
,
0000
0100
0010
0000
0000
1000
0002
0000
,
0203
0000
0000
0000
,
0000
0000
0300
0000
;

//---------------dance-single - ----------------
#NOTES:
     dance-single:
     :
     Challenge:
     15:
     1.000,1.000,1.000,1.000,0.289,543.000,230.000,173.000,0.000,67.000:
0000
0000
0000
0000
,
2000
3200
0320
0000
0032
0203
2300
3020
,
0000
0000
0230
0302
2003
3020
2030
3200
,
1321
0230
0320
0000
0032
0203
2300
3002
,
0000
0000
0203
0320
2030
3020
0230
0000
,
1321
0030
1201
0300
1021
0000
0000
0000
0230
0000
2300
0000
3020
0000
0032
0000
,
0000
0000
0203
2300
3020
0230
2300
3020
,
0032
0203
0320
0030
0200
2300
3020
0232
,
0300
0200
2300
3023
1131
0010
1101
0010
,
1001
0100
1001
0100
1001
0010
1001
0010
,
1010
0000
0100
0000
1010
0000
0100
0000
1010
0000
0100
0100
1001
0000
1010
0000
,
0011
0100
0011
0100
0011
1000
0011
1000
,
1010
0000
0100
0100
1010
0000
1100
0000
0011
0000
0100
0000
1011
0000
1001
0000
,
1101
0100
1001
0100
1001
0010
1001
0010
,
1010
0000
0100
0000
1010
0000
0100
0000
1010
0000
0100
0100
1001
0000
1010
0000
,
0011
0100
0011
0100
0011
1000
0011
2002
,
0000
0000
0100
0000
0100
0003
3100
0000
0011
0000
1011
0000
0111
0000
0111
0000
,
2001
0010
0001
0010
0001
0010
0001
0010
0001
0010
0001
0010
0001
0010
0001
0010
,
0001
0010
0001
0010
3001
0010
0200
0300
2010
3000
0002
0003
1200
0300
0020
0030
,
1002
0100
1000
0100
1000
0100
1000
0100
1000
0100
1000
0100
1000
0100
1000
0100
,
1000
0100
1000
0100
1003
0100
0020
0030
0102
0003
2000
3000
0021
0030
0200
0300
,
1002
0010
1000
0010
1000
0010
1000
0010
1000
0010
1000
0010
1000
0010
1000
0010
,
1000
0010
1000
0010
1000
0013
0200
0300
2001
3000
0200
0300
1002
0003
0020
0030
,
2001
0100
0001
0100
0001
0100
0001
0100
0001
0100
0001
0100
0001
0100
0001
0100
,
0001
0100
0001
0100
3001
0100
0020
0030
2100
3000
0002
0003
0210
0300
2000
3000
,
0011
0000
0101
1000
0011
0010
0101
1010
,
0100
0010
1001
0100
1010
1010
0001
0220
,
0000
1330
0011
1000
0101
0101
1010
0100
,
0001
0010
1100
0001
1000
1000
0011
0220
,
0000
0331
1100
0001
1010
1010
1001
0100
,
0001
1100
0011
0000
0110
0010
1001
0100
,
2010
0000
3001
0000
0101
1000
0010
0000
1010
0100
0001
0000
0101
1000
0010
0000
,
1010
0100
0001
0000
0101
1000
0010
0000
0110
0000
1001
0000
1001
0000
0110
0000
,
1100
1000
2020
3030
1100
1000
0101
1100
,
1000
0010
1001
0010
0101
0101
1000
0022
,
0000
0133
1010
0100
1001
1001
1010
0100
,
0020
0100
1031
0010
1100
1100
0011
2200
,
0000
3310
1001
0010
0101
0001
1010
0001
,
0102
1000
1103
0010
1001
1001
0110
1000
,
0102
1023
0230
0320
0231
2300
3102
0023
,
1230
0000
0321
0000
0230
0000
2300
0000
3012
0000
2203
0000
0302
0000
0023
3030
,
2222
3333
0000
0000
0000
0000
0000
0000
0000
0000
0000
0000
0000
0000
0000
0000
2222
3333
0000
0000
0000
0000
0000
0000
0000
0000
0000
0000
0000
0000
0000
0000
1000
0000
0000
0000
0000
0000
0000
0000
0100
0000
0000
0000
0000
0000
0000
0000
0010
0000
0000
0000
0000
0000
0000
0000
0002
0000
0000
0000
0000
0000
0000
0000
,
0000
0103
2010
0000
0100
0011
3100
0000
,
2222
3333
0000
0000
0000
0000
0000
0000
0000
0000
0000
0000
0000
0000
0000
0000
2222
3333
0000
0000
0000
0000
0000
0000
0000
0000
0000
0000
0000
0000
0000
0000
0001
0000
0000
0000
0000
0000
0000
0000
0010
0000
0000
0000
0000
0000
0000
0000
0100
0000
0000
0000
0000
0000
0000
0000
2000
0000
0000
0000
0000
0000
0000
0000
,
0000
3010
0102
0000
1003
0110
0110
0110
,
2222
3333
0000
0000
0000
0000
0000
0000
0000
0000
0000
0000
0000
0000
0000
0000
2222
3333
0000
0000
0000
0000
0000
0000
0000
0000
0000
0000
0000
0000
0000
0000
1010
0000
0000
0000
0000
0000
0000
0000
0110
0000
0000
0000
0000
0000
0000
0000
0100
0000
0000
0000
0000
0000
0000
0000
0012
0000
0000
0000
0000
0000
0000
0000
,
0000
0000
0100
0000
1000
0000
0100
0003
0110
0000
1001
0000
0011
0000
0100
0000
,
1010
1010
1002
0103
0101
0101
2001
3010
,
0100
0110
1001
0010
0101
0101
1010
0100
,
2001
3000
0201
0300
0021
0030
1002
0000
0000
0000
0203
0000
0321
0030
2000
0000
,
0020
0000
0031
0110
0001
0101
3101
1002
,
0000
0100
1010
0103
1001
1010
0001
0201
,
0000
0010
1001
0310
1100
1001
0010
2001
,
0000
0010
0101
3010
1100
0110
1000
0021
,
0000
0000
1000
0000
0131
0000
1000
0010
0100
0000
0110
0000
1001
0000
2112
0000
,
0000
0100
3013
0100
1010
1010
0001
2100
,
0000
0010
0001
3010
0101
0101
1000
0012
,
0000
0100
1010
0103
1001
0001
0010
2002
,
0000
0000
3103
0000
0011
0000
0010
1000
0100
0000
1010
0000
1010
0000
1001
0000
,
0110
0000
2112
0000
0100
3103
0011
1000
,
0100
0000
0010
0000
1001
0000
0010
0000
0100
0000
0012
0003
2010
3000
0022
0000
,
0000
0030
0100
0000
1010
0000
0000
0000
0100
0000
0103
0000
1010
0000
2001
0000
,
0000
0000
0010
0000
0101
0000
3000
0001
0110
0000
0011
0000
1100
0000
0022
0000
,
0000
0133
1001
1000
0101
0100
1001
0020
,
0000
0030
0110
0000
2002
0000
0000
0000
3103
0000
0100
0000
1010
0000
0102
0000
,
0000
1000
0110
1003
0010
0010
0101
2121
,
0000
0000
3130
0000
1001
0000
0010
1001
0100
0000
0110
0000
1001
0000
0010
0000
,
1100
0111
0000
1100
0111
0000
1010
0111
,
0000
0000
1010
0000
0111
0000
0000
0000
0000
0000
0010
0010
2002
0000
3003
0000
,
2120
0000
0000
0000
,
0000
0000
0000
0000
,
3030
0000
0000
0000
;

//---------------dance-single - ----------------
#NOTES:
     dance-single:
     :
     Easy:
     5:
     0.350,0.385,0.122,0.091,0.000,220.000,12.000,9.000,0.000,0.000:
0000
0000
0000
0000
,
0000
0000
0000
0000
,
0000
0000
0000
0000
,
1001
0000
0000
0000
,
0000
0000
0000
0000
,
1000
1000
0000
0000
,
0000
0000
0000
0000
,
0000
0000
0000
0000
,
0000
0000
0100
0100
,
0001
0001
0010
0010
,
0100
0100
1000
1000
,
0010
0010
0100
0100
,
0001
0001
1000
1000
,
0100
0100
1000
1000
,
0010
0010
0100
0100
,
0001
0001
0010
0010
,
0000
0001
1000
0001
,
1000
0100
0010
0001
,
1000
0010
0100
0001
,
1000
0010
0100
0001
,
1000
0100
0010
0001
,
0001
0100
0010
1000
,
0001
0010
0100
1000
,
0001
0010
0100
1000
,
0001
0100
0010
1000
,
0001
0101
0001
1000
,
0100
1000
0001
0010
,
1000
1100
1000
0001
,
0100
0001
1000
0010
,
0100
0101
1000
0010
,
1000
0001
0100
0010
,
1000
1000
0001
0001
,
0100
1000
0100
0001
,
0010
0100
0000
1000
,
0000
0001
0000
0100
,
0010
1000
0000
0001
,
0000
1000
0000
0010
,
0100
0001
0000
1000
,
0000
0010
0000
0100
,
0001
0010
1000
0100
,
0001
0100
1000
0010
,
1001
1001
0100
0010
,
0100
0001
1000
0000
,
1001
1001
0010
0100
,
0010
2000
0000
3000
,
1001
1001
0100
0010
,
0100
0001
1000
0010
,
0200
0300
0002
0003
,
2000
3000
0020
0030
,
0100
0001
0100
0001
,
1000
0000
0000
0000
,
0010
0100
0001
1000
,
0010
0001
0010
1000
,
0100
0010
0001
0100
,
1000
0100
0001
0010
,
0100
0000
1000
0001
,
0010
0000
0100
1000
,
0001
0010
0100
0010
,
0001
0100
0010
0100
,
1001
1000
0100
0010
,
0001
1000
0100
1000
,
0010
0100
0001
0010
,
1000
0001
0100
1000
,
0010
0000
1000
0001
,
0010
0000
0001
1000
,
0010
0100
0010
0100
,
0001
1000
0010
0100
,
0002
0003
0000
2000
3000
0000
0002
0003
,
0000
2000
3000
0000
0000
0010
0100
0000
,
1001
0000
0000
0000
;
