#TITLE:Arch0wl;
#SUBTITLE:;
#ARTIST:DJ Silk Drop Mooney;
#TITLETRANSLIT:;
#SUBTITLETRANSLIT:;
#ARTISTTRANSLIT:;
#CREDIT:;
#BANNER:../fthescorept1bn.png;
#BACKGROUND:../fthescorept1bg.png;
#LYRICSPATH:;
#CDTITLE:;
#MUSIC:arch0wlhardmix.ogg;
#OFFSET:-0.018;
#SAMPLESTART:29.160;
#SAMPLELENGTH:13.640;
#SELECTABLE:YES;
#BPMS:0.000=140.000;
#STOPS:;
#BGCHANGES:;
// cache tags:
#FIRSTBEAT:4.000;
#LASTBEAT:265.750;
#SONGFILENAME:Songs/Fuck The Score Part I/Arch0wl [Dossar]/arch0wlhardmix.sm;
#HASMUSIC:1;
#HASBANNER:1;
#MUSICLENGTH:116.610;
// end cache tags

//---------------dance-single - ----------------
#NOTES:
     dance-single:
     :
     Challenge:
     17:
     1.000,1.000,0.009,0.034,1.000,813.000,1.000,4.000,0.000,0.000:
0000
0000
0000
0000
,
0001
0000
1000
0000
0000
0000
0010
0000
0000
0000
0100
0000
0000
0001
0000
0000
,
0010
0000
0100
0000
0000
0000
1000
0000
0000
0000
0001
0000
0000
1000
0000
0000
,
0100
0000
0010
0000
0000
0000
0001
0000
0000
0000
1000
0000
0000
0010
0000
0000
,
0100
0000
0001
0000
0000
0000
0010
0000
0000
0000
0100
0000
0000
1000
0000
0000
,
0001
0000
0000
0000
0000
0000
0000
0000
0000
0000
0000
0000
0000
0000
0000
0000
1000
0000
0000
0000
0000
0000
0000
0000
0000
0000
0000
0000
0000
0000
0000
0000
0001
0000
0000
0000
0000
0000
0000
0000
0000
0000
0000
0000
0000
0000
0000
0000
0000
0000
0000
0000
0000
0000
0000
0000
1000
0000
0000
0000
0000
0000
0000
0000
0000
0000
0000
0000
0010
0000
0000
0000
0000
0000
0000
0000
0000
0000
0000
0000
1000
0000
0000
0000
0000
0000
0000
0000
0000
0000
0000
0000
0000
0000
0000
0000
0000
0000
0000
0000
0000
0000
0000
0000
0000
0000
0000
0000
0001
0000
0000
0000
0000
0000
0000
0000
0000
0000
0000
0000
0000
0000
0000
0000
0000
0000
0000
0000
0000
0000
0000
0000
0001
0000
0000
0000
0000
0000
0100
0000
0000
0000
0000
0000
0010
0000
0000
0000
0000
0000
1000
0000
0000
0000
0000
0000
0100
0000
0000
0000
0000
0000
0010
0000
0000
0000
0000
0000
0001
0000
0000
0000
0000
0000
0100
0000
0000
0000
0000
0000
0010
0000
0000
0000
0000
0000
1000
0000
0000
0000
0000
0000
,
0001
0000
0001
0000
0001
0000
0001
0100
0000
0000
0100
0000
0000
0000
0100
0000
,
0001
0000
0001
0000
0001
0000
0001
0010
0000
0000
0010
0000
0000
0000
0010
0000
,
0100
0000
0100
0000
0100
0000
0100
1000
0000
0000
1000
0000
0000
0000
1000
0000
,
0010
0000
0010
0000
0010
0000
0010
0100
0000
0000
0100
0000
0010
1000
0100
0010
,
0001
0000
0001
0000
0001
0000
0001
0010
0000
0000
0010
0000
0000
0000
0010
0000
,
0100
0000
0100
0000
0100
0000
0100
1000
0000
0000
1000
0000
0000
0000
1000
0000
,
0010
0000
0010
0000
0010
0000
0010
0100
0000
0000
0100
0000
0000
0000
0100
0000
,
0001
0010
0100
1000
0010
0100
0001
0010
0100
1000
0010
0100
0001
0000
0010
0000
,
0100
0000
0000
0000
1000
0000
0000
0000
0100
0000
0000
0000
1000
0000
0100
0000
1000
0000
0001
0010
0001
1000
0100
0010
0001
0000
0000
0000
0010
0000
0000
0000
,
0100
0000
1000
0000
0001
1000
0000
0001
0000
0000
0000
0000
2000
0000
0000
3000
,
0001
0100
0010
1000
0100
0010
0001
1000
0010
1000
0001
0010
0100
1000
0001
0100
0010
1000
0100
0010
0001
0100
0010
1000
0001
0000
0000
0000
2000
0000
3000
0000
,
0010
0000
0000
0000
0000
0000
0000
0000
0100
0000
0001
0000
0010
0000
0100
0000
1000
0000
0000
0000
0000
0000
0000
0000
0001
0010
0100
1000
0010
0100
0001
0010
,
0100
0000
0000
0000
0000
0000
0000
0000
1000
0000
0010
0000
0100
0000
0001
0000
0010
0000
0000
0000
0000
0000
0000
0000
0100
1000
0010
0100
0001
0010
0100
1000
,
0001
0000
0000
0000
0000
0000
0000
0000
0100
0000
0010
0000
1000
0000
0100
0000
0010
0000
0000
0000
0000
0000
0000
0000
0001
0100
0010
1000
0100
1000
0010
0100
,
0001
0000
0000
0000
0000
0000
0000
0000
1000
0000
0010
0000
0100
0000
0001
0000
0010
0000
0000
0000
0000
0000
0000
0000
0001
0010
0100
1000
0010
0100
0001
0100
,
0010
0000
0000
0000
0000
0000
0000
0000
0100
0000
0001
0000
0010
0000
0100
0000
1000
0000
0000
0000
0000
0000
0000
0000
0001
0100
0010
1000
0100
0010
0001
0100
,
0010
0000
0000
0000
0000
0000
0000
0000
0100
0000
0010
0000
1000
0000
0001
0000
0010
0000
0000
0000
0000
0000
0000
0000
0001
0010
0100
1000
0010
1000
0100
0010
,
0001
0000
0000
0000
0000
0000
0000
0000
0100
0000
0001
0000
1000
0000
0100
0000
0010
0000
0000
0000
0000
0000
0000
0000
0100
1000
0010
0100
0001
0010
0100
0010
,
0001
0000
0000
0000
1000
0010
0100
0001
0010
0000
0000
0010
0002
0000
0000
0003
,
1000
0010
0100
0001
0010
0100
1000
0010
1000
0001
0100
0010
1000
0100
0010
0001
1000
0001
0100
0010
1000
0100
0010
0001
1000
0000
0000
0000
0002
0000
0003
0000
,
1000
1000
0100
0100
0010
0010
0001
0001
,
1000
0100
0010
0001
1000
0100
0010
0001
1000
0010
0100
0001
1000
0010
0100
0001
,
1000
0010
1000
0100
1000
0001
0100
0010
1000
0100
0010
0001
0100
0001
1000
0100
0010
0001
0100
0010
1000
0100
1000
0010
0100
0001
0010
0001
0100
0001
0010
0100
,
1000
0000
0000
0000
,
0000
0000
0000
0000
,
0000
0000
0000
0000
,
1000
0010
0100
0001
0010
0100
0010
0001
0100
0010
1000
0100
0010
0100
1000
0010
,
1000
0010
0100
0001
0010
0100
0010
0001
0100
0010
1000
0100
0010
0100
1000
0010
,
1000
0010
0100
0001
0010
0100
0010
0001
0100
0010
1000
0100
0010
0100
1000
0010
,
1000
0010
0100
0001
0010
0100
0010
0001
0100
0010
1000
0100
0010
0100
1000
0010
,
1000
0010
0100
0001
0010
0100
0010
0001
0100
0010
1000
0100
0010
0100
1000
0010
,
1000
0010
0100
0001
0010
0100
0010
0001
0100
0010
1000
0100
0010
0100
1000
0010
,
1000
0010
0100
0001
0010
0100
0010
0001
0100
0010
1000
0100
0010
0100
1000
0010
,
1000
0010
0100
0001
0010
0100
0010
0001
0100
0010
1000
0100
0010
0100
1000
0010
,
1000
0001
0010
0100
1000
0010
0100
0010
1000
0100
0010
0001
0100
0001
1000
0100
0010
0100
1000
0010
0100
0001
0010
0100
1000
0001
0100
0010
1000
0100
0010
0001
,
1000
0000
0000
0001
0000
0000
1000
0000
0000
0000
0001
0000
0000
0000
1000
0000
0000
0000
0001
0000
0000
0000
0000
0000
0000
0000
0000
0000
1000
0000
0000
0000
,
0000
0000
0000
0000
,
0001
0100
0010
1000
0100
0010
0001
1000
0010
1000
0001
0010
0100
1000
0001
0100
0001
1000
0100
0010
0001
0100
0010
1000
0100
0010
0100
1000
0001
0100
0010
1000
,
0001
0000
0000
0000
0000
0000
0000
0000
1000
0000
0010
0000
0100
0000
0001
0000
0010
0000
0000
0000
0000
0000
0000
0000
0001
0010
0100
1000
0010
0100
0010
1000
,
0001
0000
0000
0000
0000
0000
0000
0000
1000
0000
0010
0000
0100
0000
0001
0000
0010
0000
0000
0000
0000
0000
0000
0000
0001
0100
0010
1000
0100
0010
0100
1000
,
0001
0000
0000
0000
0000
0000
0000
0000
0100
0000
0010
0000
1000
0000
0100
0000
0010
0000
0000
0000
0000
0000
0000
0000
0001
0010
0100
0010
0001
0100
0010
1000
,
0100
0000
0000
0000
0000
0000
0000
0000
1000
0000
0010
0000
0100
0000
0001
0000
0010
0000
0000
0000
0000
0000
0000
0000
0100
1000
0010
1000
0100
0010
0001
0100
,
0010
0000
0000
0000
0000
0000
0000
0000
0100
0000
0001
0000
0010
0000
0100
0000
1000
0000
0000
0000
0000
0000
0000
0000
0001
0010
0100
0010
0001
1000
0010
0100
,
0001
0000
0000
0000
0000
0000
0000
0000
0100
0000
0010
0000
1000
0000
0001
0000
0010
0000
0000
0000
0000
0000
0000
0000
0100
1000
0010
0100
0001
0010
0100
1000
,
0001
0000
0000
0000
0000
0000
0000
0000
0100
0000
0001
0000
1000
0000
0100
0000
0010
0000
0000
0000
0000
0000
0000
0000
0001
0100
0010
1000
0100
0010
0001
0100
,
0001
0000
0000
0000
1000
0010
0100
0001
0010
0000
0000
0010
0000
0000
0000
0000
,
0010
0000
0010
0000
0010
0000
0010
0001
0000
0000
0001
0000
0000
0000
0001
0000
,
1000
0000
1000
0000
1000
0000
1000
0100
0000
0000
0100
0000
0000
0000
0100
0000
,
0010
0000
0010
0000
0010
0000
0010
0001
0000
0000
0001
0000
0000
0000
0001
0000
,
0100
0000
0100
0000
0100
0000
0100
0010
0000
0000
0010
0000
0100
0001
0010
0100
,
1000
0000
1000
0000
1000
0000
1000
0100
0000
0000
0100
0000
0000
0000
0100
0000
,
0010
0000
0010
0000
0010
0000
0010
0001
0000
0000
0001
0000
0000
0000
0001
0000
,
0100
0000
0100
0000
0100
0000
0100
0010
0000
0000
0010
0000
0000
0000
0010
0000
,
1000
0000
1000
0000
1000
0000
1000
0100
0000
0000
0100
0000
0010
0001
0100
0010
,
1000
0001
0100
0010
1000
0100
0010
0001
1000
0000
0000
0000
0000
0000
0000
0000
0001
0010
0100
1000
0010
0100
0001
1000
0010
0000
0000
0000
0000
0000
0000
0000
,
1000
0100
0010
0001
0100
0010
1000
0100
0010
0000
0000
0000
0000
0000
0000
0000
0001
0010
0100
1000
0010
0100
0001
0010
0100
0000
0000
0000
0000
0000
0000
0000
,
1000
0010
0100
0001
0010
0100
1000
0001
0100
0000
0000
0000
0000
0000
0000
0000
0001
0100
0010
1000
0100
0010
0001
1000
0010
0000
0000
0000
0000
0000
0000
0000
,
1000
0100
0010
0001
0100
0010
1000
0100
1000
0000
0000
0000
0000
0000
0000
0000
0001
0010
0100
1000
0010
0100
0001
0010
0001
0000
0000
0000
0000
0000
0000
0000
,
1000
0010
0100
0001
0010
0100
1000
0001
0100
0000
0000
0000
0000
0000
0000
0000
0001
0100
0010
1000
0100
0010
0001
1000
0010
0000
0000
0000
0000
0000
0000
0000
,
1000
0100
0010
0001
0100
0010
1000
0100
0010
0000
0000
0000
0000
0000
0000
0000
0001
0010
0100
1000
0010
0100
0001
0010
0100
0000
0000
0000
0000
0000
0000
0000
,
0000
0000
0000
0000
0000
0000
0000
1001
0000
0000
0000
0000
0000
0000
0000
0000
;

//---------------dance-single - ----------------
#NOTES:
     dance-single:
     :
     Hard:
     16:
     1.000,1.000,0.009,0.034,1.000,813.000,1.000,4.000,0.000,0.000:
0000
0000
0000
0000
,
0001
0000
1000
0000
0000
0000
0010
0000
0000
0000
0100
0000
0000
0001
0000
0000
,
0010
0000
0100
0000
0000
0000
1000
0000
0000
0000
0001
0000
0000
1000
0000
0000
,
0100
0000
0010
0000
0000
0000
0001
0000
0000
0000
1000
0000
0000
0010
0000
0000
,
0100
0000
0001
0000
0000
0000
0010
0000
0000
0000
0100
0000
0000
1000
0000
0000
,
0001
0000
0000
0000
0000
0000
0000
0000
0000
0000
0000
0000
0000
0000
0000
0000
1000
0000
0000
0000
0000
0000
0000
0000
0000
0000
0000
0000
0000
0000
0000
0000
0001
0000
0000
0000
0000
0000
0000
0000
0000
0000
0000
0000
0000
0000
0000
0000
0000
0000
0000
0000
0000
0000
0000
0000
1000
0000
0000
0000
0000
0000
0000
0000
0000
0000
0000
0000
0010
0000
0000
0000
0000
0000
0000
0000
0000
0000
0000
0000
1000
0000
0000
0000
0000
0000
0000
0000
0000
0000
0000
0000
0000
0000
0000
0000
0000
0000
0000
0000
0000
0000
0000
0000
0000
0000
0000
0000
0001
0000
0000
0000
0000
0000
0000
0000
0000
0000
0000
0000
0000
0000
0000
0000
0000
0000
0000
0000
0000
0000
0000
0000
0001
0000
0000
0000
0000
0000
0100
0000
0000
0000
0000
0000
0001
0000
0000
0000
0000
0000
1000
0000
0000
0000
0000
0000
0010
0000
0000
0000
0000
0000
0100
0000
0000
0000
0000
0000
0001
0000
0000
0000
0000
0000
1000
0000
0000
0000
0000
0000
0010
0000
0000
0000
0000
0000
1000
0000
0000
0000
0000
0000
,
0001
0000
0001
0000
0001
0000
0001
0100
0000
0000
0100
0000
0000
0000
0100
0000
,
0001
0000
0001
0000
0001
0000
0001
0010
0000
0000
0010
0000
0000
0000
0010
0000
,
0100
0000
0100
0000
0100
0000
0100
1000
0000
0000
1000
0000
0000
0000
1000
0000
,
0010
0000
0010
0000
0010
0000
0010
0100
0000
0000
0100
0000
0010
1000
0100
0010
,
0001
0000
0001
0000
0001
0000
0001
0010
0000
0000
0010
0000
0000
0000
0010
0000
,
0100
0000
0100
0000
0100
0000
0100
1000
0000
0000
1000
0000
0000
0000
1000
0000
,
0010
0000
0010
0000
0010
0000
0010
0100
0000
0000
0100
0000
0000
0000
0100
0000
,
0001
0010
0100
1000
0010
0100
0001
0010
0100
1000
0010
0100
0001
0000
0010
0000
,
0100
0000
0000
0000
1000
0000
0000
0000
0100
0000
0000
0000
1000
0000
0100
0000
1000
0000
0001
0010
0001
1000
0100
0010
0001
0000
0000
0000
0010
0000
0000
0000
,
0100
0000
1000
0000
0001
1000
0000
0001
0000
0000
0000
0000
2000
0000
0000
3000
,
0001
0100
0010
1000
0001
0100
0001
1000
0010
0100
0001
1000
0010
1000
0001
0100
0010
1000
0010
0100
0001
0100
0010
1000
0001
0000
0000
0000
2000
0000
3000
0000
,
0010
0000
0000
0000
0000
0000
0000
0000
0100
0000
0001
0000
0010
0000
0100
0000
1000
0000
0000
0000
0000
0000
0000
0000
0001
0010
0100
1000
0001
0010
0100
1000
,
0001
0000
0000
0000
0000
0000
0000
0000
1000
0000
0010
0000
0100
0000
0001
0000
0010
0000
0000
0000
0000
0000
0000
0000
0001
0100
0010
1000
0001
1000
0010
0100
,
0001
0000
0000
0000
0000
0000
0000
0000
0100
0000
0010
0000
1000
0000
0100
0000
0010
0000
0000
0000
0000
0000
0000
0000
0001
0010
0100
1000
0001
0010
0100
1000
,
0001
0000
0000
0000
0000
0000
0000
0000
1000
0000
0010
0000
0100
0000
0001
0000
0010
0000
0000
0000
0000
0000
0000
0000
0001
1000
0010
1000
0001
0100
0001
1000
,
0010
0000
0000
0000
0000
0000
0000
0000
0100
0000
0001
0000
0010
0000
0100
0000
1000
0000
0000
0000
0000
0000
0000
0000
0001
0010
0100
1000
0001
0010
0100
1000
,
0001
0000
0000
0000
0000
0000
0000
0000
0100
0000
0010
0000
1000
0000
0001
0000
0010
0000
0000
0000
0000
0000
0000
0000
0001
0100
0001
1000
0010
0100
0001
1000
,
0010
0000
0000
0000
0000
0000
0000
0000
0100
0000
0001
0000
1000
0000
0100
0000
0010
0000
0000
0000
0000
0000
0000
0000
0100
1000
0001
0010
0001
1000
0100
0010
,
0001
0000
0000
0000
1000
0010
0100
0001
0010
0000
0000
0010
0002
0000
0000
0003
,
1000
0010
0100
0001
1000
0010
1000
0001
0100
0010
1000
0001
0100
0001
1000
0010
0100
0001
0100
0010
1000
0010
0100
0001
1000
0000
0000
0000
0002
0000
0003
0000
,
1000
1000
0100
0100
0010
0010
0001
0001
,
1000
0100
0010
0001
1000
0100
0010
0001
1000
0010
0100
0001
1000
0010
0100
0001
,
1000
0010
0100
0001
1000
0010
1000
0001
0100
0010
1000
0001
0100
0001
1000
0010
0100
0001
0100
0010
1000
0010
0100
0001
1000
0010
1000
0001
0100
0001
1000
0010
,
1000
0000
0000
0000
,
0000
0000
0000
0000
,
0000
0000
0000
0000
,
1000
0010
0100
0001
0010
0100
0010
0001
0100
0010
1000
0100
0010
0100
1000
0010
,
1000
0010
0100
0001
0010
0100
0010
0001
0100
0010
1000
0100
0010
0100
1000
0010
,
1000
0010
0100
0001
0010
0100
0010
0001
0100
0010
1000
0100
0010
0100
1000
0010
,
1000
0010
0100
0001
0010
0100
0010
0001
0100
0010
1000
0100
0010
0100
1000
0010
,
1000
0010
0100
0001
0010
0100
0010
0001
0100
0010
1000
0100
0010
0100
1000
0010
,
1000
0010
0100
0001
0010
0100
0010
0001
0100
0010
1000
0100
0010
0100
1000
0010
,
1000
0010
0100
0001
0010
0100
0010
0001
0100
0010
1000
0100
0010
0100
1000
0010
,
1000
0010
0100
0001
0010
0100
0010
0001
0100
0010
1000
0100
0010
0100
1000
0010
,
1000
0010
0100
0001
1000
0010
1000
0001
0100
0010
1000
0001
0100
0001
1000
0010
0100
0001
0100
0010
1000
0010
0100
0001
1000
0010
1000
0001
0100
0001
1000
0010
,
1000
0000
0000
0001
0000
0000
1000
0000
0000
0000
0001
0000
0000
0000
1000
0000
0000
0000
0001
0000
0000
0000
0000
0000
0000
0000
0000
0000
1000
0000
0000
0000
,
0000
0000
0000
0000
,
0001
0100
0010
1000
0001
0100
0001
1000
0010
0100
0001
1000
0010
1000
0001
0100
0010
1000
0010
0100
0001
0100
0010
1000
0001
0100
0001
1000
0010
1000
0001
0100
,
0001
0000
0000
0000
0000
0000
0000
0000
1000
0000
0010
0000
0100
0000
0001
0000
0010
0000
0000
0000
0000
0000
0000
0000
0001
0010
0100
1000
0001
0010
0100
1000
,
0001
0000
0000
0000
0000
0000
0000
0000
1000
0000
0010
0000
0100
0000
0001
0000
0010
0000
0000
0000
0000
0000
0000
0000
0001
0100
0010
1000
0001
1000
0010
0100
,
0001
0000
0000
0000
0000
0000
0000
0000
0100
0000
0010
0000
1000
0000
0100
0000
0010
0000
0000
0000
0000
0000
0000
0000
0001
0010
0100
1000
0001
0010
0100
1000
,
0001
0000
0000
0000
0000
0000
0000
0000
1000
0000
0010
0000
0100
0000
0001
0000
0010
0000
0000
0000
0000
0000
0000
0000
0001
1000
0010
1000
0001
0100
0001
1000
,
0010
0000
0000
0000
0000
0000
0000
0000
0100
0000
0001
0000
0010
0000
0100
0000
1000
0000
0000
0000
0000
0000
0000
0000
0001
0010
0100
1000
0001
0010
0100
1000
,
0001
0000
0000
0000
0000
0000
0000
0000
0100
0000
0010
0000
1000
0000
0001
0000
0010
0000
0000
0000
0000
0000
0000
0000
0001
0100
0001
1000
0010
0100
0001
1000
,
0010
0000
0000
0000
0000
0000
0000
0000
0100
0000
0001
0000
1000
0000
0100
0000
0010
0000
0000
0000
0000
0000
0000
0000
0100
1000
0001
0010
0001
1000
0100
0010
,
0001
0000
0000
0000
1000
0010
0100
0001
0010
0000
0000
0010
0000
0000
0000
0000
,
0010
0000
0010
0000
0010
0000
0010
0001
0000
0000
0001
0000
0000
0000
0001
0000
,
1000
0000
1000
0000
1000
0000
1000
0100
0000
0000
0100
0000
0000
0000
0100
0000
,
0010
0000
0010
0000
0010
0000
0010
0001
0000
0000
0001
0000
0000
0000
0001
0000
,
0100
0000
0100
0000
0100
0000
0100
0010
0000
0000
0010
0000
0100
0001
0010
0100
,
1000
0000
1000
0000
1000
0000
1000
0100
0000
0000
0100
0000
0000
0000
0100
0000
,
0010
0000
0010
0000
0010
0000
0010
0001
0000
0000
0001
0000
0000
0000
0001
0000
,
0100
0000
0100
0000
0100
0000
0100
0010
0000
0000
0010
0000
0000
0000
0010
0000
,
1000
0000
1000
0000
1000
0000
1000
0100
0000
0000
0100
0000
0010
0001
0100
0010
,
1000
0010
0100
0001
1000
0001
0100
0010
1000
0000
0000
0000
0000
0000
0000
0000
0001
0010
0100
1000
0001
0010
0100
1000
0001
0000
0000
0000
0000
0000
0000
0000
,
1000
0100
0010
0001
1000
0100
0010
0001
1000
0000
0000
0000
0000
0000
0000
0000
0001
0100
0010
1000
0001
0100
0001
1000
0100
0000
0000
0000
0000
0000
0000
0000
,
1000
0010
0100
0001
1000
0010
1000
0001
0100
0000
0000
0000
0000
0000
0000
0000
0001
1000
0100
1000
0001
0100
0001
1000
0100
0000
0000
0000
0000
0000
0000
0000
,
1000
0100
1000
0001
0010
0100
0010
0001
1000
0000
0000
0000
0000
0000
0000
0000
0001
0010
0100
1000
0001
0010
0001
1000
0100
0000
0000
0000
0000
0000
0000
0000
,
1000
0001
0100
0001
1000
0010
1000
0001
0100
0000
0000
0000
0000
0000
0000
0000
0001
1000
0010
1000
0001
0100
0001
1000
0010
0000
0000
0000
0000
0000
0000
0000
,
1000
0001
0010
0001
1000
0100
0010
0001
1000
0000
0000
0000
0000
0000
0000
0000
0001
1000
0100
1000
0001
0010
0100
1000
0001
0000
0000
0000
0000
0000
0000
0000
,
0000
0000
0000
0000
0000
0000
0000
1001
0000
0000
0000
0000
0000
0000
0000
0000
;
